osu file format v14

[General]
AudioFilename: -Minna no Rhythm Tengoku Music- Stage 4-1 Wrestler Interview.mp3
AudioLeadIn: 0
PreviewTime: -1
Countdown: 1
SampleSet: Normal
StackLeniency: 0.7
Mode: 0
LetterboxInBreaks: 1
WidescreenStoryboard: 1

[Editor]
DistanceSpacing: 1
BeatDivisor: 4
GridSize: 8
TimelineZoom: 1

[Metadata]
Title:Ringside
TitleUnicode:Ringside
Artist:TSUNKU
ArtistUnicode:TSUNKU♂
Creator:AfroSergeant64
Version:Normal
Source:Rhythm Heaven
Tags:wrestler ringside rhythm heaven game
BeatmapID:760958
BeatmapSetID:331367

[Difficulty]
HPDrainRate:4
CircleSize:4
OverallDifficulty:3
ApproachRate:2
SliderMultiplier:1.4
SliderTickRate:1

[Events]
//Background and Video events
0,0,"object-4.jpeg",0,0
Video,-880,"Ringside.avi"
//Break Periods
//Storyboard Layer 0 (Background)
//Storyboard Layer 1 (Fail)
//Storyboard Layer 2 (Pass)
//Storyboard Layer 3 (Foreground)
//Storyboard Sound Samples

[TimingPoints]
993.824778417436,509.683995922528,4,1,0,90,1,0
49923,-100,4,1,0,90,0,1
68272,-100,4,1,0,90,0,0

[HitObjects]
48,120,1121,5,0,0:0:0:0:
48,120,1376,1,0,0:0:0:0:
152,120,1630,1,0,0:0:0:0:
256,120,1885,2,0,L|376:120,2,105
256,120,2905,1,0,0:0:0:0:
256,216,3414,5,0,0:0:0:0:
256,216,3669,1,0,0:0:0:0:
160,216,3924,2,0,L|88:216,4,70
96,304,5198,5,0,0:0:0:0:
96,304,5453,1,0,0:0:0:0:
192,304,5708,1,0,0:0:0:0:
304,304,5963,1,0,0:0:0:0:
304,304,6090,1,0,0:0:0:0:
400,304,6345,2,0,L|400:168,1,105
400,200,6982,1,0,0:0:0:0:
256,192,7237,12,8,8766,0:0:0:0:
32,128,9276,6,0,L|256:128,1,210
288,128,10295,1,0,0:0:0:0:
336,128,10805,2,0,B|480:128|480:128|480:352|480:352|304:352|304:352,1,525
264,352,13353,2,0,B|120:352|120:352|120:128|120:128|352:128|352:128,1,595
256,192,15774,12,0,17431,0:0:0:0:
104,48,17940,5,0,0:0:0:0:
112,168,18450,1,0,0:0:0:0:
200,168,19215,2,0,L|296:168,1,70
336,168,20234,2,0,L|432:168,1,70
406,168,20744,1,0,0:0:0:0:
304,264,21508,5,0,0:0:0:0:
304,176,22018,1,0,0:0:0:0:
304,88,22527,1,0,0:0:0:0:
184,88,23292,1,0,0:0:0:0:
184,88,23547,1,0,0:0:0:0:
80,88,24311,1,0,0:0:0:0:
80,88,24566,1,0,0:0:0:0:
192,88,25458,6,0,L|192:168|192:160,4,70
272,80,26732,2,2,L|272:168,2,70
272,80,27624,1,2,0:0:0:0:
368,80,28134,5,2,0:0:0:0:
480,80,28644,5,2,0:0:0:0:
480,176,29153,5,6,0:0:0:0:
368,184,29663,5,0,0:0:0:0:
272,184,30173,1,0,0:0:0:0:
184,184,30682,1,0,0:0:0:0:
80,184,31574,2,0,L|80:352,2,140
80,184,32849,1,8,0:0:0:0:
80,184,33103,1,8,0:0:0:0:
184,192,33741,5,0,0:0:0:0:
280,192,33868,2,0,L|360:192,1,70
352,192,34378,1,0,0:0:0:0:
352,312,34632,1,0,0:0:0:0:
264,312,35397,2,0,L|200:312,3,35
192,312,36416,2,0,L|128:312,3,35
104,312,36926,2,0,L|64:312,6,35
96,232,37691,6,0,L|96:144,1,70
192,160,38200,1,0,0:0:0:0:
288,160,38455,1,0,0:0:0:0:
288,160,38710,1,0,0:0:0:0:
368,160,39347,6,0,L|408:160,3,35
376,232,40366,2,0,L|416:232,3,35
376,304,41004,1,0,0:0:0:0:
296,312,41258,2,0,L|232:312,4,35
184,312,42023,5,0,0:0:0:0:
128,256,42278,2,0,L|64:176,1,70
40,128,43042,1,0,0:0:0:0:
88,128,43297,1,0,0:0:0:0:
128,128,43552,1,0,0:0:0:0:
216,144,43807,1,2,0:0:0:0:
216,24,44316,5,2,0:0:0:0:
352,24,44826,5,2,0:0:0:0:
360,144,45336,5,6,0:0:0:0:
360,240,45846,6,0,L|360:328,2,70
360,240,46610,1,0,0:0:0:0:
280,248,46865,2,0,L|192:248,3,70
144,248,48139,6,0,L|48:248,2,70
144,192,48904,2,0,L|144:48,1,140
208,56,49923,5,0,0:0:0:0:
288,56,50433,1,0,0:0:0:0:
360,56,50942,1,0,0:0:0:0:
432,56,51452,1,0,0:0:0:0:
432,128,51962,1,0,0:0:0:0:
432,200,52471,1,0,0:0:0:0:
432,272,52981,1,0,0:0:0:0:
304,280,54000,1,0,0:0:0:0:
304,280,54255,1,0,0:0:0:0:
184,280,55912,6,0,L|160:240,6,35
264,280,57059,1,0,0:0:0:0:
384,280,58078,5,0,0:0:0:0:
384,208,58588,1,0,0:0:0:0:
384,136,59097,1,0,0:0:0:0:
384,64,59607,1,0,0:0:0:0:
312,64,60117,1,0,0:0:0:0:
240,72,60626,1,0,0:0:0:0:
240,72,60881,1,0,0:0:0:0:
160,72,61136,1,0,0:0:0:0:
160,152,62028,6,0,L|160:328,1,175
248,328,63175,1,0,0:0:0:0:
328,328,63684,1,0,0:0:0:0:
408,328,64194,1,0,0:0:0:0:
408,264,64576,6,0,L|408:192,1,70
408,128,65341,1,0,0:0:0:0:
408,128,65596,1,0,0:0:0:0:
408,128,65851,1,0,0:0:0:0:
256,192,66615,12,0,68272,0:0:0:0:
80,104,69291,5,0,0:0:0:0:
168,104,69801,1,0,0:0:0:0:
256,104,70310,2,0,P|352:120|256:296,1,385
176,288,72222,6,0,L|104:208,1,105
104,208,72986,1,0,0:0:0:0:
104,144,73368,2,0,L|104:40,1,105
104,40,74133,1,0,0:0:0:0:
176,40,74388,2,0,L|448:40,1,245
424,176,76299,5,0,0:0:0:0:
352,176,76681,2,0,L|248:176,1,105
192,176,77319,2,0,L|49:176|1:176,1,175
24,248,78465,5,0,0:0:0:0:
104,248,78975,2,0,L|240:248,1,105
272,248,80504,5,0,0:0:0:0:
328,248,80631,2,0,L|408:248,1,70
398,248,81014,2,0,L|400:160,2,70
400,248,81906,1,0,0:0:0:0:
408,344,82288,6,0,B|16:344|16:344|16:48|16:48|416:48,1,1085
256,192,88532,12,4,92482,0:0:0:0:
