osu file format v14

[General]
AudioFilename: -Minna no Rhythm Tengoku Music- Stage 4-1 Wrestler Interview.mp3
AudioLeadIn: 0
PreviewTime: -1
Countdown: 1
SampleSet: Normal
StackLeniency: 0.7
Mode: 0
LetterboxInBreaks: 1
WidescreenStoryboard: 0

[Editor]
DistanceSpacing: 1
BeatDivisor: 4
GridSize: 8
TimelineZoom: 1

[Metadata]
Title:Ringside
TitleUnicode:Ringside
Artist:TSUNKU
ArtistUnicode:TSUNKU♂
Creator:AfroSergeant64
Version:Hard
Source:Rhythm Heaven
Tags:wrestler ringside rhythm heaven game
BeatmapID:734066
BeatmapSetID:331367

[Difficulty]
HPDrainRate:7
CircleSize:5
OverallDifficulty:5
ApproachRate:4
SliderMultiplier:1.4
SliderTickRate:1

[Events]
//Background and Video events
0,0,"object-4.jpeg",0,0
Video,-880,"Ringside.avi"
//Break Periods
2,84654,87339
//Storyboard Layer 0 (Background)
//Storyboard Layer 1 (Fail)
//Storyboard Layer 2 (Pass)
//Storyboard Layer 3 (Foreground)
//Storyboard Sound Samples

[TimingPoints]
993.824778417436,509.683995922528,4,1,0,90,1,0
49923,-100,4,1,0,90,0,1
68272,-100,4,1,0,90,0,0

[HitObjects]
48,104,1121,5,0,0:0:0:0:
48,104,1376,1,0,0:0:0:0:
88,152,1630,1,0,0:0:0:0:
144,200,1885,1,0,0:0:0:0:
148,205,2013,1,0,0:0:0:0:
224,160,2268,1,0,0:0:0:0:
296,112,2522,1,0,0:0:0:0:
328,88,2650,1,0,0:0:0:0:
432,88,2905,1,0,0:0:0:0:
80,80,3287,6,0,L|192:80,1,105
192,80,3924,1,0,0:0:0:0:
192,80,4051,1,0,0:0:0:0:
209,79,4306,1,0,0:0:0:0:
295,84,4561,1,0,0:0:0:0:
295,84,4689,1,0,0:0:0:0:
395,86,4943,1,0,0:0:0:0:
396,174,5198,5,0,0:0:0:0:
355,215,5453,1,0,0:0:0:0:
355,215,5708,1,0,0:0:0:0:
310,253,5963,1,0,0:0:0:0:
265,289,6090,1,0,0:0:0:0:
218,321,6345,1,0,0:0:0:0:
134,228,6600,5,0,0:0:0:0:
106,183,6727,1,0,0:0:0:0:
79,139,6982,1,0,0:0:0:0:
256,192,7110,12,0,8766,0:0:0:0:
139,81,9276,6,0,L|276:79,1,105
243,79,10040,1,0,0:0:0:0:
297,79,10295,2,0,P|426:71|431:74,1,140
428,72,11314,6,0,P|411:265|194:340,1,420
256,192,13226,12,0,16921,0:0:0:0:
80,69,17431,5,0,0:0:0:0:
80,69,17685,1,0,0:0:0:0:
80,69,17940,1,0,0:0:0:0:
130,114,18195,1,0,0:0:0:0:
153,130,18450,1,0,0:0:0:0:
247,61,19215,5,0,0:0:0:0:
247,61,19470,1,0,0:0:0:0:
252,141,20234,5,0,0:0:0:0:
252,175,20489,1,0,0:0:0:0:
247,243,20744,6,0,P|297:357|319:338,1,210
302,353,21763,1,0,0:0:0:0:
359,349,22018,2,0,L|432:318,1,70
397,256,22527,1,0,0:0:0:0:
281,171,23292,5,0,0:0:0:0:
180,251,23546,1,0,0:0:0:0:
124,175,24184,6,0,L|24:173,3,70
186,179,25586,5,0,0:0:0:0:
222,179,25840,1,0,0:0:0:0:
187,260,26095,1,0,0:0:0:0:
222,259,26350,1,0,0:0:0:0:
339,283,26860,5,0,0:0:0:0:
338,226,27115,1,0,0:0:0:0:
337,167,27369,1,0,0:0:0:0:
40,32,27624,5,2,0:0:0:0:
472,160,28134,5,2,0:0:0:0:
32,232,28644,5,2,0:0:0:0:
472,352,29153,5,2,0:0:0:0:
368,296,29663,5,0,0:0:0:0:
368,296,29918,1,0,0:0:0:0:
288,248,30173,2,0,L|224:200,1,70
232,206,30682,1,0,0:0:0:0:
168,144,30937,5,0,0:0:0:0:
128,112,31192,1,0,0:0:0:0:
88,72,31447,1,0,0:0:0:0:
240,56,31702,6,0,L|400:56,2,140
248,64,32976,1,8,0:0:0:0:
248,64,33231,1,8,0:0:0:0:
176,176,33741,6,0,L|176:80,2,70
176,256,34505,1,0,0:0:0:0:
176,320,34760,1,0,0:0:0:0:
280,304,35397,6,0,L|384:312,1,105
392,240,36416,1,0,0:0:0:0:
368,192,36671,1,0,0:0:0:0:
328,128,36926,2,0,L|288:56,3,70
136,72,37945,5,0,0:0:0:0:
136,112,38073,1,0,0:0:0:0:
136,144,38200,1,0,0:0:0:0:
136,192,38455,2,0,L|136:272,1,70
200,296,38965,1,0,0:0:0:0:
200,296,39220,1,0,0:0:0:0:
272,304,39474,6,0,L|352:304,3,70
272,304,40366,2,0,L|272:248,3,35
272,232,41004,1,0,0:0:0:0:
320,208,41258,5,0,0:0:0:0:
352,192,41386,1,0,0:0:0:0:
384,176,41513,1,0,0:0:0:0:
424,160,41641,1,0,0:0:0:0:
424,40,41768,5,0,0:0:0:0:
368,40,42023,2,0,L|296:40,3,70
240,40,43042,1,0,0:0:0:0:
176,40,43297,1,0,0:0:0:0:
112,40,43552,1,0,0:0:0:0:
32,192,43807,5,2,0:0:0:0:
480,192,44316,5,2,0:0:0:0:
256,32,44826,5,2,0:0:0:0:
256,352,45336,5,2,0:0:0:0:
256,200,45846,6,0,L|328:168,3,70
320,176,46865,1,0,0:0:0:0:
384,152,47120,2,0,L|312:64,1,105
317,70,47629,1,0,0:0:0:0:
104,232,47884,6,0,B|240:192|176:200|264:224,3,140
296,224,49923,5,0,0:0:0:0:
320,224,50178,1,0,0:0:0:0:
352,224,50433,1,0,0:0:0:0:
384,224,50688,1,0,0:0:0:0:
416,216,50942,1,0,0:0:0:0:
424,192,51197,1,0,0:0:0:0:
432,168,51452,1,0,0:0:0:0:
440,144,51707,1,0,0:0:0:0:
448,112,51962,1,0,0:0:0:0:
432,96,52217,1,0,0:0:0:0:
416,80,52471,1,0,0:0:0:0:
384,72,52726,1,0,0:0:0:0:
344,64,52981,1,0,0:0:0:0:
312,64,53236,1,0,0:0:0:0:
280,64,53491,1,0,0:0:0:0:
240,64,53746,1,0,0:0:0:0:
208,64,54000,1,0,0:0:0:0:
168,64,54255,1,0,0:0:0:0:
144,200,54510,6,0,L|208:200,9,35
224,200,55912,2,0,L|288:200,3,35
296,200,56421,2,0,L|360:200,5,35
416,192,58078,5,0,0:0:0:0:
416,160,58333,1,0,0:0:0:0:
408,128,58588,1,0,0:0:0:0:
392,104,58842,1,0,0:0:0:0:
368,88,59097,1,0,0:0:0:0:
336,80,59352,1,0,0:0:0:0:
288,80,59607,1,0,0:0:0:0:
248,80,59862,1,0,0:0:0:0:
192,80,59989,2,0,L|128:80,5,35
144,80,60881,1,0,0:0:0:0:
144,80,61136,1,0,0:0:0:0:
144,200,62155,5,0,0:0:0:0:
224,200,62538,2,0,L|312:200,3,70
336,200,63557,2,0,L|464:200,1,105
440,80,64194,5,0,0:0:0:0:
320,80,64704,5,0,0:0:0:0:
288,80,64959,1,0,0:0:0:0:
168,80,65468,5,0,0:0:0:0:
168,152,65723,1,0,0:0:0:0:
168,224,65978,1,0,0:0:0:0:
168,296,66233,1,4,0:0:0:0:
256,192,66615,12,0,68144,0:0:0:0:
256,80,68654,5,0,0:0:0:0:
256,88,69036,2,0,L|256:184,1,70
256,160,69801,1,0,0:0:0:0:
256,160,70310,2,0,P|96:192|224:336,1,420
312,328,72349,5,0,0:0:0:0:
384,328,72731,1,0,0:0:0:0:
384,328,73114,1,0,0:0:0:0:
384,264,73368,2,0,L|384:128,1,105
384,160,74006,1,0,0:0:0:0:
384,160,74260,2,0,L|104:160,1,280
104,160,76427,6,0,L|104:48,1,105
104,56,77064,1,0,0:0:0:0:
112,56,77319,2,0,L|288:56,1,175
288,56,78465,1,0,0:0:0:0:
296,56,78848,2,0,L|376:56,2,70
192,168,80377,5,0,0:0:0:0:
200,176,80759,1,0,0:0:0:0:
200,176,80886,1,0,0:0:0:0:
288,176,81269,1,0,0:0:0:0:
296,176,81396,1,0,0:0:0:0:
344,216,81523,1,0,0:0:0:0:
392,256,81778,1,0,0:0:0:0:
392,256,81906,1,0,0:0:0:0:
480,288,82288,6,0,L|472:64,1,210
472,78,83307,2,0,B|168:80|232:80,1,245
227,79,84327,1,0,0:0:0:0:
227,79,84454,1,0,0:0:0:0:
256,192,88659,12,4,92609,0:0:0:0:
