osu file format v14

[General]
AudioFilename: Trail of Dust.mp3
AudioLeadIn: 1881
PreviewTime: 232536
Countdown: 0
SampleSet: Soft
StackLeniency: 0.5
Mode: 0
LetterboxInBreaks: 0
WidescreenStoryboard: 0

[Editor]
Bookmarks: 21547,37372,53196,63745,84844,105943,119130,127042,148141,169240,179130,179789,190339,227262,231218,232536,253635,273416,274734,316932,338031,348910,369679,390778
DistanceSpacing: 1.6
BeatDivisor: 8
GridSize: 32
TimelineZoom: 3.000005

[Metadata]
Title:Trail of Dust
TitleUnicode:Trail of Dust
Artist:TRakker
ArtistUnicode:TRakker
Creator:[ HalLoWeeN ]
Version:Ascension
Source:
Tags:TRanswing -Inner Gaze- Taishi AobaRingo
BeatmapID:674484
BeatmapSetID:300733

[Difficulty]
HPDrainRate:6
CircleSize:4.5
OverallDifficulty:8.2
ApproachRate:9.3
SliderMultiplier:1.8
SliderTickRate:1

[Events]
//Background and Video events
0,0,"BG.jpg",0,0
//Break Periods
2,42848,52644
2,169442,178578
2,253837,263633
2,319771,337479
//Storyboard Layer 0 (Background)
//Storyboard Layer 1 (Fail)
//Storyboard Layer 2 (Pass)
//Storyboard Layer 3 (Foreground)
//Storyboard Sound Samples

[TimingPoints]
451,329.67032967033,4,2,2,20,1,0
451,-200,4,2,2,20,0,0
780,-200,4,2,3,50,0,0
11000,-100,4,2,3,50,0,0
11494,-200,4,2,3,50,0,0
16275,-100,4,2,3,50,0,0
16769,-200,4,2,3,50,0,0
21549,-125,4,2,1,50,0,0
26824,-100,4,2,1,50,0,0
27319,-125,4,2,1,50,0,0
32099,-100,4,2,1,50,0,0
32593,-125,4,2,1,50,0,0
37373,-125,4,1,3,15,0,0
38692,-125,4,1,3,20,0,0
39681,-125,4,1,3,30,0,0
41000,-125,4,1,3,35,0,0
41989,-83.3333333333333,4,1,3,45,0,0
53198,-166.666666666667,4,2,0,45,0,0
58472,-142.857142857143,4,1,3,15,0,0
59791,-125,4,1,3,25,0,0
61110,-111.111111111111,4,1,3,35,0,0
62429,-100,4,2,1,15,0,0
63088,-100,4,1,1,35,0,0
63417,-166.666666666667,4,2,1,15,0,0
63747,-100,4,2,1,70,0,0
73637,-200,4,2,0,50,0,0
73967,-83.3333333333333,4,2,0,50,0,0
74297,-100,4,2,1,70,0,0
80560,-125,4,2,1,50,0,0
81879,-166.666666666667,4,2,1,50,0,0
84187,-200,4,2,0,50,0,0
84516,-83.3333333333333,4,2,1,50,0,0
84846,-125,4,2,2,60,0,1
84929,-125,4,2,2,60,0,0
95396,-125,4,2,2,70,0,1
95478,-125,4,2,2,70,0,0
95725,-125,4,2,2,60,0,0
103308,-100,4,2,2,50,0,0
104626,-200,4,2,1,50,0,0
105286,-125,4,2,2,60,0,0
105945,-200,4,1,1,70,0,0
106027,-200,4,2,3,50,0,0
116494,-200,4,1,1,70,0,0
116577,-200,4,2,3,50,0,0
119132,-166.666666666667,4,2,2,20,0,0
120451,-142.857142857143,4,2,2,25,0,0
121110,-125,4,2,2,30,0,0
121769,-111.111111111111,4,2,2,35,0,0
122429,-100,4,2,2,40,0,0
123088,-83.3333333333333,4,2,2,45,0,0
123747,-71.4285714285714,4,2,2,50,0,0
124407,-62.5,4,2,2,50,0,0
125725,-50,4,2,2,50,0,0
127044,-111.111111111111,4,1,10,70,0,1
127209,-111.111111111111,4,3,1,60,0,0
129599,-111.111111111111,4,2,3,40,0,0
129681,-111.111111111111,4,3,1,60,0,0
134873,-111.111111111111,4,2,3,40,0,0
134956,-111.111111111111,4,3,1,60,0,0
137263,-111.111111111111,4,2,2,60,0,0
137593,-111.111111111111,4,1,10,70,0,1
137758,-111.111111111111,4,3,1,60,0,0
140148,-111.111111111111,4,2,3,40,0,0
140230,-111.111111111111,4,3,1,60,0,0
142868,-100,4,1,3,25,0,0
144186,-100,4,1,3,30,0,0
145505,-100,4,1,3,40,0,0
146824,-100,4,1,3,50,0,0
147483,-83.3333333333333,4,1,3,50,0,0
148143,-83.3333333333333,4,1,10,75,0,1
148307,-83.3333333333333,4,1,1,65,0,1
156055,-83.3333333333333,4,1,1,80,0,1
156220,-83.3333333333333,4,1,1,65,0,1
158692,-83.3333333333333,4,1,1,75,0,1
158774,-83.3333333333333,4,1,1,65,0,1
169242,-83.3333333333333,4,1,1,50,0,0
179131,-133.333333333333,4,2,0,25,0,0
179461,-83.3333333333333,4,2,0,40,0,0
179791,-100,4,2,1,50,0,0
189022,-133.333333333333,4,2,0,50,0,0
190011,-83.3333333333333,4,2,0,50,0,0
190340,-125,4,2,2,60,0,0
200231,-200,4,2,2,50,0,0
200560,-83.3333333333333,4,2,2,50,0,0
200890,-125,4,2,2,60,0,0
211440,-100,4,2,2,65,0,0
221330,-200,4,2,2,50,0,0
221659,-83.3333333333333,4,2,2,50,0,0
221989,-100,4,2,2,65,0,0
227264,-100,4,2,2,50,0,0
231220,-285.714285714286,4,2,1,35,0,0
231879,-83.3333333333333,4,2,2,50,0,0
232538,-90.9090909090909,4,1,10,70,0,1
232703,-90.9090909090909,4,2,1,60,0,1
253307,-90.9090909090909,4,2,1,80,0,1
253637,-90.9090909090909,4,2,1,60,0,0
264187,-200,4,2,0,20,0,0
272181,-200,4,2,0,10,0,0
273417,-100,4,1,1,60,0,0
274736,-100,4,2,2,50,0,1
285203,-100,4,2,2,50,0,0
285286,-83.3333333333333,4,2,2,60,0,1
295753,-83.3333333333333,4,2,2,60,0,0
295835,-74.0740740740741,4,2,2,60,0,1
296165,-83.3333333333333,4,1,2,60,0,1
306302,-83.3333333333333,4,2,2,50,0,0
306385,-74.0740740740741,4,2,2,50,0,1
306714,-83.3333333333333,4,1,2,60,0,1
316934,-100,4,1,10,60,0,0
317016,-100,4,2,0,20,0,0
317923,-100,4,2,0,10,0,0
319571,-100,4,2,0,10,0,0
338033,-166.666666666667,4,1,0,30,0,0
342648,-142.857142857143,4,1,3,15,0,0
343308,-125,4,1,3,20,0,0
344626,-111.111111111111,4,1,3,30,0,0
345945,-100,4,1,3,40,0,0
347263,-100,4,2,1,40,0,0
347923,-83.3333333333333,4,1,3,30,0,0
348252,-74.0740740740741,4,2,1,45,0,0
348582,-200,4,2,0,30,0,0
348912,-83.3333333333333,4,2,1,65,0,0
348994,-100,4,2,1,65,0,0
349241,-100,4,2,1,65,0,0
358472,-200,4,2,1,30,0,0
358802,-74.0740740740741,4,2,1,45,0,0
359132,-100,4,2,1,65,0,0
369022,-166.666666666667,4,2,1,50,0,0
369351,-74.0740740740741,4,2,2,70,0,0
369681,-100,4,2,2,60,0,1
379571,-142.857142857143,4,2,2,50,0,0
379901,-71.4285714285714,4,2,2,70,0,0
380231,-83.3333333333333,4,2,2,75,0,1
380313,-83.3333333333333,4,2,2,60,0,1
390121,-142.857142857143,4,1,2,60,0,1
390451,-66.6666666666667,4,1,2,60,0,1
390780,-100,4,1,10,80,0,0

[Colours]
Combo1 : 128,128,128
Combo2 : 236,135,248
Combo3 : 106,227,244
Combo4 : 243,33,170
Combo5 : 72,95,249
Combo6 : 223,223,223

[HitObjects]
64,64,121,70,0,L|55:51,15,11.25
64,64,451,6,0,L|64:162,1,90,0|0,1:0|0:0,0:0:0:0:
64,224,945,1,0,0:0:0:0:
64,296,1110,2,0,P|108:310|161:285,1,90,8|0,0:0|0:0,0:0:0:0:
254,198,1769,69,0,0:0:0:0:
254,198,1934,1,0,0:0:0:0:
187,169,2099,1,0,0:0:0:0:
178,97,2264,1,0,0:0:0:0:
325,169,2429,6,0,P|330:202|325:230,1,45,8|0,0:0|0:0,0:0:0:0:
215,280,2758,2,0,P|199:250|194:222,1,45
306,293,3005,2,0,L|291:308,1,11.25,8|0,0:0|0:0,0:0:0:0:
306,293,3088,70,0,L|400:290,1,90
467,286,3582,1,0,0:0:0:0:
445,132,3747,2,0,B|431:194|431:194|434:221,1,90,8|0,0:0|0:0,0:0:0:0:
505,353,4242,1,0,0:0:0:0:
316,269,4407,6,0,P|291:273|262:269,1,45,0|0,0:0|0:1,0:0:0:0:
301,123,4736,2,0,P|324:132|347:150,1,45
296,200,5066,2,0,L|191:187,1,90,8|0,0:0|0:0,0:0:0:0:
121,256,5560,1,0,0:0:0:0:
64,163,5725,70,0,P|83:126|129:98,1,90
193,86,6220,1,0,0:0:0:0:
143,170,6385,2,0,L|118:268,1,90,8|0,0:0|0:0,0:0:0:0:
16,270,7044,5,0,0:0:0:0:
16,270,7209,1,0,0:0:0:0:
37,338,7374,1,0,0:0:0:0:
105,358,7538,1,0,0:0:0:0:
235,337,7703,70,0,P|261:327|278:311,1,45,8|0,0:0|0:0,0:0:0:0:
225,211,8033,2,0,P|220:232|223:255,1,45,0|0,0:0|0:0,0:0:0:0:
350,302,8280,2,0,L|360:317,1,11.25,8|0,0:0|0:0,0:0:0:0:
350,302,8363,6,0,P|329:261|290:239,1,90
273,315,8857,1,0,0:0:0:0:
423,289,9022,2,0,P|459:261|474:218,1,90,8|0,0:0|0:0,0:0:0:0:
483,95,9681,69,0,0:0:0:0:
483,95,9846,1,0,0:0:0:0:
412,81,10011,1,0,0:1:0:0:
341,67,10176,1,0,0:1:0:0:
223,27,10341,5,8,0:0:0:0:
223,27,10505,1,0,0:0:0:0:
217,98,10669,1,0,0:0:0:0:
212,170,10834,1,0,0:0:0:0:
188,323,11000,6,0,P|153:345|73:250,1,180,2|0,0:0|0:0,0:0:0:0:
136,275,11494,1,2,0:0:0:0:
255,353,11659,54,0,L|349:350,1,90,8|0,0:0|0:0,0:0:0:0:
485,318,12319,6,0,P|465:293|454:268,1,45
454,209,12648,1,0,0:0:0:0:
454,209,12813,1,0,0:0:0:0:
441,28,12978,69,8,0:0:0:0:
441,28,13143,1,0,0:0:0:0:
419,96,13308,2,0,L|436:151,1,45,0|0,0:0|0:0,0:0:0:0:
359,160,13555,2,0,L|364:179,1,11.25,8|0,0:0|0:0,0:0:0:0:
359,160,13637,6,0,L|260:154,1,90
203,123,14132,1,0,0:0:0:0:
49,83,14297,2,0,L|139:89,1,90,8|0,0:0|0:0,0:0:0:0:
203,123,14956,69,0,0:0:0:0:
142,162,15121,1,0,0:0:0:0:
81,201,15286,1,0,0:0:0:0:
21,241,15451,1,0,0:0:0:0:
209,197,15615,6,0,L|259:190,1,45,8|0,0:0|0:0,0:0:0:0:
131,279,15945,2,0,L|86:272,1,45,0|0,0:0|0:0,0:0:0:0:
327,354,16275,6,0,P|319:308|200:295,1,180,2|0,0:0|0:0,0:0:0:0:
255,342,16769,1,2,0:0:0:0:
411,229,16934,54,0,L|403:319,1,90,8|0,0:0|0:1,0:0:0:0:
320,192,17593,5,0,0:0:0:0:
340,122,17758,1,0,0:0:0:0:
360,53,17923,1,0,0:0:0:0:
391,176,18088,1,0,0:0:0:0:
287,67,18253,69,8,0:0:0:0:
287,67,18418,1,0,0:0:0:0:
410,104,18582,2,0,L|418:158,1,45
270,139,18830,2,0,L|273:160,1,11.25,8|0,0:0|0:0,0:0:0:0:
270,139,18912,6,0,L|174:133,1,90
108,144,19407,1,0,0:0:0:0:
42,284,19571,2,0,L|59:196,1,90,8|0,0:0|0:0,0:0:0:0:
83,72,20066,1,0,0:0:0:0:
225,31,20231,69,0,0:0:0:0:
215,65,20396,1,0,0:0:0:0:
322,77,20560,1,0,0:0:0:0:
342,146,20725,1,0,0:0:0:0:
453,159,20890,1,8,0:0:0:0:
447,176,20972,1,0,0:0:0:0:
441,193,21055,1,0,0:0:0:0:
435,210,21137,1,0,0:0:0:0:
430,227,21220,2,0,L|436:263,2,22.5
320,82,21549,6,0,P|283:40|189:58,1,144,2|0,0:2|0:0,0:0:0:0:
248,107,22044,1,0,0:0:0:0:
173,136,22208,2,0,P|210:178|304:160,1,144,8|0,0:2|0:0,0:0:0:0:
373,139,22703,1,0,0:0:0:0:
478,34,22868,70,0,L|484:113,1,72
489,178,23198,1,0,0:0:0:0:
373,139,23363,1,0,0:0:0:0:
398,258,23527,1,8,0:0:0:0:
351,144,23692,2,0,L|361:40,1,72,0|0,0:0|0:0,0:0:0:0:
233,25,24022,2,0,L|203:18,3,18
233,25,24187,6,0,P|204:33|165:134,1,144
237,100,24681,1,0,0:0:0:0:
239,319,24846,2,0,B|222:208|222:208|228:178,1,144,8|0,0:0|0:0,0:0:0:0:
319,256,25341,2,0,L|329:327,2,72,0|0|0,0:0|0:0|0:0,0:0:0:0:
441,209,25835,70,0,L|430:137,1,72
313,78,26165,1,8,0:0:0:0:
450,97,26330,1,0,0:0:0:0:
310,65,26494,2,0,P|276:52|236:56,1,72
86,128,26824,22,0,L|266:125,1,180,2|0,0:2|0:0,0:0:0:0:
68,51,27319,1,2,0:2:0:0:
331,169,27483,70,0,P|343:122|272:51,1,144,8|0,0:0|0:0,0:0:0:0:
266,125,27978,1,0,0:0:0:0:
299,235,28143,70,0,P|334:243|375:229,1,72
424,188,28472,1,0,0:0:0:0:
475,137,28637,1,0,0:0:0:0:
287,307,28802,6,0,L|204:296,1,72,8|0,0:0|0:0,0:0:0:0:
143,302,29132,1,0,0:0:0:0:
402,313,29297,2,0,L|385:315,3,18
402,313,29461,70,0,P|369:303|350:200,1,144
387,148,29956,1,0,0:0:0:0:
182,133,30121,2,0,P|249:111|315:138,1,144,8|0,0:0|0:0,0:0:0:0:
409,242,30615,1,0,0:0:0:0:
249,198,30780,5,0,0:0:0:0:
419,234,30945,1,0,0:0:0:0:
463,110,31110,2,0,L|469:182,1,72,0|0,0:0|0:0,0:0:0:0:
184,226,31440,70,0,P|221:219|249:198,1,72,8|0,0:0|0:0,0:0:0:0:
358,83,31769,2,0,L|387:148,1,72,0|0,0:0|0:0,0:0:0:0:
192,152,32099,22,0,P|144:160|136:282,1,180,2|0,0:2|0:0,0:0:0:0:
185,226,32593,1,2,0:2:0:0:
328,233,32758,54,0,L|185:226,1,144,8|0,0:0|0:0,0:0:0:0:
349,159,33253,1,0,0:0:0:0:
243,331,33418,6,0,P|241:295|256:263,1,72
427,276,33747,2,0,P|441:309|438:344,1,72,0|0,0:0|0:0,0:0:0:0:
340,309,34077,1,8,0:0:0:0:
346,237,34242,1,0,0:0:0:0:
352,165,34407,1,0,0:0:0:0:
390,90,34571,2,0,L|368:85,3,18
390,90,34736,70,0,P|354:92|289:13,1,144
369,18,35231,1,0,0:0:0:0:
353,165,35396,2,0,P|389:163|454:242,1,144,8|0,0:0|0:0,0:0:0:0:
306,246,35890,1,0,0:0:0:0:
306,246,35972,1,0,0:0:0:0:
306,246,36055,6,0,L|378:235,1,72
250,199,36385,2,0,P|233:228|234:273,1,72,0|0,0:0|0:0,0:0:0:0:
454,253,36714,2,0,P|454:219|430:180,1,72,8|0,0:0|0:0,0:0:0:0:
257,185,37044,1,0,0:0:0:0:
236,180,37126,1,0,0:0:0:0:
214,175,37209,1,0,0:0:0:0:
193,170,37291,1,0,0:0:0:0:
171,165,37374,70,0,L|121:153,7,36
144,75,38033,2,0,L|94:63,7,36,0|0|0|0|0|0|0|0,0:0|0:0|0:0|0:0|0:0|0:0|0:0|0:0,0:0:0:0:
39,131,38692,5,0,0:0:0:0:
41,152,38775,1,0,0:0:0:0:
43,173,38857,1,0,0:0:0:0:
45,194,38940,1,0,0:0:0:0:
47,215,39022,70,0,L|38:262,3,36
116,259,39352,2,0,L|107:306,3,36,0|0|0|0,0:0|0:0|0:0|0:0,0:0:0:0:
184,302,39681,1,0,0:0:0:0:
209,326,39763,1,0,0:0:0:0:
242,340,39845,1,0,0:0:0:0:
278,338,39928,1,0,0:0:0:0:
310,321,40011,6,0,L|358:325,1,36
473,316,40176,2,0,L|425:320,1,36,0|0,0:0|0:0,0:0:0:0:
297,240,40341,2,0,L|350:234,1,36,0|0,0:0|0:0,0:0:0:0:
477,235,40505,2,0,L|424:229,1,36,0|0,0:0|0:0,0:0:0:0:
287,161,40670,2,0,L|344:143,1,36,0|0,0:0|0:0,0:0:0:0:
485,156,40835,2,0,L|428:138,1,36,0|0,0:0|0:0,0:0:0:0:
381,73,41000,69,0,0:0:0:0:
350,42,41082,1,0,0:0:0:0:
309,25,41165,1,0,0:0:0:0:
266,24,41247,1,0,0:0:0:0:
227,43,41330,1,0,0:0:0:0:
193,70,41412,1,0,0:0:0:0:
152,82,41494,1,0,0:0:0:0:
109,78,41577,1,0,0:0:0:0:
71,59,41659,6,0,L|38:40,1,36
121,185,41824,2,0,L|83:178,1,36,0|0,0:0|0:0,0:0:0:0:
220,286,41989,22,0,P|238:338|290:304,1,107.999996704102,0|0,0:0|2:0,0:0:0:0:
220,286,42236,6,0,L|105:306,1,107.999996704102,0|0,0:0|2:0,0:0:0:0:
42,332,42483,6,0,P|38:287|46:260,1,53.9999983520508,0|0,0:0|2:0,0:0:0:0:
121,185,42648,1,4,1:0:0:0:
64,258,53198,6,0,P|62:286|72:319,2,53.9999983520508
106,195,53692,2,0,P|118:149|97:73,1,107.999996704102,0|0,0:0|0:0,0:0:0:0:
39,54,54187,2,0,L|35:114,1,53.9999983520508,0|0,0:0|0:0,0:0:0:0:
28,183,54516,1,0,0:0:0:0:
106,31,54681,6,0,P|132:46|211:38,1,107.999996704102
325,42,55176,2,0,P|304:26|279:17,1,53.9999983520508,0|0,0:0|0:0,0:0:0:0:
264,199,55505,2,0,L|269:92,1,107.999996704102,0|0,0:0|0:0,0:0:0:0:
340,117,56000,69,0,0:0:0:0:
398,68,56165,1,0,0:0:0:0:
269,91,56330,2,0,B|231:98|231:98|148:88,1,107.999996704102,0|0,0:0|0:0,0:0:0:0:
118,27,56824,2,0,P|91:58|85:94,2,53.9999983520508,0|0|0,0:0|0:0|0:0,0:0:0:0:
300,43,57319,6,0,P|247:49|198:29,1,107.999996704102
373,23,57813,2,0,P|378:50|363:82,1,53.9999983520508,0|0,0:0|0:0,0:0:0:0:
257,162,58143,2,0,P|261:134|286:109,1,53.9999983520508,0|0,0:0|0:0,0:0:0:0:
334,164,58472,70,0,L|340:205,3,31.4999990386963
411,182,58802,2,0,L|417:223,3,31.4999990386963,0|0|0|0,0:0|0:0|0:0|0:0,0:0:0:0:
420,244,59132,1,0,0:0:0:0:
425,274,59214,1,0,0:0:0:0:
415,304,59296,1,0,0:0:0:0:
392,325,59379,1,0,0:0:0:0:
362,333,59461,1,0,0:0:0:0:
331,325,59544,1,0,0:0:0:0:
308,305,59626,1,0,0:0:0:0:
289,279,59708,1,0,0:0:0:0:
264,261,59791,5,0,0:0:0:0:
233,244,59873,1,0,0:0:0:0:
197,239,59955,1,0,0:0:0:0:
163,249,60038,1,0,0:0:0:0:
134,270,60121,1,0,0:0:0:0:
111,297,60203,1,0,0:0:0:0:
77,308,60285,1,0,0:0:0:0:
43,297,60368,1,0,0:0:0:0:
21,270,60450,1,0,0:0:0:0:
17,235,60533,1,0,0:0:0:0:
32,203,60615,1,0,0:0:0:0:
63,186,60697,1,0,0:0:0:0:
99,188,60780,1,0,0:0:0:0:
133,177,60863,1,0,0:0:0:0:
155,148,60945,1,0,0:0:0:0:
158,112,61027,1,0,0:0:0:0:
145,73,61110,70,0,L|106:66,3,40.4999987640381
226,35,61440,2,0,L|265:42,1,40.4999987640381
359,114,61604,2,0,L|320:107,1,40.4999987640381,0|0,0:0|0:0,0:0:0:0:
444,72,61769,6,0,L|451:33,3,40.4999987640381
472,163,62099,2,0,L|465:202,1,40.4999987640381
380,276,62264,2,0,L|387:237,1,40.4999987640381,0|0,0:0|0:0,0:0:0:0:
413,338,62429,70,0,B|350:360|320:313|320:313|271:357|186:317|196:225|251:192|306:215,1,360,0|0,2:0|2:0,0:0:0:0:
301,260,63170,1,0,2:0:0:0:
301,260,63253,2,0,P|326:255|341:240,1,45,0|0,1:0|2:0,0:0:0:0:
281,268,63417,6,0,L|182:263,1,80.9999975280763,8|0,2:0|2:0,0:0:0:0:
135,306,63747,6,0,P|120:255|182:188,1,135,4|0,1:0|0:0,0:0:0:0:
235,175,64077,2,0,B|111:139|111:139|165:118,1,180,8|0,0:0|0:0,0:0:0:0:
328,61,64571,1,0,1:0:0:0:
290,122,64737,2,0,P|261:90|256:46,1,90,8|0,0:0|0:0,0:0:0:0:
316,204,65066,5,0,1:0:0:0:
446,142,65231,1,0,1:0:0:0:
328,61,65396,2,0,B|286:44|286:44|145:59,1,180,8|0,0:0|0:0,0:0:0:0:
80,69,65890,1,0,1:0:0:0:
142,157,66055,1,8,0:0:0:0:
80,69,66220,2,0,P|58:53|33:49,1,45,0|0,1:0|0:0,0:0:0:0:
24,123,66385,5,0,1:0:0:0:
47,264,66549,1,0,1:0:0:0:
189,243,66714,2,0,B|265:231|265:231|296:243|296:243|383:229,1,180,8|0,0:0|0:0,0:0:0:0:
450,262,67209,1,0,1:0:0:0:
260,306,67374,2,0,L|156:323,1,90,8|0,0:0|1:0,0:0:0:0:
0,336,67703,6,0,P|9:287|48:260,1,90,0|0,1:0|0:0,0:0:0:0:
56,266,67951,1,0,0:0:0:0:
73,269,68033,1,8,0:0:0:0:
38,163,68198,1,0,0:0:0:0:
44,146,68280,1,0,0:0:0:0:
50,128,68363,1,0,0:0:0:0:
56,111,68445,1,0,0:0:0:0:
62,94,68527,1,0,1:0:0:0:
195,40,68692,1,8,0:0:0:0:
71,114,68857,2,0,L|80:170,1,45,0|0,1:0|1:0,0:0:0:0:
95,228,69022,1,0,1:0:0:0:
237,338,69187,37,0,1:0:0:0:
201,343,69269,1,0,1:0:0:0:
165,348,69352,1,8,0:0:0:0:
343,319,69516,2,0,P|386:333|361:245,1,180,2|0,0:0|1:0,0:0:0:0:
295,157,70011,2,0,L|288:247,1,90,8|0,0:0|0:0,0:0:0:0:
290,255,70258,1,0,1:0:0:0:
292,263,70341,6,0,P|250:271|200:241,1,90,0|0,1:0|1:0,0:0:0:0:
263,89,70670,2,0,P|305:81|355:111,1,90,8|0,0:0|0:0,0:0:0:0:
383,164,70918,1,0,0:0:0:0:
386,172,71000,2,0,L|433:175,1,45,0|0,0:0|0:0,0:0:0:0:
502,186,71165,1,0,1:0:0:0:
424,64,71330,1,8,0:0:0:0:
491,190,71494,1,0,1:0:0:0:
367,265,71659,6,0,L|459:256,1,90,0|0,1:0|1:0,0:0:0:0:
474,261,71907,1,0,0:0:0:0:
490,266,71989,1,8,0:0:0:0:
314,323,72154,2,0,P|286:279|364:192,1,180,2|0,0:0|1:0,0:0:0:0:
366,361,72648,2,0,L|253:351,1,90,8|0,0:0|1:0,0:0:0:0:
158,359,72978,1,0,1:0:0:0:
43,357,73143,1,0,0:0:0:0:
31,332,73225,1,0,0:0:0:0:
28,304,73308,1,8,0:0:0:0:
183,344,73472,1,0,0:0:0:0:
101,282,73637,22,0,P|81:248|44:231,1,67.5,0|0,0:0|2:0,0:0:0:0:
12,182,73967,6,0,L|197:242,1,161.999995056153,2|0,0:0|1:0,0:0:0:0:
188,307,74297,6,0,P|226:279|231:192,1,135,4|0,1:0|0:0,0:0:0:0:
177,151,74626,2,0,L|356:208,1,180,8|0,0:0|0:0,0:0:0:0:
228,95,75121,1,0,1:0:0:0:
156,68,75286,2,0,P|153:112|176:150,1,90,8|0,0:0|0:0,0:0:0:0:
322,80,75615,5,0,1:0:0:0:
267,19,75780,1,0,1:0:0:0:
270,181,75945,2,0,P|269:237|382:281,1,180,8|0,0:0|0:0,0:0:0:0:
375,141,76440,1,0,1:0:0:0:
233,119,76604,2,0,P|199:153|198:197,1,90,8|0,0:0|1:0,0:0:0:0:
342,213,76934,5,0,1:0:0:0:
322,70,77099,1,0,1:0:0:0:
361,227,77264,2,0,L|348:325,1,90,8|0,0:0|0:0,0:0:0:0:
336,339,77511,1,0,0:0:0:0:
310,347,77593,1,0,0:0:0:0:
283,347,77675,1,0,0:0:0:0:
258,338,77758,1,0,1:0:0:0:
173,240,77923,2,0,P|218:243|255:269,1,90,8|0,0:0|1:0,0:0:0:0:
117,295,78253,6,0,P|96:247|144:170,1,135,0|0,1:0|0:0,0:0:0:0:
146,168,78582,2,0,P|172:142|178:87,1,90,8|0,0:0|0:0,0:0:0:0:
117,24,78912,1,0,0:0:0:0:
73,161,79077,1,0,1:0:0:0:
212,124,79242,2,0,L|315:118,1,90,8|0,0:0|1:0,0:0:0:0:
319,122,79489,1,0,1:0:0:0:
336,125,79571,1,4,1:0:0:0:
488,186,79736,37,0,1:0:0:0:
498,151,79819,1,0,1:0:0:0:
492,115,79901,1,8,0:0:0:0:
391,231,80066,2,0,P|369:283|460:291,1,180,2|0,0:0|1:0,0:0:0:0:
326,190,80560,54,0,P|306:217|291:279,1,72,8|0,0:0|1:0,0:0:0:0:
292,274,80808,1,0,1:0:0:0:
293,295,80890,1,0,1:0:0:0:
158,323,81055,2,0,L|214:315,1,36,0|0,1:0|0:0,0:0:0:0:
94,356,81220,2,0,P|86:320|103:278,1,72,8|0,0:0|0:0,0:0:0:0:
192,200,81549,1,0,0:0:0:0:
97,66,81714,1,0,1:0:0:0:
97,66,81879,6,0,L|186:58,1,80.9999975280763,8|0,0:0|0:0,0:0:0:0:
204,54,82209,69,4,1:0:0:0:
416,64,82374,1,0,1:0:0:0:
213,47,82538,1,8,0:0:0:0:
416,64,82703,2,0,B|452:142|452:142|470:121,1,107.999996704102,0|0,0:0|1:0,0:0:0:0:
488,37,83198,2,0,P|453:35|432:44,1,53.9999983520508,8|0,0:0|1:0,0:0:0:0:
357,77,83527,5,0,1:0:0:0:
295,16,83692,1,0,0:0:0:0:
281,101,83857,1,8,0:0:0:0:
213,47,84022,1,0,0:0:0:0:
242,166,84187,70,0,L|262:192,3,22.5,0|0|0|0,1:1|0:0|1:0|0:0,0:0:0:0:
296,241,84516,6,0,L|219:216,1,53.9999983520508,8|8,0:0|0:0,0:0:0:0:
159,206,84681,2,0,P|127:204|82:222,1,53.9999983520508,8|8,0:0|0:0,0:0:0:0:
38,267,84846,5,4,1:0:0:0:
224,352,85176,1,8,0:0:0:0:
38,267,85341,2,0,P|62:216|16:111,1,144,0|0,0:0|0:0,0:0:0:0:
125,20,85835,2,0,L|117:92,1,72,8|0,0:0|0:0,0:0:0:0:
149,172,86165,6,0,P|184:184|235:174,1,72,0|0,1:0|1:0,0:0:0:0:
289,132,86494,1,8,0:0:0:0:
298,120,86577,1,0,0:0:0:0:
307,109,86659,1,0,0:0:0:0:
322,23,86824,2,0,P|360:35|382:60,1,72,0|0,0:0|0:0,0:0:0:0:
377,145,87154,1,8,0:0:0:0:
465,70,87319,1,0,0:0:0:0:
371,158,87483,6,0,P|359:198|446:216,1,144,0|8,1:0|0:0,0:0:0:0:
289,132,87978,2,0,B|169:125|169:125|199:101,1,144,0|0,0:0|0:0,0:0:0:0:
241,62,88472,1,8,0:0:0:0:
354,81,88637,1,0,0:0:0:0:
228,48,88802,6,0,P|194:34|153:32,1,72,0|0,1:0|0:0,0:0:0:0:
85,77,89132,1,8,0:0:0:0:
83,91,89214,1,0,0:0:0:0:
81,105,89297,2,0,P|115:119|156:121,1,72,0|0,0:0|0:0,0:0:0:0:
286,100,89626,1,0,0:0:0:0:
144,147,89791,1,8,0:0:0:0:
123,231,89956,1,8,0:0:0:0:
102,315,90121,37,0,1:0:0:0:
270,274,90451,1,8,0:0:0:0:
102,315,90615,2,0,P|55:288|56:188,1,144,0|0,0:0|0:0,0:0:0:0:
128,159,91110,2,0,L|123:231,1,72,8|0,0:0|0:0,0:0:0:0:
87,338,91440,6,0,L|243:333,1,144,0|8,1:0|0:0,0:0:0:0:
346,328,91934,2,0,P|353:291|337:249,1,72,0|0,0:0|0:0,0:0:0:0:
285,215,92264,1,0,0:0:0:0:
413,231,92429,1,8,0:0:0:0:
363,111,92593,1,0,0:0:0:0:
293,220,92758,6,0,P|258:222|219:200,1,72,0|0,1:0|0:0,0:0:0:0:
172,87,93088,1,8,0:0:0:0:
183,95,93170,1,0,0:0:0:0:
194,103,93253,1,0,0:0:0:0:
304,75,93418,1,0,0:0:0:0:
160,79,93582,2,0,L|68:92,2,72,0|8|0,0:0|0:0|0:0,0:0:0:0:
304,86,94077,6,0,L|396:73,1,72,0|0,1:0|1:0,0:0:0:0:
475,57,94407,1,8,0:0:0:0:
374,61,94571,1,0,1:0:0:0:
461,196,94736,2,0,L|451:125,1,72,8|0,0:0|1:0,0:0:0:0:
388,223,95066,1,8,0:0:0:0:
404,254,95148,1,0,0:0:0:0:
434,273,95230,1,8,0:0:0:0:
469,276,95313,1,0,0:0:0:0:
502,261,95396,37,4,1:0:0:0:
319,269,95725,1,8,0:0:0:0:
461,196,95890,2,0,L|447:352,1,144,0|0,0:0|0:0,0:0:0:0:
273,325,96385,1,8,0:0:0:0:
472,124,96549,1,0,0:0:0:0:
319,269,96714,6,0,P|356:277|404:264,1,72,0|0,1:0|1:0,0:0:0:0:
462,196,97044,1,8,0:0:0:0:
464,210,97126,1,0,0:0:0:0:
467,224,97209,1,0,0:0:0:0:
469,238,97291,1,0,0:0:0:0:
471,252,97374,1,0,0:0:0:0:
319,269,97538,1,0,0:0:0:0:
371,90,97703,2,0,L|363:162,1,72,8|0,0:0|0:0,0:0:0:0:
168,160,98033,6,0,P|223:203|293:192,1,144,0|8,1:0|0:0,0:0:0:0:
404,227,98527,2,0,P|413:157|369:103,1,144,0|0,0:0|0:0,0:0:0:0:
169,160,99022,2,0,L|97:163,1,72,8|0,0:0|0:0,0:0:0:0:
30,295,99351,6,0,P|31:256|45:224,1,72
59,230,99599,1,0,0:0:0:0:
72,233,99681,1,8,0:0:0:0:
236,308,99846,1,0,0:0:0:0:
222,309,99929,1,0,0:0:0:0:
208,308,100011,1,0,0:0:0:0:
195,304,100093,1,0,0:0:0:0:
183,298,100176,1,0,0:0:0:0:
304,340,100341,2,0,P|336:324|383:325,1,72,8|0,0:0|0:0,0:0:0:0:
435,359,100588,1,0,0:0:0:0:
435,359,100670,1,4,1:0:0:0:
351,162,101000,37,8,0:0:0:0:
435,359,101165,2,0,L|283:335,1,144
179,316,101659,2,0,P|133:308|87:329,1,72,8|0,0:0|0:0,0:0:0:0:
90,326,101907,1,0,0:0:0:0:
75,341,101989,6,0,L|82:180,1,144,0|8,1:0|0:0,0:0:0:0:
174,129,102483,1,0,0:0:0:0:
72,183,102648,1,0,0:0:0:0:
72,183,102731,1,0,0:0:0:0:
72,183,102813,1,0,0:0:0:0:
180,112,102978,2,0,P|212:99|251:97,1,72,8|0,0:0|0:0,0:0:0:0:
354,168,103308,6,0,L|343:71,1,90,4|0,0:0|0:0,0:0:0:0:
401,34,103555,1,0,0:0:0:0:
415,44,103637,2,0,L|425:133,1,90,0|0,1:0|0:0,0:0:0:0:
421,206,103885,1,0,0:0:0:0:
410,220,103967,2,0,P|419:255|463:290,1,90,4|0,1:0|0:0,0:0:0:0:
505,344,104214,1,0,0:0:0:0:
492,330,104297,2,0,L|379:325,1,90,0|0,0:0|0:0,0:0:0:0:
332,306,104544,1,0,0:0:0:0:
315,299,104626,6,0,L|142:289,1,157.5,4|0,1:0|0:0,0:0:0:0:
93,324,105286,37,0,0:0:0:0:
77,338,105368,1,0,0:0:0:0:
61,353,105451,2,0,P|53:338|48:312,1,36,0|0,0:0|0:0,0:0:0:0:
48,247,105615,2,0,P|48:230|57:204,1,36,0|0,0:0|0:0,0:0:0:0:
89,148,105780,2,0,P|100:135|123:121,1,36,0|0,0:0|0:0,0:0:0:0:
182,95,105945,53,4,0:0:0:0:
186,87,106604,2,0,P|220:93|283:56,1,90,8|0,0:0|0:0,0:0:0:0:
314,14,107099,1,0,0:0:0:0:
342,80,107264,2,0,L|340:133,1,45,0|0,0:0|0:0,0:0:0:0:
337,196,107593,1,0,0:0:0:0:
340,204,107676,1,0,0:0:0:0:
342,212,107758,1,0,0:0:0:0:
366,279,107923,2,0,P|397:298|456:293,1,90,8|0,0:0|0:0,0:0:0:0:
420,229,108418,1,0,0:0:0:0:
408,158,108582,5,0,0:0:0:0:
355,109,108747,1,0,0:0:0:0:
285,90,108912,1,0,0:0:0:0:
276,87,108994,1,0,0:0:0:0:
267,85,109077,1,0,0:0:0:0:
180,42,109242,2,0,P|201:32|223:27,1,45,8|0,0:0|0:0,0:0:0:0:
229,149,109571,2,0,P|206:147|185:141,1,45,0|0,0:0|0:0,0:0:0:0:
176,136,109819,1,0,0:0:0:0:
168,131,109901,69,0,0:0:0:0:
94,77,110066,1,0,0:0:0:0:
267,85,110231,2,0,L|359:78,1,90,0|8,0:0|0:0,0:0:0:0:
428,70,110725,1,0,0:0:0:0:
399,136,110890,1,0,0:0:0:0:
401,144,110972,1,0,0:0:0:0:
403,152,111055,1,0,0:0:0:0:
405,160,111137,1,0,0:0:0:0:
407,168,111220,5,0,0:0:0:0:
414,173,111549,1,0,0:0:0:0:
414,173,111879,70,0,L|411:273,1,90,8|0,0:0|0:0,0:0:0:0:
408,335,112374,1,0,0:0:0:0:
343,304,112538,2,0,P|312:293|297:292,1,45,0|0,0:0|0:0,0:0:0:0:
190,347,112868,1,0,0:0:0:0:
190,347,112951,1,0,0:0:0:0:
190,347,113033,2,0,P|215:325|223:313,1,45,0|8,0:0|0:0,0:0:0:0:
242,246,113363,1,0,0:0:0:0:
292,101,113527,6,0,L|288:191,1,90,0|0,0:0|0:0,0:0:0:0:
321,255,114022,1,0,0:0:0:0:
359,315,114187,1,0,0:0:0:0:
367,314,114269,1,0,0:0:0:0:
376,313,114352,1,0,0:0:0:0:
284,318,114516,2,0,P|264:320|238:333,1,45,8|0,0:0|0:0,0:0:0:0:
118,344,114846,2,0,L|172:352,1,45,0|0,0:0|0:0,0:0:0:0:
45,356,115176,70,0,P|31:333|27:300,1,45
54,248,115423,1,0,0:0:0:0:
59,241,115505,2,0,L|64:136,1,90,0|8,0:0|0:0,0:0:0:0:
71,70,116000,1,0,0:0:0:0:
176,34,116165,1,0,0:0:0:0:
57,75,116330,1,0,0:0:0:0:
57,75,116412,1,0,0:0:0:0:
57,75,116494,6,0,L|155:70,1,90,4|0,0:0|0:0,0:0:0:0:
219,64,116989,1,0,0:0:0:0:
338,69,117154,2,0,L|286:63,1,45,8|0,0:0|0:0,0:0:0:0:
231,158,117483,2,0,P|247:136|267:122,1,45,0|0,0:0|0:0,0:0:0:0:
274,127,117731,1,0,0:0:0:0:
287,130,117813,70,0,P|321:155|381:154,1,90
495,136,118308,2,0,L|452:127,1,45,0|8,0:0|0:0,0:0:0:0:
360,70,118637,1,0,0:0:0:0:
352,159,118802,1,0,0:0:0:0:
344,248,118967,1,0,0:0:0:0:
333,337,119132,6,0,P|366:353|407:353,2,71.9999978027344,2|0|0,0:0|0:0|0:0,0:0:0:0:
255,284,119791,2,0,P|222:268|181:268,2,71.9999978027344,2|0|0,0:0|0:0|0:0,0:0:0:0:
344,248,120451,70,0,P|351:206|345:175,1,62.9999980773926,2|0,0:0|0:0,0:0:0:0:
327,106,120780,2,0,P|299:73|271:58,1,62.9999980773926,2|0,0:0|0:0,0:0:0:0:
190,41,121110,2,0,P|172:68|127:90,1,72,2|0,0:0|0:0,0:0:0:0:
44,94,121440,1,2,0:0:0:0:
41,188,121604,1,0,0:0:0:0:
41,188,121687,1,0,0:0:0:0:
41,188,121769,6,0,P|14:191|-6:203,1,40.4999987640381,2|0,0:0|0:0,0:0:0:0:
37,269,121934,2,0,P|35:296|43:317,1,40.4999987640381,0|0,0:0|0:0,0:0:0:0:
101,347,122099,2,0,L|150:351,3,40.4999987640381,2|0|0|0,0:0|0:0|0:0|0:0,0:0:0:0:
174,278,122429,70,0,L|207:280,5,30,2|0|0|0|0|0,0:0|0:0|0:0|0:0|0:0|0:0,0:0:0:0:
284,261,122758,2,0,L|317:263,5,30,2|0|0|0|0|0,0:0|0:0|0:0|0:0|0:0|0:0,0:0:0:0:
387,293,123088,6,0,L|412:310,7,26.9999991760254,2|0|0|0|0|0|0|0,0:0|0:0|0:0|0:0|0:0|0:0|0:0|0:0,0:0:0:0:
450,251,123417,2,0,L|475:268,7,26.9999991760254,2|0|0|0|0|0|0|0,0:0|0:0|0:0|0:0|0:0|0:0|0:0|0:0,0:0:0:0:
488,192,123747,70,0,L|482:162,11,20.9999993591309,2|0|0|0|0|0|0|0|0|0|0|0,0:0|0:0|0:0|0:0|0:0|0:0|0:0|0:0|0:0|0:0|0:0|0:0,0:0:0:0:
485,150,124077,2,0,L|480:121,11,20.9999993591309,2|0|0|0|0|0|0|0|0|0|0|0,0:0|0:0|0:0|0:0|0:0|0:0|0:0|0:0|0:0|0:0|0:0|0:0,0:0:0:0:
466,109,124407,6,0,L|444:96,31,18,2|0|0|0|0|0|0|0|0|0|0|0|0|0|0|0|0|0|0|0|0|0|0|0|0|0|0|0|0|0|0|0,0:0|0:0|0:0|0:0|0:0|0:0|0:0|0:0|0:0|0:0|0:0|0:0|0:0|0:0|0:0|0:0|0:0|0:0|0:0|0:0|0:0|0:0|0:0|0:0|0:0|0:0|0:0|0:0|0:0|0:0|0:0|0:0,0:0:0:0:
433,91,125066,2,0,L|404:83,31,18,2|0|0|0|0|0|0|0|0|0|0|0|0|0|0|0|0|0|0|0|0|0|0|0|0|0|0|0|0|0|0|0,0:0|0:0|0:0|0:0|0:0|0:0|0:0|0:0|0:0|0:0|0:0|0:0|0:0|0:0|0:0|0:0|0:0|0:0|0:0|0:0|0:0|0:0|0:0|0:0|0:0|0:0|0:0|0:0|0:0|0:0|0:0|0:0,0:0:0:0:
392,82,125725,70,0,L|350:87,63,22.5,2|0|0|0|0|0|0|0|0|0|0|0|0|0|0|0|0|0|0|0|0|0|0|0|0|0|0|0|0|0|0|0|0|0|0|0|0|0|0|0|0|0|0|0|0|0|0|0|0|0|0|0|0|0|0|0|0|0|0|0|0|0|0|0,0:0|0:0|0:0|0:0|0:0|0:0|0:0|0:0|0:0|0:0|0:0|0:0|0:0|0:0|0:0|0:0|0:0|0:0|0:0|0:0|0:0|0:0|0:0|0:0|0:0|0:0|0:0|0:0|0:0|0:0|0:0|0:0|0:0|0:0|0:0|0:0|0:0|0:0|0:0|0:0|0:0|0:0|0:0|0:0|0:0|0:0|0:0|0:0|0:0|0:0|0:0|0:0|0:0|0:0|0:0|0:0|0:0|0:0|0:0|0:0|0:0|0:0|0:0|0:0,0:0:0:0:
354,86,127044,22,0,P|310:91|244:24,1,121.499996292114,12|0,0:0|2:0,0:0:0:0:
320,22,127374,2,0,L|417:15,1,80.9999975280763
407,137,127703,6,0,P|447:143|456:70,1,121.499996292114,8|0,0:0|2:0,0:0:0:0:
407,137,128033,2,0,L|419:221,1,80.9999975280763
437,313,128363,6,0,P|433:266|494:218,1,121.499996292114,0|0,0:0|2:0,0:0:0:0:
499,286,128692,1,0,0:0:0:0:
306,273,128857,1,0,2:0:0:0:
234,234,129022,2,0,P|266:204|310:192,1,80.9999975280763,8|0,0:0|2:0,0:0:0:0:
324,351,129352,2,0,P|280:345|242:319,1,80.9999975280763,0|0,0:0|2:0,0:0:0:0:
186,293,129599,2,0,L|208:267,1,20.2499993820191,8|8,2:0|2:0,0:0:0:0:
186,293,129681,6,0,L|96:273,1,80.9999975280763,0|0,0:0|2:0,0:0:0:0:
30,305,130011,1,0,0:0:0:0:
38,145,130176,2,0,L|49:226,1,80.9999975280763,0|8,0:0|0:0,0:0:0:0:
79,365,130505,1,0,2:0:0:0:
116,140,130670,2,0,P|99:97|51:75,1,80.9999975280763,0|0,0:0|0:0,0:0:0:0:
106,275,131000,37,0,0:0:0:0:
38,146,131165,1,0,0:0:0:0:
179,182,131330,2,0,P|194:165|201:98,1,80.9999975280763,0|0,0:0|2:0,0:0:0:0:
60,135,131659,1,8,0:0:0:0:
195,80,131824,1,0,0:0:0:0:
49,64,131989,2,0,P|15:79|-11:122,1,80.9999975280763,0|0,2:0|2:0,0:0:0:0:
199,91,132319,5,0,3:0:0:0:
479,15,132648,1,0,3:0:0:0:
364,106,132813,2,0,L|276:95,1,80.9999975280763,0|8,3:0|3:0,0:0:0:0:
426,63,133143,1,0,2:0:0:0:
426,63,133225,1,0,2:0:0:0:
426,63,133308,2,0,P|439:108|417:157,1,80.9999975280763,0|0,2:0|0:0,0:0:0:0:
348,260,133637,6,0,P|382:222|468:223,1,121.499996292114,0|0,3:0|2:0,0:0:0:0:
354,271,133967,2,0,P|307:288|241:233,1,121.499996292114,0|0,3:0|2:0,0:0:0:0:
235,181,134297,1,8,3:0:0:0:
424,287,134461,1,0,2:0:0:0:
424,287,134544,1,0,2:0:0:0:
424,287,134626,2,0,L|336:257,1,80.9999975280763,0|0,2:0|0:0,0:0:0:0:
313,194,134874,2,0,L|282:188,1,20.2499993820191,8|8,2:0|2:0,0:0:0:0:
313,194,134956,6,0,P|342:182|356:96,1,121.499996292114,0|0,3:0|2:0,0:0:0:0:
302,49,135286,2,0,P|282:83|289:123,1,80.9999975280763,0|0,3:0|2:0,0:0:0:0:
366,251,135615,1,8,3:0:0:0:
476,155,135780,1,0,0:0:0:0:
484,247,135945,37,0,2:0:0:0:
484,247,136027,1,0,2:0:0:0:
484,247,136110,1,0,0:0:0:0:
339,270,136275,1,0,3:0:0:0:
195,294,136440,1,0,3:0:0:0:
356,253,136604,2,0,P|370:214|338:135,1,121.499996292114,0|0,3:0|2:0,0:0:0:0:
280,105,136934,2,0,L|176:98,1,80.9999975280763,8|0,3:0|2:0,0:0:0:0:
52,86,137264,5,0,2:0:0:0:
49,101,137346,1,0,2:0:0:0:
59,131,137429,1,0,2:0:0:0:
58,147,137511,1,0,2:0:0:0:
66,178,137593,6,0,P|125:219|218:177,1,161.999995056153,12|0,1:0|3:0,0:0:0:0:
265,54,138088,2,0,L|263:135,1,80.9999975280763,0|8,0:0|3:0,0:0:0:0:
280,214,138418,1,0,0:0:0:0:
145,135,138582,2,0,P|153:96|184:71,1,80.9999975280763
280,214,138912,6,0,L|423:222,1,121.499996292114,0|0,3:0|2:0,0:0:0:0:
440,287,139242,2,0,P|430:248|401:220,1,80.9999975280763,0|0,0:0|2:0,2:0:0:0:
302,64,139571,2,0,L|317:144,1,80.9999975280763,8|0,3:0|0:0,0:0:0:0:
253,363,139901,2,0,L|267:283,1,80.9999975280763,0|0,0:0|2:0,0:0:0:0:
280,214,140148,2,0,L|270:192,2,20.2499993820191,8|8|0,2:0|2:0|3:0,0:0:0:0:
253,363,140560,38,0,L|160:353,1,80.9999975280763,0|0,3:0|0:0,0:0:0:0:
26,336,140890,2,0,P|29:288|99:239,1,121.499996292114,8|0,3:0|2:0,0:0:0:0:
202,204,141220,2,0,P|186:240|152:260,1,80.9999975280763
30,178,141549,1,0,3:0:0:0:
281,212,141714,1,0,0:0:0:0:
151,145,141879,1,0,2:0:0:0:
146,129,141961,1,0,2:0:0:0:
141,113,142044,1,0,0:0:0:0:
329,158,142209,6,0,P|349:186|350:238,1,80.9999975280763,8|0,3:0|0:0,0:0:0:0:
312,320,142538,1,0,0:0:0:0:
361,73,142703,1,0,0:0:0:0:
228,195,142868,38,0,L|178:188,3,45
156,185,143198,1,0,0:0:0:0:
130,192,143280,1,0,0:0:0:0:
108,208,143362,1,0,0:0:0:0:
93,230,143445,1,0,0:0:0:0:
86,256,143527,1,0,0:0:0:0:
89,283,143610,1,0,0:0:0:0:
100,307,143692,1,0,0:0:0:0:
119,327,143774,1,0,0:0:0:0:
143,338,143857,1,0,0:0:0:0:
168,329,143939,1,0,0:0:0:0:
194,323,144021,1,0,0:0:0:0:
221,322,144104,1,0,0:0:0:0:
248,323,144187,6,0,L|294:345,3,45,0|0|0|0,0:0|0:0|0:0|0:0,0:0:0:0:
326,271,144516,2,0,L|371:292,3,45,0|0|0|0,0:0|0:0|0:0|0:0,0:0:0:0:
398,307,144846,1,0,0:0:0:0:
425,329,144928,1,0,0:0:0:0:
460,329,145010,1,0,0:0:0:0:
488,308,145093,1,0,0:0:0:0:
499,273,145176,1,0,0:0:0:0:
486,239,145258,1,0,0:0:0:0:
481,203,145340,1,0,0:0:0:0:
485,168,145423,1,0,0:0:0:0:
504,137,145505,70,0,L|466:101,3,45
377,79,145835,2,0,L|345:49,3,45
302,34,146164,1,0,0:0:0:0:
257,41,146247,1,0,0:0:0:0:
226,74,146329,1,0,0:0:0:0:
214,117,146412,1,0,0:0:0:0:
220,161,146494,1,0,0:0:0:0:
183,187,146577,1,0,0:0:0:0:
141,170,146659,1,0,0:0:0:0:
97,182,146741,1,0,0:0:0:0:
81,224,146824,5,0,0:0:0:0:
93,267,146906,1,0,0:0:0:0:
130,291,146988,1,0,0:0:0:0:
175,287,147071,1,0,0:0:0:0:
213,262,147154,1,0,0:0:0:0:
253,241,147236,1,0,0:0:0:0:
297,242,147318,1,0,0:0:0:0:
336,263,147401,1,0,0:0:0:0:
363,299,147483,6,0,P|394:323|470:297,1,107.999996704102,0|0,0:0|2:0,0:0:0:0:
371,293,147731,6,0,L|248:282,1,107.999996704102,0|0,0:0|2:0,0:0:0:0:
111,279,147978,6,0,B|119:300|119:300|144:320,1,53.9999983520508,0|0,0:0|2:0,0:0:0:0:
215,376,148143,6,0,B|188:319|188:319|144:287|144:287|115:184,1,215.999993408203,12|8,0:0|0:0,0:0:0:0:
34,40,148637,2,0,B|86:58|86:58|271:33,1,215.999993408203,0|2,2:0|0:0,0:0:0:0:
441,51,149132,2,0,P|388:51|352:14,1,107.999996704102,8|0,0:0|0:0,0:0:0:0:
507,12,149461,1,2,0:0:0:0:
336,103,149626,1,2,0:0:0:0:
493,103,149791,38,0,B|473:143|473:143|491:273,1,161.999995056153,10|0,0:0|0:0,0:0:0:0:
491,286,150121,2,0,P|452:298|383:271,1,107.999996704102,2|0,0:0|0:0,0:0:0:0:
339,111,150451,1,8,0:0:0:0:
378,278,150615,1,0,0:0:0:0:
375,310,150698,1,0,0:0:0:0:
370,341,150780,1,2,0:0:0:0:
352,157,150945,1,2,0:0:0:0:
493,209,151110,1,8,0:0:0:0:
359,137,151275,5,2,2:0:0:0:
342,122,151357,1,0,0:0:0:0:
325,107,151440,2,0,P|334:77|396:32,1,107.999996704102,0|2,0:0|0:0,0:0:0:0:
282,173,151769,2,0,L|156:139,1,107.999996704102,8|2,0:0|1:0,0:0:0:0:
102,156,152016,1,0,0:0:0:0:
84,168,152099,6,0,P|64:117|86:59,1,107.999996704102,0|2,0:0|0:0,0:0:0:0:
167,32,152346,1,0,0:0:0:0:
195,47,152429,2,0,B|174:100|174:100|229:198|229:198|249:133,1,215.999993408203,10|2,0:0|0:0,0:0:0:0:
250,133,152841,1,0,0:0:0:0:
258,113,152923,2,0,B|299:94|299:94|384:116,1,107.999996704102,2|8,0:0|0:0,0:0:0:0:
414,257,153253,2,0,L|350:248,1,53.9999983520508,0|0,1:0|1:0,0:0:0:0:
285,271,153418,6,0,P|293:207|327:179,1,107.999996704102,2|2,0:0|0:0,0:0:0:0:
414,163,153665,1,0,0:0:0:0:
430,177,153747,2,0,B|464:210|464:210|448:52,1,161.999995056153,8|0,0:0|0:0,0:0:0:0:
430,177,154077,2,0,P|411:223|449:289,1,107.999996704102,0|2,0:0|0:0,0:0:0:0:
506,353,154407,1,10,0:0:0:0:
453,95,154571,1,0,0:0:0:0:
261,105,154736,38,0,P|308:130|361:125,1,107.999996704102,0|2,0:0|0:0,0:0:0:0:
460,80,155066,1,8,0:0:0:0:
279,84,155231,2,0,B|208:130|131:72|131:72|185:53,1,215.999993408203,0|0,0:0|0:0,0:0:0:0:
353,17,155725,1,8,0:0:0:0:
181,40,155890,1,2,2:0:0:0:
152,25,155972,1,2,2:0:0:0:
122,11,156055,1,2,0:0:0:0:
278,196,156220,5,0,0:0:0:0:
113,143,156385,1,8,0:0:0:0:
270,211,156549,1,2,0:0:0:0:
167,71,156714,1,2,2:1:0:0:
106,232,156879,1,2,0:0:0:0:
241,339,157044,2,0,L|353:329,1,107.999996704102,10|2,0:0|2:0,0:0:0:0:
422,347,157291,1,0,0:0:0:0:
422,347,157374,5,0,0:0:0:0:
265,266,157538,1,0,0:0:0:0:
485,303,157703,1,10,0:0:0:0:
288,193,157868,1,0,0:0:0:0:
114,344,158033,1,2,0:0:0:0:
366,268,158198,2,0,P|409:216|474:316,1,215.999993408203
412,330,158610,1,0,0:0:0:0:
356,278,158692,6,0,P|334:230|361:158,1,107.999996704102,6|0,0:0|0:0,0:0:0:0:
395,119,158940,1,0,2:0:0:0:
395,119,159022,2,0,L|401:2,1,107.999996704102,10|0,0:0|0:0,0:0:0:0:
326,28,159269,1,0,2:0:0:0:
251,45,159352,2,0,L|123:38,1,107.999996704102,2|0,0:0|0:0,0:0:0:0:
50,181,159681,2,0,P|43:128|67:81,1,107.999996704102,8|2,0:0|0:0,0:0:0:0:
119,137,159929,1,0,0:0:0:0:
119,137,160011,37,0,0:0:0:0:
46,316,160176,1,2,0:0:0:0:
254,215,160341,2,0,L|145:206,1,107.999996704102,10|0,0:0|0:0,0:0:0:0:
312,158,160670,1,2,0:0:0:0:
333,161,160753,1,0,0:0:0:0:
354,164,160835,1,2,0:0:0:0:
169,77,161000,2,0,L|276:85,1,107.999996704102,10|0,0:0|1:0,0:0:0:0:
375,168,161330,5,2,0:0:0:0:
125,16,161494,1,2,0:0:0:0:
405,59,161659,2,0,P|459:93|370:164,1,215.999993408203,10|0,0:0|0:0,0:0:0:0:
390,65,162071,1,0,0:0:0:0:
390,65,162154,2,0,B|413:43|413:43|492:32,1,107.999996704102,2|8,0:0|0:0,0:0:0:0:
299,88,162483,2,0,L|236:77,1,53.9999983520508,2|0,0:0|0:0,0:0:0:0:
173,48,162648,6,0,B|185:22|210:11|210:11|120:-3|112:32,1,161.999995056153
112,130,162978,2,0,P|92:81|112:32,1,107.999996704102,10|0,0:0|0:0,0:0:0:0:
128,126,163225,1,0,0:0:0:0:
128,126,163308,2,0,L|138:245,1,107.999996704102
124,307,163555,2,0,B|115:279|115:279|124:238,1,53.9999983520508,0|10,0:0|0:0,0:0:0:0:
242,234,163802,1,0,0:0:0:0:
252,276,163885,1,0,0:0:0:0:
281,303,163967,6,0,B|333:318|333:318|394:297,1,107.999996704102,2|2,0:0|0:0,0:0:0:0:
442,252,164214,1,0,0:0:0:0:
489,192,164297,2,0,L|479:62,1,107.999996704102,8|0,0:0|2:0,0:0:0:0:
284,38,164544,1,0,0:0:0:0:
284,38,164626,2,0,B|341:31|341:31|388:48|388:48|456:38,1,161.999995056153
354,56,164956,2,0,L|246:69,1,107.999996704102,8|2,0:0|2:0,0:0:0:0:
172,83,165203,1,2,2:0:0:0:
172,83,165286,37,2,0:0:0:0:
64,226,165451,1,0,0:0:0:0:
231,128,165615,1,10,0:0:0:0:
252,133,165698,1,0,2:0:0:0:
272,139,165780,2,0,B|397:165|397:165|365:139,1,161.999995056153,2|0,2:1|0:0,0:0:0:0:
377,230,166110,2,0,P|418:233|466:185,2,107.999996704102,2|8|2,0:0|0:0|0:0,0:0:0:0:
354,206,166522,1,0,0:0:0:0:
323,193,166604,5,2,0:0:0:0:
158,55,166768,1,2,0:0:0:0:
1,204,166933,1,10,0:0:0:0:
145,368,167099,2,0,P|177:319|289:327,1,161.999995056153,0|0,0:0|2:0,0:0:0:0:
162,365,167429,2,0,P|102:368|57:332,1,107.999996704102,2|8,0:0|0:0,0:0:0:0:
53,130,167758,5,2,1:2:0:0:
216,73,167923,1,2,0:0:0:0:
182,242,168088,1,2,0:0:0:0:
182,242,168170,1,0,0:0:0:0:
182,242,168253,1,8,0:0:0:0:
349,200,168418,1,0,0:0:0:0:
183,152,168582,5,0,1:1:0:0:
341,82,168747,1,0,0:0:0:0:
459,212,168912,1,8,0:0:0:0:
371,361,169077,1,0,0:0:0:0:
201,323,169242,1,4,0:0:0:0:
139,147,179132,6,0,P|120:109|139:41,1,101.250003862381,0|0,2:0|2:0,0:0:0:0:
196,82,179461,6,0,B|173:108|176:142|176:142|156:161|156:161|162:202|123:264,1,161.999995056153,0|0,2:0|2:0,0:0:0:0:
96,282,179791,70,0,P|71:242|88:190,2,90,4|0|0,0:0|2:0|0:0,0:0:0:0:
168,336,180286,2,0,L|357:324,1,180,0|0,0:0|0:0,0:0:0:0:
437,320,180780,2,0,P|445:276|421:229,1,90,0|0,0:0|2:0,0:0:0:0:
366,168,181110,1,0,0:0:0:0:
310,97,181275,2,0,B|379:89|379:89|427:104|427:104|511:95,1,180,0|0,0:0|0:0,0:0:0:0:
367,19,181769,2,0,L|259:30,1,90,0|0,0:0|0:0,0:0:0:0:
195,42,182099,2,0,P|162:74|190:160,1,135
250,188,182429,6,0,L|275:284,2,90,0|0|0,1:0|0:0|0:0,0:0:0:0:
339,213,182923,2,0,P|336:165|223:105,1,180,0|0,0:0|0:0,0:0:0:0:
73,151,183418,2,0,L|163:161,2,90,0|0|0,0:0|2:0|0:0,0:0:0:0:
42,236,183912,2,0,P|45:284|158:344,1,180,0|0,0:0|0:0,0:0:0:0:
240,304,184407,70,0,P|282:274|371:288,1,135,0|0,0:0|2:0,0:0:0:0:
413,332,184736,2,0,P|377:291|395:199,1,135,0|0,0:0|2:0,0:0:0:0:
431,161,185066,6,0,L|525:168,2,90,0|0|8,1:0|2:0|0:0,0:0:0:0:
481,86,185560,2,0,B|410:81|410:81|379:102|379:102|300:98,1,180
217,94,186055,2,0,P|231:50|265:22,1,90,8|0,0:0|2:0,0:0:0:0:
353,14,186385,1,0,0:0:0:0:
260,166,186549,2,0,P|265:213|381:222,1,180,0|0,0:0|0:0,0:0:0:0:
433,158,187044,2,0,L|423:65,1,90,0|0,0:0|0:0,0:0:0:0:
375,228,187374,2,0,B|328:251|328:251|210:229,1,135,8|0,0:0|1:0,0:0:0:0:
176,223,187703,70,0,P|143:240|127:304,2,90,0|0|8,1:0|0:0|0:0,0:0:0:0:
200,296,188198,1,0,0:0:0:0:
48,226,188363,2,0,P|26:183|33:136,1,90,0|0,1:0|1:0,0:0:0:0:
118,27,188692,2,0,P|143:63|144:108,1,90,8|0,0:0|0:0,0:0:0:0:
141,198,189022,6,0,P|168:173|199:286,1,236.250009012223,0|0,0:0|0:0,0:0:0:0:
145,316,189681,1,0,2:0:0:0:
165,319,189764,1,0,2:0:0:0:
184,322,189846,1,0,2:0:0:0:
204,325,189929,1,0,2:0:0:0:
223,328,190011,70,0,P|250:332|289:325,1,53.9999983520508,0|0,2:0|2:0,0:0:0:0:
357,296,190176,2,0,P|377:277|397:243,1,53.9999983520508,0|0,2:0|2:0,0:0:0:0:
425,172,190340,21,4,1:0:0:0:
253,29,190670,1,8,0:0:0:0:
253,29,190835,2,0,L|95:25,1,144
55,155,191330,2,0,P|80:129|93:96,1,72,8|0,0:0|0:0,0:0:0:0:
62,231,191659,5,0,1:0:0:0:
70,302,191824,1,0,1:0:0:0:
130,337,191989,2,0,P|164:349|199:341,1,72,8|0,0:0|0:0,0:0:0:0:
234,279,192319,1,0,0:0:0:0:
234,279,192401,1,0,0:0:0:0:
234,279,192483,2,0,L|313:274,1,72,0|8,0:0|0:0,0:0:0:0:
461,334,192813,1,0,0:0:0:0:
333,273,192978,6,0,P|339:234|325:193,1,72,0|0,1:0|1:0,0:0:0:0:
210,123,193308,1,8,0:0:0:0:
286,8,193472,2,0,L|278:152,1,144,0|0,0:0|0:0,0:0:0:0:
355,121,193967,1,8,0:0:0:0:
224,61,194132,1,0,0:0:0:0:
224,61,194214,1,0,0:0:0:0:
224,61,194297,6,0,L|122:50,1,72,0|0,1:0|0:0,0:0:0:0:
81,39,194544,1,0,0:0:0:0:
81,39,194626,2,0,P|58:73|56:107,1,72,8|0,0:0|0:0,0:0:0:0:
88,167,194956,1,0,0:0:0:0:
136,287,195121,1,0,0:0:0:0:
211,181,195286,1,8,0:0:0:0:
79,239,195451,2,0,P|64:273|64:291,1,36,0|0,0:0|1:0,0:0:0:0:
78,341,195615,38,0,P|116:363|166:357,1,72,0|0,1:0|1:0,0:0:0:0:
178,354,195863,1,0,1:0:0:0:
204,330,195945,1,8,1:2:0:0:
222,201,196110,2,0,P|195:128|241:50,1,144,0|0,0:0|0:0,0:0:0:0:
343,34,196604,1,8,0:0:0:0:
298,174,196769,1,0,0:0:0:0:
359,60,196934,5,0,1:0:0:0:
359,60,197099,1,0,1:0:0:0:
306,194,197264,2,0,P|276:213|192:155,1,144,8|0,0:0|0:0,0:0:0:0:
333,128,197758,1,0,0:0:0:0:
461,194,197923,1,8,0:0:0:0:
451,50,198088,1,0,0:0:0:0:
388,180,198253,5,0,1:0:0:0:
388,180,198418,1,0,1:0:0:0:
316,302,198582,2,0,B|338:254|338:254|367:225|367:225|388:180,1,144,8|0,0:0|0:0,0:0:0:0:
329,47,199077,1,0,0:0:0:0:
243,56,199242,1,8,0:0:0:0:
157,65,199407,1,0,0:0:0:0:
131,147,199571,6,0,P|94:127|92:15,1,144,0|8,1:0|0:0,0:0:0:0:
157,65,200066,1,0,0:0:0:0:
201,126,200231,6,0,P|204:164|183:198,1,67.5,0|0,1:0|2:0,0:0:0:0:
110,219,200560,6,0,L|277:266,1,161.999995056153,0|0,0:0|2:0,0:0:0:0:
339,283,200890,5,4,1:0:0:0:
254,135,201055,2,0,L|247:171,1,36,0|0,1:0|1:0,0:0:0:0:
230,241,201220,1,8,0:0:0:0:
340,111,201385,2,0,B|283:98|283:98|249:103|249:103|193:89,1,144,0|0,0:0|0:0,0:0:0:0:
124,76,201879,1,8,0:0:0:0:
355,37,202044,1,0,0:0:0:0:
316,193,202209,5,0,1:0:0:0:
316,193,202374,1,0,1:0:0:0:
456,167,202538,2,0,B|404:174|404:174|371:188|371:188|316:193,1,144,8|0,0:0|0:0,0:0:0:0:
287,335,203033,1,0,0:0:0:0:
287,335,203115,1,0,0:0:0:0:
287,335,203198,2,0,L|299:251,1,72,8|0,0:0|0:0,0:0:0:0:
374,328,203527,5,0,1:0:0:0:
206,344,203692,1,0,1:0:0:0:
126,378,203857,2,0,B|140:336|140:336|121:222,1,144,8|0,0:0|0:0,0:0:0:0:
91,87,204351,1,0,0:0:0:0:
91,87,204434,1,0,0:0:0:0:
91,87,204516,2,0,L|85:159,1,72,8|0,0:0|0:0,0:0:0:0:
70,244,204846,6,0,P|126:264|191:197,1,144,0|8,1:0|0:0,0:0:0:0:
212,132,205341,1,0,0:0:0:0:
205,46,205505,2,0,L|117:36,1,72,0|0,0:0|0:0,0:0:0:0:
63,90,205835,1,8,0:0:0:0:
280,83,206000,1,0,0:0:0:0:
292,90,206082,1,0,1:0:0:0:
304,97,206165,38,0,L|299:178,1,72,4|0,1:0|0:0,0:0:0:0:
311,283,206494,1,8,0:0:0:0:
277,346,206659,2,0,L|291:188,1,144,0|0,0:0|0:0,0:0:0:0:
373,122,207154,1,8,0:0:0:0:
421,226,207319,1,0,0:0:0:0:
305,83,207483,6,0,B|257:88|257:88|140:64,1,144,0|8,1:0|0:0,0:0:0:0:
51,38,207978,1,0,0:0:0:0:
51,38,208060,1,0,0:0:0:0:
51,38,208143,2,0,L|145:33,1,72,0|0,0:0|0:0,0:0:0:0:
238,28,208472,1,8,0:0:0:0:
58,129,208637,1,0,0:0:0:0:
316,38,208802,6,0,P|333:78|415:41,1,144,4|8,1:0|0:0,0:0:0:0:
414,170,209297,1,0,0:0:0:0:
414,170,209379,1,0,0:0:0:0:
414,170,209461,2,0,L|411:80,1,72,0|0,0:0|0:0,0:0:0:0:
478,216,209791,2,0,L|480:287,1,72,8|0,0:0|0:0,0:0:0:0:
264,308,210121,6,0,L|408:298,1,144,6|8,1:2|0:0,0:0:0:0:
87,304,210615,2,0,P|132:357|201:351,1,144,4|2,1:0|1:2,0:0:0:0:
156,212,211110,2,0,L|162:284,1,72,12|2,0:0|1:2,0:0:0:0:
408,298,211440,38,0,B|265:308|265:308|295:260,1,180,4|8,1:0|0:0,0:0:0:0:
362,114,212099,1,0,0:0:0:0:
284,276,212264,2,0,B|265:307|265:307|278:371,2,90,0|8|0,1:0|0:0|0:0,0:0:0:0:
437,106,212758,2,0,P|421:66|378:43,1,90
249,165,213088,1,8,0:0:0:0:
317,129,213253,2,0,L|168:121,1,135,0|0,0:0|0:0,0:0:0:0:
111,157,213582,2,0,P|103:111|128:69,2,90,0|8|0,1:0|0:0|0:0,0:0:0:0:
193,318,214077,6,0,P|127:312|192:238,1,180,0|8,1:0|0:0,0:0:0:0:
173,224,214489,1,0,0:0:0:0:
190,224,214571,1,0,0:0:0:0:
354,289,214736,2,0,L|253:273,1,90,0|0,0:0|1:0,0:0:0:0:
258,347,215066,1,8,0:0:0:0:
329,358,215231,1,0,1:0:0:0:
375,221,215396,5,0,1:0:0:0:
465,205,215560,1,0,0:0:0:0:
398,144,215725,2,0,P|372:99|435:31,1,135,8|0,0:0|0:0,0:0:0:0:
413,145,216055,2,0,L|301:128,1,90,0|0,0:0|1:0,0:0:0:0:
181,105,216385,2,0,P|198:67|243:47,1,90,8|2,0:0|0:0,0:0:0:0:
201,186,216714,6,0,P|145:176|106:66,1,180,4|8,1:0|0:0,0:0:0:0:
104,71,217126,1,0,0:0:0:0:
104,71,217209,1,0,0:0:0:0:
255,128,217374,2,0,P|279:169|255:251,1,135,0|0,0:0|0:0,0:0:0:0:
213,320,217703,2,0,P|223:277|256:249,1,90,8|0,0:0|0:0,0:0:0:0:
474,312,218033,38,0,L|295:313,1,180,0|8,1:0|0:0,0:0:0:0:
137,352,218527,1,0,0:0:0:0:
224,215,218692,2,0,L|216:113,2,90,0|0|8,0:0|1:0|0:0,0:0:0:0:
232,323,219187,1,0,0:0:0:0:
232,323,219269,1,0,0:0:0:0:
232,323,219352,6,0,B|314:353|314:353|411:323,1,180,0|8,1:0|0:0,0:0:0:0:
493,268,219846,1,0,0:0:0:0:
397,217,220011,2,0,B|406:170|406:170|396:120,2,90,0|0|8,0:0|1:0|0:0,0:0:0:0:
308,233,220505,1,0,1:0:0:0:
219,249,220670,6,0,L|75:248,1,135,0|0,1:0|0:0,0:0:0:0:
65,247,221000,2,0,P|49:206|83:148,1,90,8|0,0:0|0:0,0:0:0:0:
148,39,221330,22,0,P|152:67|132:103,1,67.5,0|0,0:0|2:0,0:0:0:0:
62,109,221659,6,0,L|256:131,1,161.999995056153,8|0,0:2|2:0,0:0:0:0:
267,41,221989,6,0,B|249:103|249:103|258:143|258:143|238:226,1,180,4|8,1:0|0:0,0:0:0:0:
156,366,222483,1,0,0:0:0:0:
229,333,222648,1,0,0:0:0:0:
62,292,222813,2,0,L|152:285,2,90,0|8|0,1:0|0:0|0:0,0:0:0:0:
11,146,223308,2,0,P|28:101|149:67,1,180,0|8,1:0|0:0,0:0:0:0:
149,267,223802,2,0,B|204:268|216:213|216:213|166:194,1,135,0|0,0:0|0:0,0:0:0:0:
107,153,224132,2,0,P|136:186|179:199,1,90,0|8,1:0|0:0,0:0:0:0:
256,152,224461,1,0,0:0:0:0:
381,276,224626,6,0,L|387:167,2,90,0|0|8,1:0|0:0|0:0,0:0:0:0:
296,307,225121,1,0,0:0:0:0:
125,271,225286,2,0,L|215:267,1,90,0|0,0:0|1:0,0:0:0:0:
275,200,225615,1,8,0:0:0:0:
150,126,225780,1,0,1:0:0:0:
59,240,225945,6,0,P|53:291|176:325,1,180,0|8,1:0|0:0,0:0:0:0:
336,245,226440,1,0,0:0:0:0:
125,271,226604,1,0,0:0:0:0:
296,307,226769,1,0,1:0:0:0:
117,198,226934,1,8,0:0:0:0:
275,200,227099,1,0,0:0:0:0:
153,340,227264,22,0,P|70:323|59:240,1,180,0|8,0:0|0:0,0:0:0:0:
275,200,227758,1,0,0:0:0:0:
296,307,227922,1,0,0:0:0:0:
125,271,228087,1,0,0:0:0:0:
117,198,228252,1,8,0:0:0:0:
336,245,228417,1,0,0:0:0:0:
59,239,228582,6,0,B|30:179|78:141|78:141|42:98|59:41,1,180,0|8,0:0|0:0,0:0:0:0:
152,31,229077,1,0,0:0:0:0:
164,54,229159,1,0,0:0:0:0:
184,73,229241,1,0,0:0:0:0:
208,83,229324,1,0,0:0:0:0:
235,85,229406,1,0,0:0:0:0:
261,78,229489,1,0,0:0:0:0:
282,61,229571,1,8,0:0:0:0:
306,50,229653,1,0,0:0:0:0:
333,44,229736,1,0,0:0:0:0:
360,45,229818,1,0,0:0:0:0:
386,52,229901,70,0,L|400:87,23,22.5
406,98,230890,6,0,P|434:145|512:147,1,135,0|0,0:0|0:0,0:0:0:0:
474,92,231220,70,0,L|420:197,1,110.249996635437
413,206,231879,6,0,P|410:253|454:298,1,107.999996704102
470,301,232085,1,0,0:0:0:0:
490,306,232126,2,0,L|503:330,2,26.9999991760254,0|0|0,0:0|0:0|1:0,0:0:0:0:
316,346,232374,2,0,L|376:343,1,53.9999983520508,8|0,0:0|2:0,0:0:0:0:
389,341,232538,6,0,L|218:328,1,148.50000453186,12|0,1:0|2:0,0:0:0:0:
161,323,232868,2,0,P|185:273|234:260,1,99.0000030212403,8|0,0:1|0:0,0:0:0:0:
402,252,233198,2,0,P|340:243|291:167,1,148.50000453186,0|0,2:0|0:0,0:0:0:0:
396,184,233527,2,0,P|361:157|417:139,1,99.0000030212403,8|2,0:1|2:0,0:0:0:0:
473,283,233857,5,0,1:0:0:0:
405,118,234022,1,0,0:0:0:0:
405,118,234104,1,0,0:0:0:0:
405,118,234187,1,8,0:1:0:0:
213,77,234352,2,0,B|276:98|276:98|336:98|336:98|405:118,1,198.000006042481,0|0,2:0|1:0,0:0:0:0:
224,157,234846,2,0,B|160:135|160:135|144:103,1,99.0000030212403,8|0,0:1|1:0,0:0:0:0:
341,71,235176,5,0,1:0:0:0:
255,227,235341,2,0,P|293:189|293:133,1,99.0000030212403,0|8,1:0|0:1,0:0:0:0:
200,46,235670,1,0,0:0:0:0:
62,64,235835,2,0,P|27:96|19:151,1,99.0000030212403,0|0,0:0|1:0,0:0:0:0:
114,245,236165,5,8,0:1:0:0:
136,321,236330,2,0,P|81:318|38:268,1,99.0000030212403,0|0,1:0|1:0,0:0:0:0:
200,46,236659,1,0,0:0:0:0:
243,112,236824,2,0,L|354:106,1,99.0000030212403,10|0,0:1|0:0,0:0:0:0:
501,97,237154,37,2,0:1:0:0:
481,93,237236,1,0,0:0:0:0:
461,89,237319,1,0,1:0:0:0:
214,183,237483,1,10,0:1:0:0:
329,29,237648,2,0,L|335:94,1,49.5000015106202,0|0,1:0|1:0,0:0:0:0:
340,157,237813,5,0,1:0:0:0:
179,253,237978,1,0,1:0:0:0:
150,225,238060,1,0,1:0:0:0:
138,186,238143,1,10,0:1:0:0:
279,270,238308,1,0,0:0:0:0:
61,189,238472,2,0,P|77:135|163:116,1,148.50000453186,0|0,0:0|0:0,0:0:0:0:
243,152,238802,2,0,P|195:147|159:114,1,99.0000030212403,8|0,0:1|0:0,0:0:0:0:
226,82,239049,1,0,0:0:0:0:
226,82,239132,6,0,L|330:76,1,99.0000030212403,0|0,1:0|1:0,0:0:0:0:
493,217,239461,6,0,L|344:207,1,148.50000453186,8|0,0:1|0:0,0:0:0:0:
265,203,239791,2,0,P|284:258|329:279,1,99.0000030212403,0|0,0:0|1:0,0:0:0:0:
304,134,240121,2,0,P|246:122|206:151,1,99.0000030212403,8|0,0:1|1:0,0:0:0:0:
137,304,240451,37,0,1:0:0:0:
148,79,240615,1,0,1:0:0:0:
116,151,240780,2,0,L|215:156,1,99.0000030212403,8|0,0:1|0:0,0:0:0:0:
480,168,241110,1,0,0:0:0:0:
496,245,241275,2,0,L|397:240,1,99.0000030212403,0|8,1:0|0:1,0:0:0:0:
221,321,241604,2,0,L|295:318,1,49.5000015106202,0|0,1:0|0:0,0:0:0:0:
220,337,241769,6,0,P|202:290|226:242,1,99.0000030212403,0|0,1:0|0:1,0:0:0:0:
303,161,242099,1,8,0:1:0:0:
415,121,242264,1,0,0:1:0:0:
356,352,242429,6,0,P|308:335|287:286,1,99.0000030212403,2|0,0:1|1:0,0:0:0:0:
274,175,242759,1,2,0:1:0:0:
315,63,242924,1,0,1:0:0:0:
458,256,243088,6,0,P|414:281|367:203,1,148.50000453186,4|0,1:0|0:0,0:0:0:0:
463,233,243418,2,0,P|479:283|463:332,1,99.0000030212403,8|0,0:1|0:0,0:0:0:0:
214,331,243747,2,0,L|268:337,1,49.5000015106202,0|0,0:0|0:0,0:0:0:0:
342,346,243912,1,0,1:0:0:0:
131,347,244077,1,8,0:1:0:0:
69,190,244242,2,0,L|75:289,1,99.0000030212403,0|0,0:0|1:0,0:0:0:0:
153,100,244571,37,0,1:0:0:0:
174,24,244736,2,0,L|166:186,1,148.50000453186,8|0,1:0|0:0,0:0:0:0:
161,251,245066,2,0,P|211:237|241:188,1,99.0000030212403,0|2,0:0|1:0,0:0:0:0:
282,47,245396,1,8,0:1:0:0:
444,117,245560,2,0,P|416:120|386:111,1,49.5000015106202,2|0,1:0|0:0,0:0:0:0:
432,44,245725,5,4,1:0:0:0:
459,188,245890,1,0,1:0:0:0:
356,308,246055,2,0,P|388:345|444:361,1,99.0000030212403,8|0,0:1|0:0,0:0:0:0:
362,218,246385,2,0,L|182:205,1,148.50000453186,0|0,0:0|0:0,0:0:0:0:
138,229,246714,2,0,P|139:180|178:142,1,99.0000030212403,8|0,0:1|1:0,0:0:0:0:
370,126,247044,6,0,P|291:105|261:30,1,148.50000453186,0|0,1:0|0:0,0:0:0:0:
423,77,247373,2,0,L|417:182,1,99.0000030212403,8|0,0:1|0:0,0:0:0:0:
430,362,247703,1,0,0:0:0:0:
430,362,247786,1,0,0:0:0:0:
430,362,247868,1,2,1:0:0:0:
237,314,248033,1,8,0:1:0:0:
433,286,248198,5,2,1:0:0:0:
433,286,248280,1,0,1:0:0:0:
433,286,248363,1,4,1:2:0:0:
239,323,248527,1,2,2:0:0:0:
44,361,248692,1,8,0:1:0:0:
105,310,248857,2,0,L|110:198,1,99.0000030212403,4|0,0:0|0:0,0:0:0:0:
114,131,249187,1,2,1:0:0:0:
309,101,249352,1,8,0:1:0:0:
112,111,249516,37,2,1:0:0:0:
92,112,249599,1,0,1:0:0:0:
72,113,249681,1,4,1:2:0:0:
253,193,249846,1,2,2:0:0:0:
153,21,250011,1,8,0:1:0:0:
195,88,250176,2,0,L|314:84,1,99.0000030212403,4|0,0:0|0:0,0:0:0:0:
373,80,250505,1,2,1:0:0:0:
442,265,250670,2,0,L|448:157,1,99.0000030212403,8|0,0:1|0:0,0:0:0:0:
458,86,250918,1,0,0:0:0:0:
458,86,251000,5,4,1:2:0:0:
463,293,251165,1,0,1:0:0:0:
331,205,251330,2,0,P|265:191|223:101,1,148.50000453186,8|0,0:1|1:1,0:0:0:0:
242,49,251659,1,4,0:0:0:0:
407,183,251824,1,0,1:0:0:0:
251,43,251989,2,0,L|152:37,1,99.0000030212403,8|0,0:1|1:0,0:0:0:0:
72,28,252236,1,0,1:0:0:0:
24,92,252319,6,0,P|47:105|76:110,1,49.5000015106202,4|0,1:2|0:0,0:0:0:0:
148,108,252483,1,8,1:0:0:0:
148,108,252648,1,8,1:0:0:0:
388,28,252813,5,4,0:0:0:0:
388,281,252978,1,8,1:0:0:0:
388,281,253143,1,8,1:0:0:0:
388,28,253308,37,0,1:0:0:0:
404,74,253390,1,0,1:0:0:0:
394,122,253472,1,0,1:0:0:0:
352,148,253555,1,0,1:0:0:0:
303,140,253637,1,4,1:0:0:0:
64,64,264187,54,0,L|60:206,1,135,4|0,0:0|0:0,0:0:0:0:
74,269,264846,1,0,0:0:0:0:
200,338,265175,6,0,P|148:347|105:325,2,90
252,289,266165,2,0,L|256:183,1,90,0|0,0:0|0:0,0:0:0:0:
257,127,266824,70,0,P|272:85|367:68,1,135,4|0,0:0|0:0,0:0:0:0:
414,98,267483,2,0,L|421:153,2,45,0|0|0,0:0|0:0|0:0,0:0:0:0:
309,60,268142,6,0,L|218:55,1,90
119,44,268802,2,0,L|101:-1,2,45,0|0|0,0:0|0:0|0:0,0:0:0:0:
190,169,269461,70,0,P|176:102|203:28,1,135,4|0,0:0|0:0,0:0:0:0:
206,157,270121,2,0,L|205:210,2,45,0|0|0,0:0|0:0|0:0,0:0:0:0:
257,291,270780,6,0,P|198:306|136:258,1,135
208,231,271440,1,0,0:0:0:0:
224,223,271604,1,0,0:0:0:0:
239,214,271769,1,0,0:0:0:0:
455,73,272099,69,4,0:0:0:0:
256,192,272181,12,4,273418,0:0:0:0:
224,94,273582,5,0,0:0:0:0:
364,63,273747,1,2,0:0:0:0:
156,46,273912,1,0,0:0:0:0:
324,128,274077,2,0,P|361:139|416:120,1,90,2|0,0:0|0:0,0:0:0:0:
290,32,274407,1,10,0:0:0:0:
149,126,274571,1,0,0:0:0:0:
489,110,274736,6,0,P|475:65|436:142,1,180,4|8,1:0|0:0,0:0:0:0:
423,159,275148,1,0,0:0:0:0:
430,194,275231,1,0,0:0:0:0:
424,229,275313,1,0,0:0:0:0:
408,261,275396,1,0,0:0:0:0:
380,284,275478,1,0,0:0:0:0:
345,291,275560,1,0,1:0:0:0:
310,280,275643,1,0,0:0:0:0:
283,256,275725,2,0,P|261:250|235:249,1,45,8|0,0:0|0:0,0:0:0:0:
179,290,275890,2,0,P|156:296|121:295,1,45
67,271,276055,6,0,L|52:221,3,45,0|0|0|0,1:0|0:0|2:0|2:0,0:0:0:0:
41,193,276385,1,8,0:0:0:0:
36,157,276467,1,0,0:0:0:0:
41,121,276549,1,0,0:0:0:0:
55,87,276632,1,0,0:0:0:0:
78,59,276714,2,0,P|92:40|114:31,1,45,0|0,0:0|0:0,0:0:0:0:
233,139,276879,2,0,P|219:158|197:167,1,45,0|0,1:0|0:0,0:0:0:0:
203,26,277044,2,0,P|222:40|231:62,1,45,8|0,0:0|0:0,0:0:0:0:
114,168,277209,2,0,P|95:154|86:132,1,45,0|0,0:0|0:0,0:0:0:0:
276,69,277374,6,0,L|369:59,1,90,0|0,1:0|0:0,0:0:0:0:
401,55,277621,1,0,0:0:0:0:
434,66,277703,1,8,0:0:0:0:
455,95,277786,1,0,0:0:0:0:
466,128,277868,1,0,0:0:0:0:
465,164,277951,1,0,0:0:0:0:
444,193,278033,1,0,0:0:0:0:
411,208,278115,1,0,0:0:0:0:
374,209,278198,1,0,1:0:0:0:
340,195,278280,1,0,0:0:0:0:
323,162,278363,2,0,L|314:216,1,45,8|0,0:0|0:0,0:0:0:0:
303,277,278527,2,0,L|312:331,1,45,0|0,0:0|2:0,0:0:0:0:
369,364,278692,6,0,L|416:374,3,45,0|0|0|0,1:0|0:0|2:0|0:0,0:0:0:0:
449,373,279022,1,8,0:0:0:0:
467,342,279104,1,0,0:0:0:0:
472,307,279186,1,0,0:0:0:0:
464,272,279269,1,0,0:0:0:0:
447,240,279351,1,0,0:0:0:0:
425,211,279434,1,0,0:0:0:0:
406,181,279516,1,0,1:0:0:0:
397,147,279598,1,0,0:0:0:0:
399,111,279681,1,8,0:0:0:0:
413,78,279763,1,0,0:0:0:0:
435,49,279846,1,0,0:0:0:0:
465,30,279929,1,8,0:0:0:0:
500,25,280011,38,0,P|496:59|485:83,1,45,0|0,1:0|0:0,0:0:0:0:
433,110,280176,2,0,L|372:121,1,45,0|0,0:0|0:0,0:0:0:0:
317,102,280341,2,0,P|287:88|259:61,1,45,8|0,0:0|0:0,0:0:0:0:
229,27,280505,2,0,L|176:22,1,45
111,18,280670,5,0,0:0:0:0:
88,46,280753,1,0,2:0:0:0:
75,79,280835,1,0,1:0:0:0:
73,115,280918,1,0,0:0:0:0:
80,150,281000,1,8,0:0:0:0:
97,181,281082,1,0,0:0:0:0:
127,200,281165,1,0,0:0:0:0:
162,206,281247,1,0,0:0:0:0:
197,201,281330,6,0,P|227:195|246:195,1,45,0|0,1:0|0:0,0:0:0:0:
259,318,281494,2,0,P|229:324|210:324,1,45,0|0,0:0|0:0,0:0:0:0:
311,231,281659,2,0,L|317:284,1,45,8|0,0:0|0:0,0:0:0:0:
146,297,281824,2,0,L|140:244,1,45,0|0,0:0|0:0,0:0:0:0:
231,173,281989,5,0,0:0:0:0:
231,173,282071,1,0,0:0:0:0:
231,173,282154,2,0,L|333:160,2,90,0|8|0,1:0|0:0|1:0,0:0:0:0:
202,150,282566,1,0,1:0:0:0:
184,119,282648,38,0,P|151:95|36:84,1,135,0|0,1:0|0:0,0:0:0:0:
48,164,282978,2,0,P|65:122|59:78,1,90,8|2,2:0|2:1,0:0:0:0:
31,11,283225,1,0,2:0:0:0:
31,11,283308,2,0,L|79:11,2,45,0|0|0,2:0|2:0|1:0,0:0:0:0:
257,56,283637,6,0,L|151:49,1,90,8|0,2:0|2:0,0:0:0:0:
167,50,283885,1,8,2:0:0:0:
167,50,283967,2,0,P|153:96|166:142,1,90,0|2,1:0|2:1,0:0:0:0:
190,158,284214,1,0,2:0:0:0:
222,174,284297,1,8,2:0:0:0:
256,181,284379,1,0,2:0:0:0:
291,177,284461,1,0,2:0:0:0:
323,160,284544,1,0,0:0:0:0:
353,141,284626,6,0,B|371:189|371:189|365:230|365:230|391:302,1,135,0|0,0:0|2:0,0:0:0:0:
401,346,284956,2,0,P|431:324|441:313,1,45,8|0,2:0|0:0,0:0:0:0:
330,323,285121,1,0,1:0:0:0:
330,323,285203,1,0,1:0:0:0:
330,323,285286,6,0,L|198:317,1,107.999996704102,6|0,1:0|2:0,0:0:0:0:
74,193,285615,2,0,L|182:198,1,107.999996704102,8|0,2:0|2:0,0:0:0:0:
480,185,285945,2,0,L|348:179,1,107.999996704102,0|0,2:0|1:0,0:0:0:0:
224,55,286275,2,0,L|332:60,1,107.999996704102,8|0,2:0|1:0,0:0:0:0:
408,64,286522,1,0,1:0:0:0:
408,64,286604,38,0,L|396:190,1,107.999996704102,2|0,1:0|2:0,0:0:0:0:
104,320,286934,2,0,L|116:194,1,107.999996704102,8|0,2:0|2:0,0:0:0:0:
346,244,287264,2,0,L|334:370,1,107.999996704102,0|0,2:0|1:0,0:0:0:0:
166,140,287593,2,0,L|178:14,1,107.999996704102,8|0,2:0|1:0,0:0:0:0:
480,128,287923,6,0,B|402:121|402:121|343:146|343:146|262:140,1,215.999993408203,0|8,1:0|2:0,0:0:0:0:
32,256,288418,2,0,B|110:263|110:263|169:238|169:238|250:244,1,215.999993408203,0|0,2:0|1:0,0:0:0:0:
450,319,288912,2,0,P|414:274|421:213,1,107.999996704102,8|0,2:0|2:0,0:0:0:0:
467,170,289159,1,0,2:0:0:0:
467,170,289242,6,0,L|496:47,1,107.999996704102,0|0,1:0|2:0,0:0:0:0:
495,21,289489,1,0,0:0:0:0:
452,12,289571,1,8,2:0:0:0:
409,19,289654,1,0,0:0:0:0:
379,50,289736,2,0,P|356:62|328:68,1,53.9999983520508,0|0,2:0|0:0,0:0:0:0:
248,29,289901,1,0,0:0:0:0:
242,71,289983,1,0,0:0:0:0:
235,114,290066,2,0,L|246:234,1,107.999996704102,0|8,0:0|0:0,0:0:0:0:
291,340,290396,2,0,P|295:308|310:283,1,53.9999983520508,0|0,0:0|2:0,0:0:0:0:
308,346,290560,6,0,P|256:354|197:320,1,107.999996704102,4|0,1:2|0:0,0:0:0:0:
163,267,290808,1,0,0:0:0:0:
163,267,290890,2,0,P|114:244|62:252,1,107.999996704102,8|4,0:0|0:2,0:0:0:0:
10,307,291137,1,0,0:0:0:0:
10,307,291220,2,0,L|26:188,1,107.999996704102,0|0,0:0|1:0,0:0:0:0:
86,128,291467,1,0,0:0:0:0:
86,128,291549,2,0,L|97:184,1,53.9999983520508,8|0,0:0|0:0,0:0:0:0:
157,74,291714,2,0,L|167:21,1,53.9999983520508,0|0,0:0|0:0,0:0:0:0:
276,83,291879,38,0,P|251:129|201:142,1,107.999996704102,4|0,1:2|0:0,0:0:0:0:
180,226,292126,1,0,0:0:0:0:
180,226,292209,2,0,L|195:164,1,53.9999983520508,8|0,0:0|0:0,0:0:0:0:
289,32,292374,2,0,L|274:94,1,53.9999983520508,4|0,0:0|0:0,0:0:0:0:
285,169,292538,1,0,0:0:0:0:
491,74,292703,1,0,1:0:0:0:
491,74,292786,1,0,0:0:0:0:
491,74,292868,2,0,L|481:199,1,107.999996704102,8|0,0:0|0:0,0:0:0:0:
473,268,293115,1,8,0:0:0:0:
473,268,293198,6,0,P|436:270|397:248,2,71.9999978027344,4|0|0,1:2|0:0|0:0,0:0:0:0:
310,330,293527,2,0,P|347:328|386:350,2,71.9999978027344,8|0|0,0:0|0:0|0:0,0:0:0:0:
235,357,293857,5,4,0:0:0:0:
191,352,293940,1,0,0:0:0:0:
152,331,294022,1,0,1:0:0:0:
135,291,294104,1,0,0:0:0:0:
143,248,294187,1,8,0:0:0:0:
141,205,294269,1,0,0:0:0:0:
121,165,294352,1,0,0:0:0:0:
83,144,294434,1,0,0:0:0:0:
40,141,294516,5,4,1:2:0:0:
4,166,294599,2,0,L|15:103,1,53.9999983520508,0|0,0:0|0:0,0:0:0:0:
89,32,294764,1,0,0:0:0:0:
106,18,294847,2,0,L|95:81,1,53.9999983520508,12|0,1:2|0:0,0:0:0:0:
148,180,295011,2,0,L|159:117,1,53.9999983520508,0|0,0:0|0:0,0:0:0:0:
241,34,295176,2,0,L|231:87,1,53.9999983520508,4|0,1:2|0:0,0:0:0:0:
274,212,295341,2,0,L|283:158,1,53.9999983520508,0|0,1:0|0:0,0:0:0:0:
355,94,295505,2,0,P|379:85|421:84,1,53.9999983520508,0|0,1:0|0:0,0:0:0:0:
492,130,295670,2,0,L|485:193,1,53.9999983520508,0|0,1:0|1:0,0:0:0:0:
407,348,295835,38,0,P|424:309|379:235,1,121.500000463486,2|2,1:0|1:0,0:0:0:0:
329,280,296082,1,0,1:0:0:0:
264,321,296165,6,0,B|197:331|197:331|96:297,1,161.999995056153,0|0,1:0|2:0,0:0:0:0:
87,228,296494,2,0,P|45:253|34:321,1,107.999996704102,0|2,0:0|0:0,0:0:0:0:
168,177,296824,2,0,P|191:134|167:69,1,107.999996704102,8|2,2:0|2:1,0:0:0:0:
117,32,297071,1,0,2:0:0:0:
117,32,297154,6,0,L|245:17,1,107.999996704102,0|0,0:0|0:0,0:0:0:0:
299,8,297401,1,0,2:0:0:0:
299,8,297483,2,0,P|339:41|346:107,1,107.999996704102,8|0,2:0|2:1,0:0:0:0:
326,167,297731,1,0,2:0:0:0:
326,167,297813,2,0,P|336:193|357:214,1,53.9999983520508,0|0,2:0|2:0,0:0:0:0:
511,228,297978,2,0,P|483:223|454:231,1,53.9999983520508,2|0,0:0|2:0,0:0:0:0:
355,369,298143,2,0,P|372:347|380:318,1,53.9999983520508,8|0,2:0|2:0,0:0:0:0:
400,259,298308,1,0,0:0:0:0:
400,259,298390,1,0,2:0:0:0:
400,259,298472,6,0,L|255:253,1,107.999996704102,2|0,0:0|0:0,0:0:0:0:
222,96,298802,2,0,L|77:90,1,107.999996704102,8|0,2:0|2:1,0:0:0:0:
37,89,299049,1,0,2:0:0:0:
37,89,299132,38,0,P|16:141|39:202,1,107.999996704102,2|2,2:1|0:0,0:0:0:0:
277,358,299461,2,0,P|298:306|275:245,1,107.999996704102,8|2,2:0|2:1,0:0:0:0:
238,196,299709,1,0,2:0:0:0:
238,196,299791,6,0,P|269:138|196:170,1,161.999995056153,0|0,0:0|2:0,0:0:0:0:
212,210,300121,2,0,L|341:205,1,107.999996704102,8|2,2:0|2:1,0:0:0:0:
396,205,300368,1,0,2:0:0:0:
404,236,300451,1,0,2:0:0:0:
412,267,300533,1,0,2:0:0:0:
418,298,300615,2,0,B|434:352|434:352|476:313,1,107.999996704102,2|8,0:0|2:0,0:0:0:0:
471,168,300945,2,0,L|484:243,1,53.9999983520508,2|0,0:0|0:0,0:0:0:0:
481,140,301110,5,0,0:0:0:0:
296,33,301274,1,0,0:0:0:0:
349,29,301357,1,0,0:0:0:0:
403,26,301440,1,8,0:2:0:0:
278,118,301604,2,0,P|220:99|204:5,1,161.999995056153,0|0,2:0|2:0,0:0:0:0:
296,33,301934,2,0,B|281:112|281:112|294:170|294:170|280:246,1,215.999993408203,2|0,0:0|0:0,0:0:0:0:
242,311,302346,1,0,2:0:0:0:
255,327,302429,6,0,L|244:379,2,53.9999983520508,2|2|0,0:0|2:1|0:0,0:0:0:0:
41,333,302758,1,8,2:0:0:0:
61,326,302841,1,0,2:0:0:0:
81,319,302923,2,0,L|136:334,1,53.9999983520508,2|0,2:1|2:0,0:0:0:0:
44,258,303088,2,0,L|35:141,1,107.999996704102,2|0,2:1|0:0,0:0:0:0:
225,33,303418,1,8,2:0:0:0:
58,80,303582,2,0,L|50:133,1,53.9999983520508,2|0,2:1|2:0,0:0:0:0:
113,179,303747,38,0,B|167:188|167:188|230:172,1,107.999996704102,0|2,0:0|0:0,0:0:0:0:
290,151,303994,1,0,2:0:0:0:
311,155,304077,2,0,L|348:205,1,53.9999983520508,8|0,2:0|2:0,0:0:0:0:
412,233,304242,1,2,2:1:0:0:
429,245,304324,1,0,2:0:0:0:
446,257,304407,2,0,P|466:208|445:152,1,107.999996704102,2|0,2:1|0:0,0:0:0:0:
409,93,304654,1,0,2:0:0:0:
409,93,304736,2,0,B|466:104|466:104|526:76,1,107.999996704102,8|2,2:0|2:1,0:0:0:0:
389,23,304983,1,0,2:0:0:0:
389,23,305066,6,0,P|355:42|344:57,1,53.9999983520508,0|0,0:0|2:0,0:0:0:0:
323,126,305231,2,0,P|315:164|320:182,1,53.9999983520508,0|0,2:0|2:0,0:0:0:0:
361,241,305396,2,0,P|385:271|402:279,1,53.9999983520508,8|0,2:0|2:0,0:0:0:0:
456,339,305560,1,2,2:1:0:0:
456,339,305643,1,0,2:0:0:0:
456,339,305725,6,0,B|410:325|410:325|355:336|355:336|289:320,2,161.999995056153,2|0|0,2:1|2:0|2:0,0:0:0:0:
484,266,306302,1,0,0:0:0:0:
475,245,306385,6,0,B|491:205|491:205|467:103,1,121.500000463486,4|0,1:0|1:0,0:0:0:0:
456,54,306632,1,0,0:0:0:0:
401,106,306714,38,0,B|334:94|334:94|263:113|263:113|173:98,1,215.999993408203,8|0,2:0|2:2,0:0:0:0:
123,62,307126,1,0,2:2:0:0:
123,62,307209,2,0,P|171:26|233:39,1,107.999996704102,0|8,0:0|2:0,0:0:0:0:
264,139,307538,1,0,2:0:0:0:
264,139,307621,1,0,2:0:0:0:
264,139,307703,6,0,L|272:252,1,107.999996704102,0|0,0:0|0:0,0:0:0:0:
35,356,308033,2,0,L|42:248,1,107.999996704102,8|0,2:0|2:0,0:0:0:0:
56,173,308280,1,0,2:0:0:0:
56,173,308363,2,0,P|89:132|169:124,1,107.999996704102,0|0,2:0|1:0,0:0:0:0:
305,169,308692,1,8,2:0:0:0:
134,197,308857,1,0,2:0:0:0:
379,149,309022,6,0,P|349:105|298:93,1,107.999996704102,0|0,0:0|0:0,0:0:0:0:
405,256,309352,2,0,B|405:166|405:166|420:139|420:139|420:41,1,215.999993408203,8|0,2:0|2:0,0:0:0:0:
480,204,309846,2,0,B|480:278|480:278|463:312,1,107.999996704102,0|8,1:0|2:0,0:0:0:0:
299,203,310176,2,0,P|331:191|370:193,1,53.9999983520508,2|0,0:0|2:0,0:0:0:0:
303,276,310341,5,0,0:0:0:0:
113,313,310505,1,2,2:1:0:0:
132,321,310588,1,0,2:0:0:0:
151,329,310670,1,8,2:0:0:0:
170,338,310753,1,0,2:0:0:0:
189,347,310835,1,0,2:0:0:0:
59,360,311000,2,0,B|79:324|79:324|64:246,1,107.999996704102,2|2,2:1|0:0,0:0:0:0:
42,86,311330,1,8,2:0:0:0:
225,146,311494,2,0,L|146:137,1,53.9999983520508,2|0,2:1|2:0,0:0:0:0:
265,86,311659,38,0,L|372:97,1,107.999996704102,4|0,0:2|2:0,0:0:0:0:
458,78,311907,1,0,2:0:0:0:
380,116,311989,2,0,P|358:164|373:223,1,107.999996704102,8|0,2:0|2:0,0:0:0:0:
481,302,312319,2,0,L|537:292,2,53.9999983520508,2|0|0,2:1|2:0|2:0,0:0:0:0:
422,350,312566,1,0,2:0:0:0:
422,350,312648,6,0,L|331:338,1,71.9999978027344,8|0,2:0|2:0,0:0:0:0:
253,261,312896,1,0,2:0:0:0:
233,270,312978,5,4,0:2:0:0:
213,279,313060,1,0,2:0:0:0:
196,288,313143,2,0,L|129:279,1,53.9999983520508,0|0,2:1|2:0,0:0:0:0:
74,314,313308,1,8,2:0:0:0:
74,314,313390,2,0,P|66:274|76:248,1,53.9999983520508,0|0,2:0|2:1,0:0:0:0:
115,201,313555,1,0,2:0:0:0:
115,201,313637,2,0,B|124:159|109:137|109:137|120:108|120:108|101:73|127:21,1,161.999995056153,0|0,2:0|2:0,0:0:0:0:
189,67,313967,2,0,B|223:72|223:72|312:49,1,107.999996704102,8|2,2:0|2:1,0:0:0:0:
365,27,314214,1,0,2:0:0:0:
434,57,314297,6,0,L|555:60,2,71.9999978027344,4|0|0,0:2|2:0|2:0,0:0:0:0:
346,107,314626,2,0,L|351:255,1,143.999995605469,0|0,2:0|2:0,0:0:0:0:
423,322,314956,37,4,0:2:0:0:
279,272,315121,2,0,L|178:258,2,71.9999978027344,0|0|0,2:0|2:0|2:0,0:0:0:0:
199,335,315451,2,0,L|151:328,1,35.9999989013672,0|0,2:0|2:0,0:0:0:0:
63,316,315615,5,4,0:2:0:0:
57,121,315780,1,0,0:0:0:0:
247,81,315945,1,4,0:2:0:0:
89,228,316110,5,0,0:0:0:0:
151,43,316275,1,4,0:2:0:0:
343,70,316440,1,0,0:0:0:0:
267,271,316604,5,0,0:0:0:0:
206,251,316687,1,0,0:0:0:0:
206,186,316769,1,0,0:0:0:0:
267,166,316852,1,0,0:0:0:0:
305,219,316934,1,12,0:0:0:0:
256,192,317016,12,0,319571,0:0:0:0:
78,318,338033,6,0,L|14:331,2,53.9999983520508,0|0|0,0:0|0:0|0:0,0:0:0:0:
150,338,338527,2,0,P|165:296|139:226,1,107.999996704102,0|0,0:0|0:0,0:0:0:0:
90,186,339022,2,0,L|13:195,1,53.9999983520508,0|0,0:0|0:0,0:0:0:0:
170,163,339352,1,0,0:0:0:0:
236,199,339516,2,0,L|358:192,1,107.999996704102,0|0,0:0|0:0,0:0:0:0:
419,188,340011,6,0,P|426:225|461:263,1,80.9999975280763,0|0,0:0|2:0,0:0:0:0:
497,193,340341,2,0,P|490:156|455:118,1,80.9999975280763,0|0,0:0|2:0,0:0:0:0:
387,111,340670,70,0,L|323:107,2,53.9999983520508
344,180,341165,2,0,L|227:174,1,107.999996704102,0|0,0:0|0:0,0:0:0:0:
161,164,341659,1,0,0:0:0:0:
85,154,341824,1,0,0:0:0:0:
30,101,341989,1,0,0:0:0:0:
115,225,342154,2,0,P|121:283|170:333,1,107.999996704102,0|0,0:0|0:0,0:0:0:0:
196,254,342648,6,0,L|250:248,3,31.4999990386963
236,327,342978,2,0,L|290:321,3,31.4999990386963
338,288,343308,69,0,0:0:0:0:
358,317,343390,1,0,0:0:0:0:
389,334,343472,1,0,0:0:0:0:
424,337,343555,1,0,0:0:0:0:
457,323,343637,2,0,L|480:296,3,36,0|0|0|0,0:0|0:0|0:0|0:0,0:0:0:0:
421,244,343967,2,0,L|443:216,3,36,0|0|0|0,0:0|0:0|0:0|0:0,0:0:0:0:
381,172,344297,2,0,L|403:144,3,36,0|0|0|0,0:0|0:0|0:0|0:0,0:0:0:0:
421,67,344626,5,0,0:0:0:0:
381,66,344708,1,0,0:0:0:0:
346,86,344790,1,0,0:0:0:0:
328,122,344873,1,0,0:0:0:0:
295,145,344956,1,0,0:0:0:0:
256,157,345038,1,0,0:0:0:0:
216,158,345120,1,0,0:0:0:0:
177,148,345203,1,0,0:0:0:0:
142,126,345286,2,0,L|81:116,3,40.4999987640381,0|0|0|0,0:0|0:0|0:0|0:0,0:0:0:0:
77,198,345615,2,0,L|15:187,3,40.4999987640381,0|0|0|0,0:0|0:0|0:0|0:0,0:0:0:0:
165,234,345945,69,0,0:0:0:0:
204,254,346027,1,0,0:0:0:0:
231,290,346109,1,0,0:0:0:0:
241,333,346192,1,0,0:0:0:0:
274,364,346275,1,0,0:0:0:0:
317,373,346357,1,0,0:0:0:0:
360,359,346439,1,0,0:0:0:0:
393,329,346522,1,0,0:0:0:0:
409,288,346604,1,0,0:0:0:0:
392,246,346686,1,0,0:0:0:0:
392,201,346768,1,0,0:0:0:0:
409,160,346851,1,0,0:0:0:0:
441,129,346933,1,0,0:0:0:0:
455,85,347016,1,0,0:0:0:0:
435,44,347099,1,0,0:0:0:0:
396,21,347181,1,0,0:0:0:0:
351,29,347264,6,0,P|277:73|393:68,1,315,0|0,2:0|0:0,0:0:0:0:
344,96,347923,69,0,0:0:0:0:
344,96,348005,1,0,0:0:0:0:
344,96,348088,2,0,L|350:182,1,53.9999983520508,0|0,1:0|2:0,0:0:0:0:
392,201,348252,6,0,B|363:181|363:181|328:192|328:192|276:147|209:199,1,182.250000695229,8|0,0:2|2:0,0:0:0:0:
283,313,348582,70,0,L|276:246,1,67.5,0|0,0:2|2:0,0:0:0:0:
276,241,348912,22,0,B|305:345|305:345|417:368,1,215.999993408203,4|0,1:2|0:0,0:0:0:0:
450,237,349407,1,0,1:0:0:0:
385,173,349571,2,0,P|423:150|468:149,1,90,8|0,0:0|0:0,0:0:0:0:
367,253,349901,2,0,L|256:241,1,90,0|2,1:0|2:0,0:0:0:0:
261,251,350148,1,0,0:0:0:0:
245,259,350231,1,8,0:0:0:0:
209,253,350313,1,0,0:0:0:0:
173,246,350396,1,0,0:0:0:0:
53,322,350560,2,0,P|101:347|184:318,1,135,2|0,0:0|0:0,0:0:0:0:
179,183,350890,2,0,P|131:158|48:187,1,135,10|0,0:0|0:0,0:0:0:0:
117,259,351220,6,0,L|315:248,1,180,0|8,1:0|0:0,0:0:0:0:
434,292,351714,1,2,0:0:0:0:
439,309,351797,1,0,0:0:0:0:
443,326,351879,1,0,0:0:0:0:
448,343,351961,1,0,0:0:0:0:
453,360,352044,1,0,1:0:0:0:
392,282,352209,2,0,L|401:186,1,90,8|0,0:0|0:0,0:0:0:0:
409,120,352456,1,0,0:0:0:0:
409,120,352538,6,0,P|393:77|469:84,1,135,2|0,1:2|0:0,0:0:0:0:
433,131,352868,2,0,P|376:134|331:96,1,90,8|0,0:0|0:0,0:0:0:0:
264,0,353198,1,2,0:0:0:0:
129,52,353363,1,0,1:0:0:0:
129,52,353445,1,0,0:0:0:0:
129,52,353527,1,10,0:0:0:0:
235,148,353692,2,0,L|245:206,1,45,0|0,0:0|0:0,0:0:0:0:
261,122,353857,6,0,P|281:168|173:200,1,180,0|8,1:0|0:0,0:0:0:0:
71,126,354352,2,0,L|181:134,1,90,2|0,0:0|0:0,0:0:0:0:
173,119,354599,1,0,0:0:0:0:
185,106,354681,1,0,1:0:0:0:
220,99,354764,1,0,0:0:0:0:
255,93,354846,2,0,B|316:86|316:86|286:58,1,90,8|0,0:0|0:0,0:0:0:0:
181,25,355176,38,0,B|250:18|250:18|294:33|294:33|376:29,1,180,0|8,1:0|0:0,0:0:0:0:
463,143,355670,1,0,0:0:0:0:
463,143,355753,1,0,0:0:0:0:
463,143,355835,2,0,L|448:44,1,90,2|0,0:0|1:0,0:0:0:0:
391,194,356165,2,0,L|377:282,1,90,10|0,0:0|0:0,0:0:0:0:
362,353,356494,5,0,1:0:0:0:
184,324,356659,1,0,0:0:0:0:
341,362,356824,1,8,0:0:0:0:
314,214,356989,2,0,L|300:302,1,90,2|0,0:0|0:0,0:0:0:0:
288,316,357236,1,0,0:0:0:0:
273,326,357319,1,0,1:0:0:0:
237,327,357401,1,0,0:0:0:0:
201,326,357483,1,8,0:0:0:0:
16,278,357648,2,0,L|32:337,1,45,0|0,0:0|0:0,0:0:0:0:
34,262,357813,6,0,P|0:206|34:125,1,135,4|0,1:0|2:0,0:0:0:0:
95,219,358143,2,0,P|69:195|117:177,1,90,8|0,2:0|2:0,0:0:0:0:
323,258,358472,22,0,L|237:249,1,67.5,2|0,1:0|2:0,0:0:0:0:
222,179,358802,6,0,P|180:230|189:285,1,121.500000463486,8|0,2:0|2:0,0:0:0:0:
237,334,359049,1,0,0:0:0:0:
259,342,359132,6,0,L|430:335,1,135,4|0,1:0|0:0,0:0:0:0:
465,332,359461,2,0,P|496:271|441:157,1,180,8|0,0:0|0:0,0:0:0:0:
332,89,359956,1,0,1:0:0:0:
381,36,360121,2,0,P|405:81|384:139,1,90,8|0,0:0|0:0,0:0:0:0:
386,280,360451,5,0,1:0:0:0:
331,128,360615,1,2,0:0:0:0:
192,187,360780,2,0,L|282:181,1,90,8|0,0:0|0:0,0:0:0:0:
306,249,361027,1,0,0:0:0:0:
306,249,361110,2,0,P|304:313|384:363,1,135,2|0,0:0|0:0,0:0:0:0:
386,280,361440,2,0,B|303:247|303:247|242:253,1,135,10|0,0:0|0:0,0:0:0:0:
190,291,361769,6,0,B|127:283|127:283|75:299|75:299|7:290,1,180,0|8,1:0|0:0,0:0:0:0:
42,95,362264,1,2,0:0:0:0:
43,112,362346,1,0,0:0:0:0:
44,130,362429,1,0,0:0:0:0:
45,147,362511,1,0,0:0:0:0:
46,164,362593,1,0,1:0:0:0:
62,71,362758,2,0,B|95:85|95:85|177:70,1,90,8|0,0:0|0:0,0:0:0:0:
219,59,363005,1,0,0:0:0:0:
219,59,363088,6,0,P|270:85|293:22,1,135,2|0,1:2|0:0,0:0:0:0:
209,48,363418,2,0,L|219:150,1,90,8|0,0:0|0:0,0:0:0:0:
238,280,363747,2,0,P|265:237|371:218,1,135,2|0,0:0|0:0,0:0:0:0:
374,296,364077,2,0,P|333:282|303:313,1,90,10|0,0:0|0:0,0:0:0:0:
65,353,364407,38,0,L|87:153,1,180,4|8,1:2|0:0,0:0:0:0:
110,13,364901,1,0,0:0:0:0:
104,175,365066,2,0,P|123:192|201:199,1,90,0|0,0:0|1:0,0:0:0:0:
338,149,365396,1,8,0:0:0:0:
177,132,365560,1,0,0:0:0:0:
202,64,365725,6,0,L|186:267,1,180,4|8,1:2|0:0,0:0:0:0:
178,356,366220,1,0,0:0:0:0:
178,356,366302,1,0,0:0:0:0:
178,356,366385,1,2,0:0:0:0:
51,289,366549,1,0,1:0:0:0:
263,346,366714,2,0,P|309:354|367:337,1,90,10|0,0:0|0:0,0:0:0:0:
481,175,367044,6,0,L|467:355,1,180,4|8,1:2|0:0,0:0:0:0:
303,278,367538,1,0,0:0:0:0:
415,137,367703,2,0,P|451:106|497:102,1,90,4|0,0:2|1:0,0:0:0:0:
392,294,368033,2,0,L|290:276,1,90,8|0,0:0|0:0,0:0:0:0:
133,340,368363,6,0,P|94:301|95:250,1,90,4|0,1:2|0:0,0:0:0:0:
379,44,368692,2,0,P|418:83|417:134,1,90,12|0,0:2|0:0,0:0:0:0:
284,264,369022,6,0,L|194:256,1,80.9999975280763,4|0,0:2|2:0,0:0:0:0:
77,252,369351,6,0,P|65:223|63:193,1,60.7500002317429,2|0,1:0|2:0,0:0:0:0:
177,149,369516,2,0,P|175:118|184:89,1,60.7500002317429,2|0,0:1|0:0,0:0:0:0:
333,62,369681,69,4,1:0:0:0:
302,80,369763,1,0,0:0:0:0:
283,110,369845,1,0,0:0:0:0:
282,146,369928,1,0,0:0:0:0:
297,178,370010,1,8,0:0:0:0:
326,199,370093,1,0,0:0:0:0:
361,204,370176,1,0,0:0:0:0:
394,217,370258,1,0,0:0:0:0:
415,246,370341,22,0,P|429:272|447:289,1,45
309,283,370505,2,0,P|333:298|357:304,1,45,0|0,1:0|0:0,0:0:0:0:
209,347,370670,2,0,L|253:344,1,45,8|0,0:0|0:0,0:0:0:0:
97,289,370835,2,0,L|141:286,1,45,0|0,1:0|0:0,0:0:0:0:
44,351,371000,53,0,1:0:0:0:
20,323,371082,1,0,0:0:0:0:
12,289,371164,1,0,0:0:0:0:
20,254,371247,1,0,0:0:0:0:
42,227,371329,1,8,0:0:0:0:
75,213,371412,1,0,0:0:0:0:
111,210,371494,1,0,0:0:0:0:
139,188,371576,1,0,0:0:0:0:
152,155,371659,38,0,P|134:131|111:112,1,45
45,33,371824,2,0,P|75:28|103:18,1,45,0|0,1:0|0:0,0:0:0:0:
217,14,371989,2,0,P|205:42|200:72,1,45,8|0,0:0|0:0,0:0:0:0:
206,240,372154,2,0,L|153:233,1,45,0|0,1:0|1:0,0:0:0:0:
255,308,372319,37,0,1:0:0:0:
280,282,372401,1,0,0:0:0:0:
292,249,372483,1,0,0:0:0:0:
289,213,372566,1,0,0:0:0:0:
273,181,372648,1,8,0:0:0:0:
274,145,372730,1,0,0:0:0:0:
290,113,372812,1,0,0:0:0:0:
318,91,372895,1,0,0:0:0:0:
354,83,372978,1,0,0:0:0:0:
389,88,373060,1,0,0:0:0:0:
417,111,373142,1,0,1:0:0:0:
430,143,373225,1,0,0:0:0:0:
431,180,373308,1,8,0:0:0:0:
409,208,373390,1,0,0:0:0:0:
401,243,373472,1,0,1:0:0:0:
408,278,373555,1,0,0:0:0:0:
430,306,373637,54,0,L|474:324,3,45,0|0|0|0,1:0|0:0|0:0|0:0,0:0:0:0:
477,239,373967,2,0,P|499:239|521:229,1,45,8|0,0:0|0:0,0:0:0:0:
353,159,374132,2,0,P|331:159|309:169,1,45,0|0,0:0|0:0,0:0:0:0:
278,233,374297,21,0,0:0:0:0:
268,267,374379,1,0,0:0:0:0:
245,295,374461,1,0,1:0:0:0:
214,313,374544,1,0,0:0:0:0:
179,317,374626,1,8,0:0:0:0:
144,308,374709,1,0,0:0:0:0:
118,284,374791,1,0,1:0:0:0:
85,267,374874,1,8,0:0:0:0:
49,270,374956,70,0,L|22:311,3,45,0|0|0|0,1:0|0:0|0:0|0:0,0:0:0:0:
128,322,375286,2,0,L|132:371,1,45,8|0,0:0|0:0,0:0:0:0:
186,224,375451,2,0,L|182:175,1,45,0|0,0:0|0:0,0:0:0:0:
172,93,375615,5,0,0:0:0:0:
207,95,375697,1,0,0:0:0:0:
238,113,375779,1,0,1:0:0:0:
259,142,375862,1,0,0:0:0:0:
267,177,375945,22,0,P|270:198|270:221,1,45,8|0,0:0|0:0,0:0:0:0:
417,350,376110,2,0,P|414:329|413:305,1,45,0|0,1:0|0:0,0:0:0:0:
453,241,376275,53,0,1:0:0:0:
474,212,376357,1,0,0:0:0:0:
482,177,376439,1,0,0:0:0:0:
474,143,376522,1,0,0:0:0:0:
451,115,376604,1,8,0:0:0:0:
419,99,376687,1,0,0:0:0:0:
384,99,376769,1,0,0:0:0:0:
355,119,376851,1,0,0:0:0:0:
320,118,376933,1,0,0:0:0:0:
293,95,377016,1,0,0:0:0:0:
286,60,377098,1,0,1:0:0:0:
302,29,377181,1,0,0:0:0:0:
335,14,377264,38,0,P|365:19|393:15,1,45,8|0,0:0|0:0,0:0:0:0:
195,92,377429,2,0,P|165:87|137:91,1,45,0|0,1:0|0:0,0:0:0:0:
317,192,377593,2,0,P|346:196|374:192,3,45,0|0|0|0,1:0|0:0|0:0|0:0,0:0:0:0:
392,176,377923,37,8,0:0:0:0:
420,154,378005,1,0,0:0:0:0:
455,153,378087,1,0,0:0:0:0:
485,172,378170,1,0,0:0:0:0:
499,204,378252,1,0,0:0:0:0:
491,239,378335,1,0,0:0:0:0:
465,263,378417,1,0,1:0:0:0:
430,268,378499,1,0,0:0:0:0:
398,252,378582,54,0,L|401:301,1,45,8|0,0:0|0:0,0:0:0:0:
320,113,378747,2,0,L|323:64,1,45,0|0,1:0|1:0,0:0:0:0:
247,203,378912,21,0,1:0:0:0:
248,247,378994,1,0,0:0:0:0:
249,292,379076,1,0,0:0:0:0:
241,332,379159,1,0,3:0:0:0:
199,345,379241,1,8,0:0:0:0:
154,344,379324,1,0,0:0:0:0:
115,323,379407,70,0,L|121:265,1,45,0|0,1:0|0:0,0:0:0:0:
107,136,379571,38,0,L|117:214,1,62.9999980773926,2|0,1:0|0:0,0:0:0:0:
56,248,379819,1,0,2:0:0:0:
56,248,379901,6,0,B|124:237|124:237|179:260|179:260|272:248,1,188.999994232178,8|0,0:2|2:0,0:0:0:0:
318,211,380231,37,4,1:0:0:0:
327,252,380313,1,0,0:0:0:0:
318,294,380395,1,0,0:0:0:0:
326,337,380478,1,0,0:0:0:0:
358,364,380560,1,8,0:0:0:0:
400,371,380642,1,0,0:0:0:0:
440,355,380725,1,0,0:0:0:0:
467,322,380807,1,0,0:0:0:0:
473,280,380890,22,0,L|470:218,1,53.9999983520508
452,86,381055,2,0,L|448:139,1,53.9999983520508,0|0,1:0|0:0,0:0:0:0:
393,300,381220,2,0,L|389:237,1,53.9999983520508,8|0,0:0|0:0,0:0:0:0:
373,50,381385,2,0,L|369:103,1,53.9999983520508,0|0,1:0|0:0,0:0:0:0:
318,294,381549,69,0,1:0:0:0:
286,266,381631,1,0,0:0:0:0:
244,262,381713,1,0,0:0:0:0:
208,285,381796,1,0,0:0:0:0:
188,323,381879,1,8,0:0:0:0:
154,348,381961,1,0,0:0:0:0:
111,351,382043,1,0,0:0:0:0:
74,330,382126,1,0,0:0:0:0:
59,289,382209,1,0,0:0:0:0:
63,246,382291,1,0,0:0:0:0:
87,209,382374,22,0,P|104:182|124:169,1,53.9999983520508,0|0,1:0|0:0,0:0:0:0:
271,192,382539,2,0,P|283:220|284:244,1,53.9999983520508,8|0,0:0|0:0,0:0:0:0:
194,359,382703,2,0,P|162:355|141:344,1,53.9999983520508,0|0,1:0|0:0,0:0:0:0:
271,169,382868,37,0,1:0:0:0:
313,167,382950,1,0,0:0:0:0:
349,189,383032,1,0,0:0:0:0:
368,228,383115,1,0,0:0:0:0:
376,270,383198,1,8,0:0:0:0:
407,299,383280,1,0,0:0:0:0:
449,306,383362,1,0,0:0:0:0:
487,288,383445,1,0,0:0:0:0:
507,250,383527,54,0,P|497:217|479:191,1,53.9999983520508
302,271,383692,2,0,P|311:303|329:329,1,53.9999983520508,0|0,1:0|0:0,0:0:0:0:
395,163,383857,2,0,P|368:170|345:184,1,53.9999983520508,8|0,0:0|0:0,0:0:0:0:
415,369,384022,2,0,P|442:362|465:348,1,53.9999983520508,0|0,1:0|0:0,0:0:0:0:
306,260,384187,37,0,1:0:0:0:
264,251,384269,1,0,0:0:0:0:
223,265,384351,1,0,0:0:0:0:
195,297,384434,1,0,0:0:0:0:
180,337,384516,1,8,0:0:0:0:
139,351,384598,1,0,0:0:0:0:
97,342,384680,1,0,0:0:0:0:
65,314,384763,1,0,0:0:0:0:
64,271,384846,1,0,0:0:0:0:
84,232,384929,1,0,0:0:0:0:
88,189,385011,54,0,P|76:168|44:148,1,53.9999983520508,0|0,1:0|0:0,0:0:0:0:
195,297,385176,2,0,P|213:312|250:320,1,53.9999983520508,8|0,0:0|0:0,0:0:0:0:
235,139,385341,2,0,P|264:136|290:120,1,53.9999983520508,0|0,1:0|0:0,0:0:0:0:
84,232,385505,5,4,1:0:0:0:
95,262,385587,1,0,0:0:0:0:
117,285,385669,1,0,0:0:0:0:
147,296,385752,1,0,0:0:0:0:
179,294,385834,1,8,0:0:0:0:
208,279,385917,1,0,0:0:0:0:
230,255,386000,1,0,0:0:0:0:
256,236,386082,1,0,0:0:0:0:
288,229,386164,1,0,0:0:0:0:
319,233,386247,1,0,0:0:0:0:
348,249,386329,1,0,1:0:0:0:
369,273,386412,1,0,0:0:0:0:
378,304,386494,1,8,0:0:0:0:
390,333,386576,1,0,0:0:0:0:
416,351,386658,1,0,1:0:0:0:
448,350,386741,1,0,0:0:0:0:
474,331,386823,5,0,1:0:0:0:
489,302,386907,1,0,0:0:0:0:
481,270,386989,1,0,0:0:0:0:
455,250,387071,1,0,0:0:0:0:
431,226,387154,1,8,0:0:0:0:
412,199,387236,1,0,0:0:0:0:
402,168,387318,1,0,0:0:0:0:
403,136,387401,1,0,0:0:0:0:
414,106,387483,1,0,0:0:0:0:
437,82,387566,1,0,0:0:0:0:
468,74,387648,1,0,1:0:0:0:
499,83,387731,1,0,0:0:0:0:
477,155,387813,6,0,P|503:160|530:158,1,53.9999983520508,8|0,0:0|0:0,0:0:0:0:
275,30,387978,2,0,P|256:25|221:27,1,53.9999983520508,0|0,1:0|0:0,0:0:0:0:
41,123,388143,53,0,1:0:0:0:
48,165,388225,1,0,0:0:0:0:
76,196,388307,1,0,0:0:0:0:
117,208,388390,1,0,0:0:0:0:
158,197,388472,1,8,0:0:0:0:
187,165,388555,1,0,0:0:0:0:
194,124,388637,1,0,0:0:0:0:
179,84,388719,1,0,0:0:0:0:
144,59,388802,1,0,0:0:0:0:
102,55,388884,1,0,0:0:0:0:
64,75,388967,1,0,1:0:0:0:
44,113,389049,1,0,0:0:0:0:
47,156,389131,5,8,0:0:0:0:
50,199,389213,1,0,0:0:0:0:
53,242,389296,1,0,0:0:0:0:
56,285,389378,1,0,0:0:0:0:
59,328,389461,1,0,1:0:0:0:
91,355,389543,1,0,0:0:0:0:
132,366,389625,1,0,0:0:0:0:
174,359,389708,1,0,0:0:0:0:
204,329,389790,1,8,0:0:0:0:
204,329,389873,1,0,0:0:0:0:
204,329,389956,1,0,0:0:0:0:
204,329,390038,1,0,0:0:0:0:
204,329,390121,6,0,L|325:320,1,94.499997116089,0|0,0:0|2:0,0:0:0:0:
350,382,390451,6,0,B|336:311|336:311|352:252|352:252|338:168,1,202.500007724762,2|0,0:0|0:0,0:0:0:0:
320,62,390780,5,12,0:0:0:0:
