osu file format v14

[General]
AudioFilename: Miraikei Answer.mp3
AudioLeadIn: 0
PreviewTime: 55303
Countdown: 0
SampleSet: Soft
StackLeniency: 0.7
Mode: 0
LetterboxInBreaks: 0
WidescreenStoryboard: 0

[Editor]
Bookmarks: 23
DistanceSpacing: 1
BeatDivisor: 4
GridSize: 4
TimelineZoom: 1.4

[Metadata]
Title:Miraikei Answer (Anime OP Version)
TitleUnicode:未来形Answer (Anime OP Version)
Artist:TRUSTRICK
ArtistUnicode:TRUSTRICK
Creator:Umi
Version:Normal
Source:OreMonogatari!!
Tags:俺物語!! opening Momochikun Natsu
BeatmapID:821681
BeatmapSetID:374184

[Difficulty]
HPDrainRate:4
CircleSize:3
OverallDifficulty:4
ApproachRate:5
SliderMultiplier:1.2
SliderTickRate:1

[Events]
//Background and Video events
Video,600,"Ore Monogatari.avi"
0,0,"Grrr.jpg",0,0
//Break Periods
//Storyboard Layer 0 (Background)
//Storyboard Layer 1 (Fail)
//Storyboard Layer 2 (Pass)
//Storyboard Layer 3 (Foreground)
//Storyboard Sound Samples

[TimingPoints]
1735,361.44578313253,4,2,2,60,1,0
10400,361.44578313253,4,2,2,60,1,0
11122,348.837209302326,4,2,2,60,1,0
13283,361.44578313253,4,2,2,60,1,0
14005,-100,4,2,2,70,0,0
14728,-100,4,2,1,70,0,0
47620,-100,4,2,2,70,0,0
47981,-100,4,2,1,70,0,0
56656,-100,4,2,1,80,0,1
67499,-100,4,2,1,60,0,1
67861,-100,4,2,1,80,0,1
79789,-100,4,2,1,70,0,0
85662,-100,4,2,1,40,0,0
89548,-100,4,2,1,5,0,0

[Colours]
Combo1 : 249,218,113
Combo2 : 105,211,177
Combo3 : 251,200,237
Combo4 : 100,100,255
Combo5 : 202,202,202

[HitObjects]
130,123,1735,6,0,P|120:206|217:141,1,240,2|2,0:0|0:0,0:0:0:0:
294,69,2819,1,0,0:0:0:0:
408,105,3180,2,0,P|425:155|425:229,1,120,2|0,0:0|0:0,0:0:0:0:
326,288,3903,2,0,P|269:272|191:276,1,120,2|0,0:0|0:0,0:0:0:0:
112,345,4626,5,2,0:0:0:0:
45,245,4988,1,0,0:0:0:0:
131,161,5349,2,0,P|188:156|260:170,1,120,2|0,0:0|0:0,0:0:0:0:
289,53,6072,2,0,P|348:72|402:111,2,120,2|0|4,0:0|0:0|0:0,0:0:0:0:
170,74,7156,1,0,0:0:0:0:
106,176,7518,6,0,L|124:297,1,120,2|0,0:0|0:0,0:0:0:0:
236,335,8241,1,2,0:0:0:0:
286,226,8602,1,0,0:0:0:0:
399,263,8963,2,0,P|407:209|274:105,1,240,2|2,0:0|0:0,0:0:0:0:
180,175,10048,1,0,0:0:0:0:
70,133,10400,6,0,P|74:89|119:24,2,120,2|0|2,0:0|0:0|0:0,0:0:0:0:
115,243,11470,1,0,0:0:0:0:
200,162,11819,1,2,0:0:0:0:
366,173,13283,5,8,0:0:0:0:
309,278,13644,1,8,0:0:0:0:
230,187,14005,2,0,L|159:194,2,60,4|8|8,0:3|0:0|0:0,0:0:0:0:
316,103,14728,6,0,P|336:160|347:220,1,120,12|8,0:0|0:0,0:0:0:0:
391,330,15451,2,0,L|467:313,2,60,8|0|8,0:0|0:0|0:0,0:0:0:0:
337,357,15993,6,0,P|281:345|216:341,1,120
158,351,16536,1,8,0:0:0:0:
76,262,16897,2,0,P|76:217|82:180,1,60,8|0,0:0|0:0,0:0:0:0:
103,147,17258,1,8,0:0:0:0:
220,171,17620,6,0,P|273:180|356:168,1,120,8|8,0:0|0:0,0:0:0:0:
456,140,18343,2,0,L|465:62,2,60,8|0|0,0:0|0:0|0:0,0:0:0:0:
452,200,18885,6,0,P|418:233|332:260,1,120,4|0,0:0|0:0,0:0:0:0:
294,238,19427,1,8,0:0:0:0:
242,207,19608,2,0,L|250:332,1,120,4|0,0:0|0:0,0:0:0:0:
295,365,20150,1,8,0:0:0:0:
391,294,20511,6,0,P|411:235|421:175,1,120,2|8,0:0|0:0,0:0:0:0:
351,79,21234,2,0,L|282:77,1,60,0|2,0:0|0:0,0:0:0:0:
243,39,21596,1,8,0:0:0:0:
142,103,21957,6,0,P|135:172|135:237,1,120,2|8,0:0|0:0,0:0:0:0:
154,279,22499,2,0,L|278:268,1,120,0|0,0:0|0:0,0:0:0:0:
331,285,23042,1,8,0:0:0:0:
419,204,23403,6,0,P|447:257|445:323,1,120,2|8,0:0|0:0,0:0:0:0:
331,285,24126,2,0,L|316:353,2,60,0|2|8,0:0|0:0|0:0,0:0:0:0:
293,238,24668,6,0,P|225:221|176:227,1,120
119,246,25210,1,8,0:0:0:0:
83,131,25572,2,0,P|117:103|141:97,1,60,0|2,0:0|0:0,0:0:0:0:
189,83,25933,1,8,0:0:0:0:
295,138,26295,6,0,P|318:143|416:132,1,120,2|8,0:0|0:0,0:0:0:0:
483,229,27017,2,0,P|448:224|406:237,1,60,0|2,0:0|0:0,0:0:0:0:
372,259,27379,1,8,0:0:0:0:
276,331,27740,6,0,P|246:279|188:240,1,120,2|8,0:0|0:0,0:0:0:0:
140,227,28282,2,0,P|178:210|217:144,1,120,0|2,0:0|0:0,0:0:0:0:
207,85,28825,1,8,0:0:0:0:
321,116,29186,6,0,L|403:109,2,60,2|2|8,0:0|0:0|0:0,0:0:0:0:
221,183,29909,2,0,L|139:176,2,60,0|2|8,0:0|0:0|0:0,0:0:0:0:
334,221,30632,6,0,P|350:270|343:338,1,120,4|8,0:0|0:0,0:0:0:0:
288,361,31174,2,0,L|148:351,1,120,4|2,0:0|0:0,0:0:0:0:
117,320,31716,1,8,0:0:0:0:
70,209,32078,6,0,P|134:191|193:187,1,120,2|8,0:0|0:0,0:0:0:0:
231,227,32620,2,0,P|288:243|348:249,1,120,0|2,0:0|0:0,0:0:0:0:
408,246,33162,1,8,0:0:0:0:
504,174,33523,6,0,L|487:56,1,120,2|8,0:0|0:0,0:0:0:0:
435,87,34066,2,0,P|397:92|303:85,1,120,0|2,0:0|0:0,0:0:0:0:
259,65,34608,1,8,0:0:0:0:
163,137,34969,5,2,0:0:0:0:
271,189,35331,2,0,P|281:264|264:313,1,120,8|0,0:0|0:0,0:0:0:0:
161,361,36054,1,8,0:0:0:0:
161,361,36234,6,0,P|149:302|163:244,1,120
192,192,36776,1,8,0:0:0:0:
288,264,37138,2,0,L|374:261,1,60,0|2,0:0|0:0,0:0:0:0:
400,290,37499,1,8,0:0:0:0:
469,192,37861,6,0,P|454:135|385:94,1,120,6|8,0:0|0:0,0:0:0:0:
287,88,38584,2,0,P|246:123|233:137,1,60,0|2,0:0|0:0,0:0:0:0:
212,179,38945,1,8,0:0:0:0:
224,237,39126,6,0,P|269:243|353:233,1,120
396,209,39668,1,8,0:0:0:0:
352,97,40029,2,0,L|363:26,2,60,0|2|8,0:0|0:0|0:0,0:0:0:0:
237,134,40752,6,0,P|196:93|125:77,1,120,2|8,0:0|0:0,0:0:0:0:
97,190,41475,2,0,P|136:201|154:227,2,60,0|2|8,0:0|0:0|0:0,0:0:0:0:
77,308,42198,5,2,0:0:0:0:
197,309,42560,2,0,L|204:372,2,60,8|8|8,0:0|0:0|0:0,0:0:0:0:
234,262,43102,2,0,L|241:197,2,60,2|2|2,0:0|0:0|0:0,0:0:0:0:
277,303,43644,6,0,P|320:304|415:301,1,120,8|0,0:0|0:0,0:0:0:0:
456,297,44186,2,0,L|469:170,1,120
453,119,44728,2,0,P|410:117|366:118,1,60
334,131,45090,5,8,0:0:0:0:
333,250,45451,1,0,0:0:0:0:
333,250,45632,2,0,P|289:303|240:325,1,120,0|2,0:0|0:0,0:0:0:0:
184,331,46174,1,2,0:0:0:0:
75,279,46536,6,0,P|67:229|82:153,1,120,8|0,0:0|0:0,0:0:0:0:
128,127,47078,2,0,P|188:133|266:137,1,120,0|0,0:0|0:0,0:0:0:0:
301,110,47620,1,8,0:0:0:0:
407,165,47981,6,0,L|414:239,1,60,8|8,0:0|0:0,0:0:0:0:
251,306,48704,2,0,L|245:246,1,60,8|8,0:0|0:0,0:0:0:0:
231,187,49066,2,0,P|186:179|146:172,1,60,2|2,0:0|0:0,0:0:0:0:
112,171,49427,6,0,P|100:223|87:299,1,120,6|8,0:0|0:0,0:0:0:0:
122,338,49969,2,0,L|255:319,1,120,0|2,0:0|0:0,0:0:0:0:
300,324,50511,1,8,0:0:0:0:
403,263,50873,6,0,P|395:224|416:142,1,120,2|8,0:0|0:0,0:0:0:0:
435,91,51415,2,0,P|382:99|312:90,1,120,0|2,0:0|0:0,0:0:0:0:
262,63,51957,2,0,P|233:92|218:117,1,60,8|2,0:0|0:0,0:0:0:0:
222,168,52319,6,0,P|239:214|235:296,1,120,2|8,0:0|0:0,0:0:0:0:
120,310,53042,2,0,L|53:316,2,60,2|2|8,0:0|0:0|0:0,0:0:0:0:
170,343,53584,6,0,L|291:349,1,120,6|8,0:0|0:0,0:0:0:0:
346,328,54126,1,8,0:0:0:0:
411,227,54487,2,0,P|447:269|450:290,2,60,8|8|4,0:0|0:0|0:3,0:0:0:0:
354,205,55029,1,8,0:0:0:0:
234,212,55391,6,0,P|198:170|195:149,1,60,8|8,0:0|0:0,0:0:0:0:
192,106,55752,1,8,0:0:0:0:
192,106,56656,6,0,L|330:96,1,120,4|8,0:0|0:0,0:0:0:0:
431,57,57379,2,0,P|430:87|430:117,1,60,2|2,0:0|0:0,0:0:0:0:
450,173,57740,1,8,0:0:0:0:
450,173,57921,6,0,P|394:186|339:241,1,120,6|2,0:0|0:0,0:0:0:0:
347,286,58463,1,8,0:0:0:0:
227,298,58825,2,0,L|160:294,1,60,2|2,0:0|0:0,0:0:0:0:
119,258,59186,1,8,0:0:0:0:
156,143,59548,6,0,P|196:121|294:119,1,120,4|8,0:0|0:0,0:0:0:0:
383,147,60270,2,0,P|396:111|398:82,2,60,2|2|8,0:0|0:0|0:0,0:0:0:0:
344,193,60813,6,0,P|336:248|359:330,1,120,6|2,0:0|0:0,0:0:0:0:
384,359,61355,1,8,0:0:0:0:
265,338,61716,2,0,L|192:347,1,60,2|2,0:0|0:0,0:0:0:0:
158,306,62078,2,0,L|94:302,1,60,8|0,0:0|0:0,0:0:0:0:
48,268,62439,6,0,P|71:229|66:151,1,120,4|8,0:0|0:0,0:0:0:0:
108,43,63162,2,0,L|186:41,1,60,2|2,0:0|0:0,0:0:0:0:
227,31,63523,1,8,0:0:0:0:
227,31,63704,6,0,P|231:112|241:164,1,120,6|2,0:0|0:0,0:0:0:0:
259,206,64246,1,8,0:0:0:0:
378,192,64608,2,0,P|374:273|364:325,1,120,2|8,0:0|0:0,0:0:0:0:
324,353,65150,1,0,0:0:0:0:
267,333,65331,6,0,L|135:337,1,120,6|8,0:0|0:0,0:0:0:0:
87,232,66054,2,0,L|206:235,1,120,2|8,0:0|0:0,0:0:0:0:
267,132,66776,6,0,L|147:135,2,120,0|8|2,0:0|0:0|0:0,0:0:0:0:
366,63,67861,1,8,0:0:0:0:
467,126,68222,6,0,P|465:182|428:241,1,120,6|8,0:0|0:0,0:0:0:0:
316,265,68945,2,0,L|231:264,1,60,2|2,0:0|0:0,0:0:0:0:
197,280,69307,1,8,0:0:0:0:
197,280,69487,6,0,L|188:157,1,120,6|2,0:0|0:0,0:0:0:0:
215,106,70029,1,8,0:0:0:0:
333,125,70391,2,0,L|400:118,2,60,2|2|8,0:0|0:0|0:0,0:0:0:0:
215,106,71114,6,0,P|162:99|75:99,1,120,6|8,0:0|0:0,0:0:0:0:
115,216,71837,2,0,P|164:221|197:219,2,60,2|2|8,0:0|0:0|0:0,0:0:0:0:
57,196,72379,6,0,L|76:332,1,120,6|2,0:0|0:0,0:0:0:0:
122,350,72921,1,8,0:0:0:0:
229,296,73282,2,0,P|261:294|299:302,1,60,2|2,0:0|0:0,0:0:0:0:
346,316,73644,2,0,L|356:253,1,60,8|2,0:0|0:0,0:0:0:0:
332,201,74005,6,0,P|399:212|469:189,1,120,6|8,0:0|0:0,0:0:0:0:
453,79,74728,2,0,L|391:58,1,60,2|2,0:0|0:0,0:0:0:0:
341,34,75090,1,8,0:0:0:0:
285,55,75270,6,0,P|230:97|193:132,1,120,6|2,0:0|0:0,0:0:0:0:
171,188,75813,1,8,0:0:0:0:
257,270,76174,2,0,P|303:281|382:313,1,120,2|8,0:0|0:0,0:0:0:0:
422,337,76716,1,2,0:0:0:0:
479,319,76897,6,0,P|499:268|502:192,1,120,6|8,0:0|0:0,0:0:0:0:
422,114,77620,2,0,L|442:50,2,60,2|2|8,0:0|0:0|0:0,0:0:0:0:
392,166,78162,6,0,P|349:172|261:165,1,120,6|2,0:0|0:0,0:0:0:0:
219,140,78704,1,8,0:0:0:0:
128,219,79066,1,8,0:0:0:0:
214,302,79427,1,8,0:0:0:0:
308,227,79789,6,0,P|322:188|344:113,1,120,6|8,0:0|0:0,0:0:0:0:
451,59,80511,2,0,P|462:101|466:121,1,60,2|2,0:0|0:0,0:0:0:0:
473,177,80873,1,8,0:0:0:0:
473,177,81054,6,0,L|442:314,1,120,6|2,0:0|0:0,0:0:0:0:
421,348,81596,1,8,0:0:0:0:
328,271,81957,2,0,L|268:278,2,60,2|2|8,0:0|0:0|0:0,0:0:0:0:
244,185,82680,6,0,P|195:216|173:278,1,120,6|8,0:0|0:0,0:0:0:0:
89,185,83403,2,0,L|72:118,1,60,2|2,0:0|0:0,0:0:0:0:
95,70,83764,1,8,0:0:0:0:
155,78,83945,6,0,P|221:77|291:75,1,120,6|2,0:0|0:0,0:0:0:0:
332,56,84487,1,8,0:0:0:0:
405,151,84849,2,0,P|447:154|468:151,2,60,8|0|8,0:0|0:0|0:0,0:0:0:0:
298,207,85572,5,6,0:0:0:0:
256,192,85752,12,0,89548,0:0:0:0:
