osu file format v14

[General]
AudioFilename: Miraikei Answer.mp3
AudioLeadIn: 0
PreviewTime: 55303
Countdown: 0
SampleSet: Soft
StackLeniency: 0.7
Mode: 0
LetterboxInBreaks: 0
WidescreenStoryboard: 0

[Editor]
Bookmarks: 23
DistanceSpacing: 1.4
BeatDivisor: 4
GridSize: 8
TimelineZoom: 1.4

[Metadata]
Title:Miraikei Answer (Anime OP Version)
TitleUnicode:未来形Answer (Anime OP Version)
Artist:TRUSTRICK
ArtistUnicode:TRUSTRICK
Creator:Umi
Version:Insane
Source:OreMonogatari!!
Tags:俺物語!! opening Momochikun Natsu
BeatmapID:819696
BeatmapSetID:374184

[Difficulty]
HPDrainRate:7
CircleSize:4
OverallDifficulty:7
ApproachRate:8.5
SliderMultiplier:1.8
SliderTickRate:1

[Events]
//Background and Video events
Video,600,"Ore Monogatari.avi"
0,0,"Grrr.jpg",0,0
//Break Periods
//Storyboard Layer 0 (Background)
//Storyboard Layer 1 (Fail)
//Storyboard Layer 2 (Pass)
//Storyboard Layer 3 (Foreground)
//Storyboard Sound Samples

[TimingPoints]
1735,361.44578313253,4,2,2,60,1,0
1735,-133.333333333333,4,2,2,60,0,0
10400,361.44578313253,4,2,2,60,1,0
10400,-133.333333333333,4,2,2,60,0,0
11122,348.837209302326,4,2,2,60,1,0
13283,361.44578313253,4,2,2,60,1,0
14005,-133.333333333333,4,2,2,70,0,0
14728,-100,4,2,1,70,0,0
47620,-100,4,2,2,70,0,0
47981,-100,4,2,1,70,0,0
56656,-100,4,2,1,80,0,1
67499,-100,4,2,1,60,0,1
67680,-100,4,2,1,70,0,1
67861,-100,4,2,1,80,0,1
68042,-100,4,2,1,90,0,1
68222,-100,4,2,1,80,0,1
79789,-100,4,2,1,70,0,0
85662,-100,4,2,1,40,0,0
87017,-100,4,2,1,30,0,0
88102,-100,4,2,1,20,0,0
89186,-100,4,2,1,10,0,0
89548,-100,4,2,1,5,0,0

[Colours]
Combo1 : 249,218,113
Combo2 : 105,211,177
Combo3 : 251,200,237
Combo4 : 100,100,255
Combo5 : 202,202,202

[HitObjects]
56,179,1735,6,0,P|101:167|139:172,1,67.5000025749208,2|0,0:0|0:0,0:0:0:0:
207,233,2096,1,0,0:0:0:0:
301,180,2277,1,0,0:0:0:0:
231,98,2457,2,0,L|228:31,1,67.5000025749208,2|0,0:0|0:0,0:0:0:0:
345,168,2819,2,0,L|342:236,1,67.5000025749208
279,315,3180,5,2,0:0:0:0:
177,307,3361,1,0,0:0:0:0:
128,219,3542,1,0,0:0:0:0:
204,151,3722,1,0,0:0:0:0:
140,71,3903,2,0,P|116:96|105:127,1,67.5000025749208,2|0,0:0|0:0,0:0:0:0:
122,247,4265,2,0,L|216:240,1,67.5000025749208
292,119,4626,6,0,P|327:179|406:196,1,135.000005149842,2|0,0:0|0:0,0:0:0:0:
388,97,5168,1,0,0:0:0:0:
280,242,5349,2,0,P|239:241|199:237,1,67.5000025749208,2|0,0:0|0:0,0:0:0:0:
64,177,5710,1,0,0:0:0:0:
110,267,5891,1,0,0:0:0:0:
205,125,6072,6,0,P|203:87|192:32,1,67.5000025749208,2|0,0:0|0:0,0:0:0:0:
318,192,6433,2,0,P|312:225|311:259,1,67.5000025749208
418,166,6795,1,4,0:0:0:0:
359,318,6975,1,0,0:0:0:0:
243,231,7156,2,0,P|211:229|157:228,1,67.5000025749208
346,307,7518,6,0,P|358:242|367:158,1,135.000005149842,2|0,0:0|0:0,0:0:0:0:
303,52,8060,1,0,0:0:0:0:
185,118,8241,2,0,P|151:116|120:104,1,67.5000025749208,2|0,0:0|0:0,0:0:0:0:
35,249,8602,2,0,P|82:235|124:242,1,67.5000025749208
284,236,8963,5,2,0:0:0:0:
250,332,9144,1,0,0:0:0:0:
317,140,9325,2,0,L|401:145,1,67.5000025749208
202,170,9686,2,0,L|118:165,1,67.5000025749208,2|0,0:0|0:0,0:0:0:0:
231,85,10048,1,0,0:0:0:0:
284,236,10228,1,0,0:0:0:0:
386,88,10400,6,0,P|357:72|305:69,1,67.5000025749208,2|0,0:0|0:0,0:0:0:0:
315,174,10761,1,0,0:0:0:0:
410,275,10942,1,0,0:0:0:0:
391,176,11122,1,2,0:0:0:0:
335,316,11296,1,0,0:0:0:0:
308,146,11470,1,0,0:0:0:0:
473,209,11645,1,0,0:0:0:0:
220,243,11819,5,2,0:0:0:0:
239,178,13283,5,8,0:0:0:0:
247,188,13644,1,8,0:0:0:0:
254,199,14005,5,4,0:3:0:0:
280,196,14096,1,4,0:3:0:0:
306,193,14186,1,8,0:0:0:0:
333,190,14276,1,8,0:0:0:0:
359,187,14367,2,0,L|370:98,1,67.5000025749208,8|0,0:0|0:0,0:0:0:0:
169,48,14728,6,0,P|185:103|166:166,1,90,12|0,0:0|0:0,0:0:0:0:
131,231,15090,2,0,L|245:225,1,90,8|0,0:0|0:0,0:0:0:0:
351,129,15451,1,8,0:0:0:0:
242,251,15632,1,0,0:0:0:0:
241,62,15813,2,0,P|264:102|275:145,1,90,8|0,0:0|0:0,0:0:0:0:
97,244,16174,6,0,P|136:228|194:223,1,90,8|0,0:0|0:0,0:0:0:0:
374,321,16536,2,0,P|333:302|299:272,1,90,8|0,0:0|0:0,0:0:0:0:
242,141,16897,1,8,0:0:0:0:
190,318,17078,1,0,0:0:0:0:
335,239,17258,2,0,B|335:182|334:149,1,90,8|0,0:0|0:0,0:0:0:0:
150,33,17620,6,0,B|150:90|151:123,1,90,8|0,0:0|0:0,0:0:0:0:
233,245,17981,1,8,0:0:0:0:
150,122,18162,1,0,0:0:0:0:
248,273,18343,2,0,P|286:263|358:270,1,90,8|0,0:0|0:0,0:0:0:0:
460,305,18704,1,8,0:0:0:0:
463,155,18885,6,0,P|376:172|288:154,1,180,4|0,0:0|0:0,0:0:0:0:
190,108,19427,1,8,0:0:0:0:
28,218,19608,2,0,P|115:200|203:218,1,180,4|0,0:0|0:0,0:0:0:0:
346,291,20150,1,8,0:0:0:0:
355,265,20240,1,8,0:0:0:0:
365,240,20331,1,2,0:0:0:0:
375,215,20421,1,2,0:0:0:0:
383,189,20511,6,0,L|369:96,1,90,2|0,0:0|0:0,0:0:0:0:
210,200,20873,2,0,P|153:202|122:191,1,90,8|0,0:0|0:0,0:0:0:0:
252,98,21234,1,0,0:0:0:0:
179,278,21415,1,2,0:0:0:0:
315,206,21596,2,0,P|379:204|416:208,1,90,8|0,0:0|0:0,0:0:0:0:
458,217,21867,1,0,0:0:0:0:
458,217,21957,6,0,L|448:101,1,90,2|0,0:0|0:0,0:0:0:0:
227,58,22319,2,0,L|219:147,1,90,8|0,0:0|0:0,0:0:0:0:
375,255,22680,1,0,0:0:0:0:
240,162,22861,1,0,0:0:0:0:
249,324,23042,1,8,0:0:0:0:
345,149,23222,1,0,0:0:0:0:
199,256,23403,6,0,P|154:252|101:235,1,90,2|0,0:0|0:0,0:0:0:0:
252,137,23764,1,8,0:0:0:0:
331,282,23945,1,0,0:0:0:0:
415,214,24126,2,0,P|416:173|411:124,1,90,0|2,0:0|0:0,0:0:0:0:
284,45,24487,1,8,0:0:0:0:
195,215,24668,6,0,P|238:213|284:217,1,90,0|2,0:0|0:0,0:0:0:0:
83,99,25029,2,0,P|126:101|175:99,1,90,0|8,0:0|0:0,0:0:0:0:
339,39,25391,1,0,0:0:0:0:
266,221,25572,2,0,L|254:126,1,90,0|2,0:0|0:0,0:0:0:0:
236,328,25933,1,8,0:0:0:0:
377,233,26114,1,0,0:0:0:0:
236,328,26295,6,0,P|166:331|133:329,1,90,2|0,0:0|0:0,0:0:0:0:
47,201,26656,2,0,P|56:250|58:296,1,90,8|0,0:0|0:0,0:0:0:0:
144,132,27017,2,0,P|143:87|147:43,1,90,0|2,0:0|0:0,0:0:0:0:
50,91,27379,1,8,0:0:0:0:
161,236,27560,6,0,L|253:233,1,90,0|2,0:0|0:0,0:0:0:0:
329,131,27921,1,0,0:0:0:0:
442,201,28102,2,0,P|454:269|451:302,1,90,8|0,0:0|0:0,0:0:0:0:
438,342,28373,1,0,0:0:0:0:
438,342,28463,2,0,P|379:330|350:335,1,90,0|2,0:0|0:0,0:0:0:0:
261,183,28825,2,0,P|233:238|233:284,1,90,8|2,0:0|0:0,0:0:0:0:
365,110,29186,5,2,0:0:0:0:
332,258,29367,1,2,0:0:0:0:
242,52,29548,1,8,0:0:0:0:
242,52,29909,2,0,L|250:178,1,90,0|2,0:0|0:0,0:0:0:0:
311,305,30270,1,8,0:0:0:0:
381,159,30451,1,0,0:0:0:0:
190,269,30632,6,0,P|151:191|189:113,1,180,4|8,0:0|0:0,0:0:0:0:
348,195,31174,2,0,P|386:116|347:38,1,180,4|2,0:0|0:0,0:0:0:0:
121,63,31716,1,8,0:0:0:0:
113,94,31807,1,8,0:0:0:0:
104,124,31897,1,2,0:0:0:0:
96,154,31987,1,2,0:0:0:0:
90,185,32078,6,0,L|193:177,1,90,2|0,0:0|0:0,0:0:0:0:
21,115,32439,1,8,0:0:0:0:
19,292,32620,2,0,L|122:284,1,90
273,198,32981,2,0,P|253:244|249:291,1,90,2|8,0:0|0:0,0:0:0:0:
208,117,33343,1,0,0:0:0:0:
399,162,33523,6,0,P|393:117|374:76,1,90,2|0,0:0|0:0,0:0:0:0:
323,275,33885,1,8,0:0:0:0:
221,171,34066,2,0,B|163:139|96:170|96:170|124:118,1,180,0|2,0:0|0:0,0:0:0:0:
156,260,34608,1,8,0:0:0:0:
315,142,34789,1,0,0:0:0:0:
212,40,34969,6,0,P|192:100|185:144,1,90,2|0,0:0|0:0,0:0:0:0:
209,231,35331,1,8,0:0:0:0:
209,231,35511,1,0,0:0:0:0:
65,174,35692,2,0,P|73:237|88:285,1,90,0|2,0:0|0:0,0:0:0:0:
201,329,36054,1,8,0:0:0:0:
292,192,36234,1,0,0:0:0:0:
292,192,36415,6,0,L|203:197,1,90,2|0,0:0|0:0,0:0:0:0:
339,91,36776,2,0,L|428:95,1,90,8|0,0:0|0:0,0:0:0:0:
428,289,37138,2,0,L|339:293,1,90,0|2,0:0|0:0,0:0:0:0:
200,136,37499,1,8,0:0:0:0:
200,136,37861,6,0,P|191:180|188:225,1,90,6|0,0:0|0:0,0:0:0:0:
264,302,38222,1,8,0:0:0:0:
374,190,38403,2,0,P|371:145|362:101,1,90
255,45,38764,1,2,0:0:0:0:
150,226,38945,1,8,0:0:0:0:
72,118,39126,6,0,P|80:74|108:39,1,90,0|2,0:0|0:0,0:0:0:0:
262,129,39487,1,0,0:0:0:0:
184,248,39668,2,0,L|94:254,1,90,8|0,0:0|0:0,0:0:0:0:
280,156,40029,2,0,L|380:168,1,90,0|2,0:0|0:0,0:0:0:0:
215,62,40391,1,8,0:0:0:0:
156,148,40572,1,0,0:0:0:0:
294,272,40752,6,0,P|300:228|292:184,1,90,2|0,0:0|0:0,0:0:0:0:
65,115,41114,2,0,P|57:159|64:204,1,90,8|0,0:0|0:0,0:0:0:0:
152,272,41475,1,0,0:0:0:0:
120,40,41656,1,2,0:0:0:0:
228,144,41837,5,8,0:0:0:0:
255,148,42198,1,2,0:0:0:0:
282,151,42560,5,8,0:0:0:0:
183,317,42740,1,8,0:0:0:0:
308,247,42921,1,8,0:0:0:0:
146,176,43102,1,2,0:0:0:0:
331,257,43282,1,2,0:0:0:0:
234,102,43463,1,2,0:0:0:0:
136,224,43644,6,0,P|90:221|43:216,1,90,8|8,0:0|0:0,0:0:0:0:
137,64,44005,1,0,0:0:0:0:
281,185,44186,2,0,P|376:178|466:165,1,180
480,48,44728,1,0,0:0:0:0:
368,220,44909,1,0,0:0:0:0:
472,272,45090,5,8,0:0:0:0:
459,166,45270,1,8,0:0:0:0:
378,336,45451,1,0,0:0:0:0:
256,284,45632,2,0,B|216:216|252:152|252:152|192:188,1,180,0|2,0:0|0:0,0:0:0:0:
347,214,46174,1,2,0:0:0:0:
320,88,46355,1,0,0:0:0:0:
199,184,46536,6,0,L|105:178,1,90,8|8,0:0|0:0,0:0:0:0:
184,300,46897,1,0,0:0:0:0:
286,117,47078,2,0,P|314:167|247:277,1,180
149,100,47620,1,8,0:0:0:0:
149,100,47981,5,8,0:0:0:0:
227,255,48162,1,8,0:0:0:0:
227,255,48704,1,8,0:0:0:0:
288,95,48885,2,0,P|332:89|380:93,1,90,8|2,0:0|0:0,0:0:0:0:
471,161,49246,1,2,0:0:0:0:
397,324,49427,6,0,L|389:234,1,90,6|0,0:0|0:0,0:0:0:0:
471,161,49789,1,8,0:0:0:0:
252,310,49969,2,0,L|244:220,1,90
312,136,50331,1,2,0:0:0:0:
156,224,50511,2,0,P|108:216|60:200,1,90,8|2,0:0|0:0,0:0:0:0:
252,310,50873,6,0,P|294:296|339:289,1,90,2|0,0:0|0:0,0:0:0:0:
471,204,51234,1,8,0:0:0:0:
340,84,51415,2,0,P|336:136|336:188,1,90
384,272,51776,1,2,0:0:0:0:
248,204,51957,1,8,0:0:0:0:
432,116,52138,1,2,0:0:0:0:
208,44,52319,6,0,L|216:224,2,180,2|8|2,0:0|0:0|0:0,0:0:0:0:
360,146,53222,1,2,0:0:0:0:
296,16,53403,1,8,0:0:0:0:
123,203,53584,2,0,L|119:113,1,90,6|0,0:0|0:0,0:0:0:0:
208,44,53945,1,8,0:0:0:0:
344,180,54126,1,8,0:0:0:0:
344,180,54487,5,8,0:0:0:0:
328,216,54578,1,8,0:0:0:0:
312,252,54668,1,8,0:0:0:0:
228,160,54849,1,4,0:3:0:0:
440,264,55029,1,8,0:0:0:0:
440,264,55391,5,8,0:0:0:0:
228,160,55572,1,8,0:0:0:0:
396,64,55752,1,8,0:0:0:0:
121,282,56656,6,0,P|107:219|111:183,1,90,4|0,0:0|0:0,0:0:0:0:
343,99,57017,2,0,P|288:113|228:111,1,90,8|0,0:0|0:0,0:0:0:0:
213,105,57289,1,8,0:0:0:0:
213,105,57379,1,2,0:0:0:0:
318,273,57560,1,2,0:0:0:0:
413,152,57740,1,8,0:0:0:0:
208,207,57921,6,0,B|140:206|62:198|62:198|102:227,1,180,6|2,0:0|0:0,0:0:0:0:
232,316,58463,2,0,L|336:308,1,90,8|0,0:0|0:0,0:0:0:0:
395,274,58734,1,8,0:0:0:0:
414,259,58825,2,0,P|423:207|414:169,1,90,2|2,0:0|0:0,0:0:0:0:
321,103,59186,1,8,0:0:0:0:
230,247,59367,1,0,0:0:0:0:
68,134,59548,6,0,P|119:128|170:126,1,90,4|0,0:0|0:0,0:0:0:0:
369,231,59909,2,0,P|324:228|279:223,1,90,8|0,0:0|0:0,0:0:0:0:
208,192,60180,1,8,0:0:0:0:
186,208,60270,2,0,L|199:312,1,90,2|2,0:0|0:0,0:0:0:0:
84,283,60632,1,8,0:0:0:0:
239,104,60813,6,0,P|279:145|396:136,1,180,6|2,0:0|0:0,0:0:0:0:
330,60,61355,1,8,0:0:0:0:
491,178,61536,1,0,0:0:0:0:
491,178,61626,1,8,0:0:0:0:
491,178,61716,2,0,P|488:235|484:272,1,90,2|2,0:0|0:0,0:0:0:0:
230,320,62078,2,0,P|227:263|223:226,1,90,8|0,0:0|0:0,0:0:0:0:
132,105,62439,6,0,B|193:125|269:105|269:105|245:140,1,180,4|8,0:0|0:0,0:0:0:0:
137,241,62981,2,0,L|86:239,2,45,0|8|2,0:0|0:0|0:0,0:0:0:0:
368,222,63343,1,2,0:0:0:0:
245,138,63523,1,8,0:0:0:0:
267,312,63704,6,0,P|356:315|446:310,1,180,6|2,0:0|0:0,0:0:0:0:
507,208,64246,1,8,0:0:0:0:
317,133,64427,1,0,0:0:0:0:
317,133,64517,1,8,0:0:0:0:
317,133,64608,2,0,P|304:98|296:40,1,90,2|2,0:0|0:0,0:0:0:0:
178,174,64969,1,8,0:0:0:0:
260,277,65150,1,0,0:0:0:0:
317,133,65331,6,0,L|446:130,1,90,6|0,0:0|0:0,0:0:0:0:
205,223,65692,2,0,P|190:274|189:320,1,90,8|0,0:0|0:0,0:0:0:0:
377,371,66054,2,0,P|390:328|393:283,1,90,2|2,0:0|0:0,0:0:0:0:
203,131,66415,2,0,P|189:88|185:43,1,90,8|2,0:0|0:0,0:0:0:0:
377,99,66776,2,0,P|389:141|392:186,1,90,0|2,0:0|0:0,0:0:0:0:
192,310,67138,1,8,0:0:0:0:
192,310,67499,5,2,0:0:0:0:
169,282,67590,1,8,0:0:0:0:
161,246,67680,1,8,0:0:0:0:
163,208,67770,1,8,0:0:0:0:
180,177,67861,2,0,L|239:171,1,45,8|8,0:0|0:0,0:0:0:0:
304,88,68042,2,0,L|245:82,1,45,8|8,0:0|0:0,0:0:0:0:
151,39,68222,6,0,P|120:89|107:133,1,90,6|0,0:0|0:0,0:0:0:0:
255,241,68584,2,0,L|402:240,1,135,8|8,0:0|0:0,0:0:0:0:
426,217,68945,1,2,0:0:0:0:
352,327,69126,1,2,0:0:0:0:
451,183,69307,1,8,0:0:0:0:
255,241,69487,6,0,P|248:196|246:151,1,90,6|0,0:0|0:0,0:0:0:0:
259,50,69849,1,2,0:0:0:0:
132,190,70029,2,0,P|128:250|121:292,1,90,8|0,0:0|0:0,0:0:0:0:
107,316,70301,1,8,0:0:0:0:
107,316,70391,1,2,0:0:0:0:
38,177,70572,1,2,0:0:0:0:
218,262,70752,2,0,L|307:256,1,90,8|2,0:0|0:0,0:0:0:0:
431,128,71114,6,0,P|427:198|439:253,1,90,6|0,0:0|0:0,0:0:0:0:
314,63,71475,2,0,P|247:59|181:76,1,135,8|8,0:0|0:0,0:0:0:0:
149,106,71837,1,2,0:0:0:0:
258,177,72017,1,2,0:0:0:0:
133,248,72198,1,8,0:0:0:0:
325,353,72379,6,0,L|144:346,1,180,6|2,0:0|0:0,0:0:0:0:
278,192,72921,1,8,0:0:0:0:
436,312,73102,1,0,0:0:0:0:
436,312,73192,1,8,0:0:0:0:
436,312,73282,2,0,P|443:265|446:210,1,90,2|2,0:0|0:0,0:0:0:0:
307,64,73644,2,0,P|310:108|316:153,1,90,8|2,0:0|0:0,0:0:0:0:
359,268,74005,6,0,L|261:267,1,90,6|0,0:0|0:0,0:0:0:0:
65,176,74367,2,0,P|58:221|58:266,1,90,8|0,0:0|0:0,0:0:0:0:
122,322,74638,1,8,0:0:0:0:
150,310,74728,2,0,P|156:265|156:220,1,90,2|2,0:0|0:0,0:0:0:0:
192,118,75090,1,8,0:0:0:0:
349,237,75270,6,0,P|298:228|258:228,1,90,6|0,0:0|0:0,0:0:0:0:
384,329,75632,1,2,0:0:0:0:
443,157,75813,2,0,P|389:134|308:122,1,135,8|8,0:0|0:0,0:0:0:0:
265,135,76174,1,2,0:0:0:0:
79,210,76355,1,2,0:0:0:0:
154,53,76536,2,0,L|159:148,1,90,8|2,0:0|0:0,0:0:0:0:
282,42,76897,6,0,P|350:40|475:73,1,180,6|8,0:0|0:0,0:0:0:0:
393,223,77439,1,0,0:0:0:0:
393,223,77529,1,8,0:0:0:0:
393,223,77620,2,0,P|336:217|291:206,1,90,2|2,0:0|0:0,0:0:0:0:
201,140,77981,1,8,0:0:0:0:
291,357,78162,1,6,0:0:0:0:
291,357,78523,5,2,0:0:0:0:
216,270,78704,2,0,P|175:264|116:269,1,90,8|2,0:0|0:0,0:0:0:0:
271,126,79066,1,8,0:0:0:0:
271,126,79156,1,8,0:0:0:0:
271,126,79246,1,8,0:0:0:0:
427,193,79427,1,8,0:0:0:0:
430,228,79517,1,8,0:0:0:0:
424,263,79608,1,8,0:0:0:0:
408,295,79698,1,8,0:0:0:0:
381,319,79789,6,0,L|285:312,1,90,6|0,0:0|0:0,0:0:0:0:
85,185,80150,2,0,P|98:227|103:276,1,90,8|0,0:0|0:0,0:0:0:0:
105,308,80421,1,8,0:0:0:0:
105,308,80511,1,2,0:0:0:0:
232,344,80692,1,2,0:0:0:0:
290,240,80873,1,8,0:0:0:0:
221,70,81054,6,0,P|208:112|203:161,1,90,6|0,0:0|0:0,0:0:0:0:
290,240,81415,1,2,0:0:0:0:
379,166,81596,2,0,L|480:162,1,90,8|0,0:0|0:0,0:0:0:0:
290,240,81957,1,2,0:0:0:0:
365,342,82138,1,2,0:0:0:0:
215,140,82319,1,8,0:0:0:0:
215,140,82680,6,0,P|162:133|122:141,1,90,6|0,0:0|0:0,0:0:0:0:
164,229,83042,1,8,0:0:0:0:
290,59,83222,1,0,0:0:0:0:
400,124,83403,1,2,0:0:0:0:
297,199,83584,1,2,0:0:0:0:
396,82,83764,1,8,0:0:0:0:
481,292,83945,6,0,P|426:296|367:287,1,90,6|0,0:0|0:0,0:0:0:0:
268,174,84307,1,2,0:0:0:0:
166,254,84487,2,0,P|161:301|161:356,2,90,8|0|8,0:0|0:0|0:0,0:0:0:0:
231,101,85029,1,0,0:0:0:0:
352,268,85210,1,8,0:0:0:0:
321,294,85572,5,6,0:0:0:0:
256,192,85662,12,0,89548,0:0:0:0:
