osu file format v14

[General]
AudioFilename: Ore Monogatari Opening (LQ).mp3
AudioLeadIn: 0
PreviewTime: 55235
Countdown: 0
SampleSet: Soft
StackLeniency: 0.7
Mode: 0
LetterboxInBreaks: 0
WidescreenStoryboard: 0

[Editor]
Bookmarks: 24151
DistanceSpacing: 1
BeatDivisor: 4
GridSize: 4
TimelineZoom: 1.3

[Metadata]
Title:Miraikei Answer (Anime OP Version)
TitleUnicode:未来形 Answer (Anime OP Version)
Artist:TRUSTRICK
ArtistUnicode:TRUSTRICK
Creator:BAldoTridentE
Version:Normal!!
Source:Ore Monogatari!! 俺物語!!
Tags:Anime opening MrSergio
BeatmapID:712065
BeatmapSetID:315125

[Difficulty]
HPDrainRate:4
CircleSize:3
OverallDifficulty:5
ApproachRate:5
SliderMultiplier:1.4
SliderTickRate:1

[Events]
//Background and Video events
0,0,"oremonogatari.jpg",0,0
//Break Periods
//Storyboard Layer 0 (Background)
//Storyboard Layer 1 (Fail)
//Storyboard Layer 2 (Pass)
//Storyboard Layer 3 (Foreground)
//Storyboard Sound Samples

[TimingPoints]
1380,361.44578313253,4,2,0,100,1,0
1380,-133.333333333333,4,2,0,75,0,0
13669,-100,4,2,0,100,0,0
56319,-100,4,2,0,100,0,1
85235,-100,4,2,0,100,0,0

[Colours]
Combo1 : 255,255,128
Combo2 : 145,255,145
Combo3 : 164,205,255
Combo4 : 251,172,184

[HitObjects]
88,144,1380,6,2,P|112:108|176:72,1,105.000004005432
256,200,2102,2,2,P|292:188|368:208,1,105.000004005432
260,324,2825,2,0,P|164:304|128:200,1,210.000008010864,2|0,0:0|0:0,0:0:0:0:
240,96,3910,5,0,0:0:0:0:
360,196,4271,2,0,B|392:156|392:156|376:48,2,157.500006008148,2|0|2,0:0|0:0|0:0,0:0:0:0:
320,228,5536,2,0,P|272:176|200:232,1,157.500006008148,0|2,0:0|0:0,0:0:0:0:
108,256,6440,6,2,L|48:224,1,52.5000020027161
108,168,6801,2,2,L|80:116,1,52.5000020027161
156,88,7163,2,2,P|216:48|300:92,1,157.500006008148,2|0,0:0|0:0,0:0:0:0:
224,220,8066,1,0,0:0:0:0:
372,272,8428,2,0,P|324:192|348:128,1,157.500006008148,2|0,0:0|0:0,0:0:0:0:
200,80,9331,6,0,B|152:88|152:88|68:160,2,157.500006008148,2|0|2,0:0|0:0|0:0,0:0:0:0:
304,88,10596,2,0,L|376:108,1,52.5000020027161,0|2,0:0|0:0,0:0:0:0:
296,192,10958,2,0,L|324:236,1,52.5000020027161,0|2,0:0|0:0,0:0:0:0:
228,276,11319,2,0,L|232:348,1,52.5000020027161,0|6,0:0|0:0,0:0:0:0:
172,136,13669,6,0,L|40:216,2,140
352,28,14753,1,2,0:0:0:0:
264,220,15114,6,0,P|288:268|372:288,1,140,0|2,0:0|0:0,0:0:0:0:
408,156,15837,1,0,0:0:0:0:
408,156,16199,1,2,0:0:0:0:
276,104,16560,1,0,0:0:0:0:
276,104,16922,1,2,0:0:0:0:
148,52,17283,6,0,P|80:48|88:208,1,280
228,228,18367,1,2,0:0:0:0:
236,368,18729,2,0,P|328:332|340:296,1,140,0|2,0:0|0:0,0:0:0:0:
376,164,19452,6,0,L|392:88,2,70,0|0|2,0:0|0:0|0:0,0:0:0:0:
176,96,20175,1,4,0:0:0:0:
164,236,20536,6,0,L|48:152,1,140,2|0,0:0|0:0,0:0:0:0:
68,308,21259,1,2,0:0:0:0:
200,348,21620,2,0,L|336:292,1,140,0|2,0:0|0:0,0:0:0:0:
256,176,22343,2,0,L|376:96,1,140,0|2,0:0|0:0,0:0:0:0:
240,56,23066,6,0,P|132:76|148:232,1,280
252,300,24151,1,2,0:0:0:0:
388,272,24512,2,0,L|468:252,2,70,0|0|2,0:0|0:0|0:0,0:0:0:0:
292,168,25235,2,0,P|272:96|224:40,1,140,0|2,0:0|0:0,0:0:0:0:
156,164,25958,1,0,0:0:0:0:
76,276,26319,2,0,B|144:308|228:284,1,140,2|0,0:0|0:0,0:0:0:0:
352,288,27042,1,2,0:0:0:0:
400,160,27404,6,0,P|332:112|340:56,1,140,0|2,0:0|0:0,0:0:0:0:
224,144,28126,2,0,P|219:77|160:46,1,140,0|2,0:0|0:0,0:0:0:0:
96,172,28849,2,0,P|40:232|152:360,1,280
280,340,29934,1,0,0:0:0:0:
400,264,30295,2,0,P|388:164|336:136,1,140
352,76,30837,2,0,P|248:148|160:140,1,210
108,268,31741,5,4,0:0:0:0:
232,312,32102,2,0,L|344:208,1,140,2|0,0:0|0:0,0:0:0:0:
288,84,32825,2,0,L|177:187,1,140,2|0,0:0|0:0,0:0:0:0:
48,208,33548,1,2,0:0:0:0:
160,296,33910,6,0,P|144:356|128:368,2,70,0|0|2,0:0|0:0|0:0,0:0:0:0:
132,160,34633,2,0,P|208:84|296:200,1,280
272,328,35717,1,2,0:0:0:0:
392,260,36078,6,0,L|476:140,1,140,0|2,0:0|0:0,0:0:0:0:
332,148,36801,2,0,L|328:0,1,140,0|2,0:0|0:0,0:0:0:0:
208,80,37524,2,0,P|88:112|72:188,2,210,0|0|2,0:0|0:0|0:0,0:0:0:0:
200,220,38970,2,0,P|216:284|292:324,1,140
336,196,39693,1,0,0:0:0:0:
476,180,40054,1,2,0:0:0:0:
368,92,40416,2,0,B|304:64|244:112|244:112|200:80|180:36|104:40,1,280
104,180,41500,5,2,0:0:0:0:
104,180,41862,1,0,0:0:0:0:
128,316,42223,2,0,P|208:272|232:212,1,140
332,136,42946,5,2,0:0:0:0:
372,272,43307,2,4,L|436:312,1,70
140,124,44392,5,2,0:0:0:0:
280,120,44753,2,4,L|376:116,1,70
64,316,45837,5,2,0:0:0:0:
160,212,46199,2,4,L|216:160,1,70
320,300,47283,5,2,0:0:0:0:
360,164,47645,2,0,P|284:160|248:88,1,140
128,40,48367,2,0,P|56:88|56:164,1,140
64,276,49090,5,0,0:0:0:0:
196,232,49452,2,0,B|196:160|196:160|256:116,2,140,2|0|2,0:0|0:0|0:0,0:0:0:0:
180,372,50536,1,0,0:0:0:0:
312,320,50898,1,2,0:0:0:0:
440,260,51259,6,0,P|360:224|320:160,1,140,0|2,0:0|0:0,0:0:0:0:
380,52,51982,2,0,P|284:28|196:180,1,280
191,299,53066,1,2,0:0:0:0:
256,192,53428,12,0,55416,0:0:0:0:
136,240,56319,6,0,P|128:152|152:80,1,140,4|2,0:0|0:0,0:0:0:0:
264,172,57042,2,0,P|336:128|400:124,1,140,0|2,0:0|0:0,0:0:0:0:
380,264,57765,1,0,0:0:0:0:
380,264,58126,1,2,0:0:0:0:
240,288,58488,6,0,L|160:308,2,70,0|0|2,0:0|0:0|0:0,0:0:0:0:
120,216,59211,2,0,P|120:120|152:72,1,140,0|2,0:0|0:0,0:0:0:0:
200,120,59753,2,0,P|272:128|360:24,1,210,0|2,0:0|0:0,0:0:0:0:
396,168,60657,1,0,0:0:0:0:
396,168,61018,1,2,0:0:0:0:
300,268,61379,6,0,L|380:268,2,70,0|0|2,0:0|0:0|0:0,0:0:0:0:
229,268,61922,1,0,0:0:0:0:
159,268,62102,2,0,P|88:228|84:168,1,140,4|2,0:0|0:0,0:0:0:0:
216,140,62825,5,0,0:0:0:0:
348,192,63187,2,0,B|348:96|348:96|392:56,1,140,2|0,0:0|0:0,0:0:0:0:
244,40,63910,1,2,0:0:0:0:
112,92,64271,2,0,B|72:140|72:140|124:288,2,210,0|0|2,0:0|0:0|0:0,0:0:0:0:
228,168,65717,6,0,L|376:172,1,140,0|2,0:0|0:0,0:0:0:0:
280,280,66440,2,0,L|416:336,1,140,0|2,0:0|0:0,0:0:0:0:
512,236,67163,2,0,L|512:148,2,70,0|0|2,0:0|0:0|0:0,0:0:0:0:
384,180,67886,6,0,P|284:152|372:48,1,280,4|0,0:0|0:0,0:0:0:0:
496,88,68970,1,2,0:0:0:0:
468,224,69331,2,0,P|428:304|380:320,1,140,0|2,0:0|0:0,0:0:0:0:
276,232,70054,2,0,P|336:200|359:136,1,140,0|2,0:0|0:0,0:0:0:0:
220,120,70777,6,0,B|56:148|56:148|28:208,2,210,0|0|2,0:0|0:0|0:0,0:0:0:0:
336,44,72223,2,0,P|364:112|224:248,1,280
104,256,73307,5,2,0:0:0:0:
104,256,73669,2,0,P|72:168|152:64,2,210
212,168,75114,1,0,0:0:0:0:
332,240,75476,2,0,P|404:228|448:152,1,140,2|0,0:0|0:0,0:0:0:0:
336,84,76199,1,2,0:0:0:0:
196,72,76560,6,0,P|95:83|44:171,2,210,0|0|2,0:0|0:0|0:0,0:0:0:0:
184,212,78006,1,0,0:0:0:0:
324,232,78367,2,0,L|392:304,2,70,2|0|0,0:0|0:0|0:0,0:0:0:0:
356,96,79090,1,2,0:0:0:0:
256,192,79452,12,4,85235,0:0:0:0:
