osu file format v14

[General]
AudioFilename: FLYING FAFNIR (Anime OP Version).mp3
AudioLeadIn: 1000
PreviewTime: 52778
Countdown: 0
SampleSet: Soft
StackLeniency: 0.7
Mode: 0
LetterboxInBreaks: 0
WidescreenStoryboard: 0

[Editor]
Bookmarks: 44385
DistanceSpacing: 1
BeatDivisor: 4
GridSize: 4
TimelineZoom: 2.3

[Metadata]
Title:FLYING FAFNIR (Anime OP Version)
TitleUnicode:FLYING FAFNIR (Anime OP Version)
Artist:TRUSTRICK
ArtistUnicode:TRUSTRICK
Creator:Fantastica
Version:Easy
Source:銃皇無尽のファフニール
Tags:Juuou Mujin no Fafnir opening tv size Nardoxyribonucleic
BeatmapID:603689
BeatmapSetID:260563

[Difficulty]
HPDrainRate:2
CircleSize:2.5
OverallDifficulty:2
ApproachRate:3
SliderMultiplier:1.1
SliderTickRate:1

[Events]
//Background and Video events
Video,189,"OP.avi"
0,0,"bg.jpg",0,0
//Break Periods
//Storyboard Layer 0 (Background)
//Storyboard Layer 1 (Fail)
//Storyboard Layer 2 (Pass)
//Storyboard Layer 3 (Foreground)
//Storyboard Sound Samples

[TimingPoints]
751,419.58041958042,4,2,1,20,1,0
7044,-100,4,2,1,25,0,0
7464,-100,4,2,1,30,0,0
10820,-100,4,2,1,35,0,0
14177,-100,4,2,1,65,0,0
15855,-100,4,2,1,70,0,0
22569,-100,4,2,1,50,0,0
35995,-100,4,2,1,60,0,0
52778,-100,4,2,1,70,0,1
82988,-100,4,2,1,70,0,0
88233,-100,4,2,1,5,0,0

[Colours]
Combo1 : 221,0,221
Combo2 : 151,255,255
Combo3 : 151,255,151
Combo4 : 255,159,255
Combo5 : 255,187,119
Combo6 : 255,255,157

[HitObjects]
150,235,751,6,0,B|136:154|136:154|159:75,2,165,2|2|2,0:0|0:0|0:0,0:0:0:0:
179,341,2429,2,0,B|221:340|249:304|258:275|258:275|299:253|367:269,1,220,0|2,0:0|0:0,0:0:0:0:
465,315,3688,1,2,0:0:0:0:
466,205,4107,6,0,P|427:116|314:89,1,220,0|2,0:0|0:0,0:0:0:0:
218,141,5366,1,0,0:0:0:0:
126,201,5785,2,0,P|218:251|310:199,1,220,2|2,0:0|0:0,0:0:0:0:
381,114,7044,1,2,0:0:0:0:
460,189,7464,6,0,P|468:244|480:297,1,110,0|0,1:2|1:0,0:0:0:0:
370,304,8303,2,0,P|315:312|262:324,1,110,0|0,1:0|1:0,0:0:0:0:
154,348,9142,2,0,B|126:242|126:242|146:134,1,220,2|0,1:2|1:0,0:0:0:0:
256,137,10401,1,0,1:0:0:0:
366,134,10820,6,0,B|386:242|386:242|358:348,1,220,2|0,1:2|1:0,0:0:0:0:
256,305,12079,1,0,1:0:0:0:
256,192,12499,12,8,14177,1:0:0:0:
398,119,15855,6,0,P|412:172|414:226,1,110,4|8,0:0|0:0,0:0:0:0:
309,262,16695,2,0,P|295:209|293:155,1,110,0|8,3:0|0:0,0:0:0:0:
314,46,17534,2,0,B|204:37|204:37|154:59,2,165,0|2|8,3:0|0:0|0:0,0:0:0:0:
412,94,19212,5,0,3:0:0:0:
462,192,19632,1,8,0:0:0:0:
352,186,20051,2,0,P|299:184|240:186,1,110,0|8,3:0|0:0,0:0:0:0:
133,182,20890,2,0,L|108:289,2,110,4|12|4,0:0|0:0|0:0,0:0:0:0:
162,75,22149,1,0,3:0:0:0:
243,148,22569,6,0,P|341:183|426:115,1,220,0|0,3:0|3:0,0:0:0:0:
324,70,23827,1,8,0:0:0:0:
217,43,24247,2,0,B|108:36|108:36|57:57,2,165,0|2|8,3:0|0:0|0:0,0:0:0:0:
324,70,25925,6,0,B|377:113|388:158|388:158|326:166|298:212,1,220,0|0,3:0|3:0,0:0:0:0:
262,316,27184,1,8,0:0:0:0:
152,303,27604,2,0,P|104:264|65:237,1,110,0|8,3:0|0:0,0:0:0:0:
139,155,28443,2,0,P|187:116|226:89,1,110,0|8,3:0|0:0,0:0:0:0:
303,166,29282,6,0,P|401:173|468:80,1,220,4|0,0:0|3:0,0:0:0:0:
358,67,30541,1,8,0:0:0:0:
250,70,30960,2,0,B|140:80|140:80|81:90|54:146,1,220,0|0,3:0|3:0,0:0:0:0:
156,186,32219,1,8,0:0:0:0:
265,176,32639,6,0,P|317:154|350:105,2,110,0|8|0,3:0|0:0|3:0,0:0:0:0:
156,186,33897,1,8,0:0:0:0:
61,241,34317,2,0,L|25:345,1,110,0|12,3:0|0:0,0:0:0:0:
132,323,35156,2,0,L|168:219,1,110,8|0,0:0|3:0,0:0:0:0:
204,115,35995,5,4,0:0:0:0:
311,91,36415,2,0,P|401:126|423:238,1,220,8|8,0:0|0:0,0:0:0:0:
383,340,37674,2,0,P|317:275|312:207,2,165,0|2|8,3:0|0:0|0:0,0:0:0:0:
475,280,39352,6,0,L|494:172,2,110,0|8|0,3:0|0:0|3:0,0:0:0:0:
389,348,40611,1,8,0:0:0:0:
319,263,41030,2,0,L|338:155,1,110,0|8,3:0|0:0,0:0:0:0:
253,84,41869,2,0,L|233:191,1,110,4|12,0:0|0:0,0:0:0:0:
200,297,42709,6,0,B|137:311|95:278|95:278|100:224,2,165,4|2|8,0:0|0:0|0:0,0:0:0:0:
312,297,44387,2,0,B|375:311|417:278|417:278|412:224,2,165,0|2|8,3:0|0:0|0:0,0:0:0:0:
256,201,46065,5,0,3:0:0:0:
191,111,46485,2,0,P|156:153|147:209,2,110,8|0|8,0:0|3:0|0:0,0:0:0:0:
300,104,47744,2,0,P|348:131|400:147,1,110,0|8,3:0|0:0,0:0:0:0:
492,207,48583,2,0,P|444:235|404:272,1,110,0|8,3:0|0:0,0:0:0:0:
301,310,49422,6,0,B|308:222|243:174|181:164|129:189|129:189|117:245|64:268|64:268|54:308|74:351,1,440,0|8,3:0|1:0,0:0:0:0:
35,182,51730,6,0,B|45:127|45:127|83:87|168:58|274:95,1,275,12|4,1:0|0:0,0:0:0:0:
358,109,53198,5,8,0:0:0:0:
448,171,53618,2,0,P|470:226|469:276,1,110,0|8,3:0|0:0,0:0:0:0:
363,242,54457,2,0,P|285:205|219:237,2,165,0|2|8,3:0|0:0|0:0,0:0:0:0:
454,302,56135,6,0,P|466:242|481:196,1,110,0|8,3:0|0:0,0:0:0:0:
382,146,56974,2,0,P|370:86|355:40,1,110,0|8,3:0|0:0,0:0:0:0:
287,126,57813,2,0,P|269:216|246:285,2,165,0|2|8,3:0|0:0|0:0,0:0:0:0:
195,65,59492,6,0,L|85:61,1,110,4|8,0:0|0:0,0:0:0:0:
19,149,60331,2,0,L|129:153,1,110,0|8,3:0|0:0,0:0:0:0:
238,149,61170,2,0,L|403:143,2,165,0|2|8,3:0|0:0|0:0,0:0:0:0:
303,60,62848,6,0,L|468:54,2,165,4|4|8,0:0|0:0|0:0,0:0:0:0:
199,22,64527,2,0,B|89:26|89:26|45:73|60:130,1,220,4|8,0:0|0:0,0:0:0:0:
162,165,65785,1,0,3:0:0:0:
266,198,66205,5,4,1:0:0:0:
352,128,66625,2,0,P|452:161|481:264,1,220,12|12,0:0|0:0,0:0:0:0:
396,333,67883,2,0,P|296:300|267:197,1,220,0|0,3:0|3:0,0:0:0:0:
286,89,69142,1,12,0:0:0:0:
178,64,69562,6,0,P|99:71|34:124,2,165,0|2|8,3:0|0:0|0:0,0:0:0:0:
249,147,71240,2,0,P|242:226|189:291,2,165,4|12|8,0:0|0:0|0:0,0:0:0:0:
299,49,72918,6,0,P|350:34|409:41,2,110,0|12|0,3:0|0:0|3:0,0:0:0:0:
250,148,74177,2,0,P|211:110|188:56,2,110,4|0|12,0:0|3:0|0:0,0:0:0:0:
359,142,75436,2,0,P|345:194|310:241,1,110,0|12,3:0|0:0,0:0:0:0:
203,249,76275,6,0,P|128:277|111:355,2,165,4|2|12,0:0|0:0|0:0,0:0:0:0:
310,273,77953,2,0,P|365:274|419:273,1,110,0|12,3:0|0:0,0:0:0:0:
480,181,78792,2,0,P|425:179|370:180,1,110,8|0,1:0|3:0,0:0:0:0:
309,273,79632,6,0,B|238:345|148:328|107:291|107:291|143:191,1,330,4|8,0:0|0:0,0:0:0:0:
179,86,81310,6,0,B|250:14|340:31|381:68|381:68|345:168,1,330,4|0,0:0|3:0,0:0:0:0:
310,273,82988,1,8,0:0:0:0:
256,192,85086,12,0,88233,0:0:0:0:
