osu file format v14

[General]
AudioFilename: Euphonium2op.mp3
AudioLeadIn: 0
PreviewTime: 47943
Countdown: 0
SampleSet: Soft
StackLeniency: 0.7
Mode: 0
LetterboxInBreaks: 0
WidescreenStoryboard: 0

[Editor]
Bookmarks: 6583,40938
DistanceSpacing: 1.1
BeatDivisor: 4
GridSize: 4
TimelineZoom: 1

[Metadata]
Title:Soundscape
TitleUnicode:サウンドスケープ
Artist:TRUE
ArtistUnicode:TRUE
Creator:Rizia
Version:Normal
Source:響け!ユーフォニアム2
Tags:sound hibike euphonium season 2 anime opening tv size kawaiwkyik little CloudSplash16 Doormat pata-mon meg image-- Yogurtt Kagetsu kencho StarrStyx
BeatmapID:1099502
BeatmapSetID:508222

[Difficulty]
HPDrainRate:3
CircleSize:3
OverallDifficulty:4
ApproachRate:4
SliderMultiplier:1.1
SliderTickRate:1

[Events]
//Background and Video events
0,0,"bg.jpg",0,0
Video,0,"optc.flv"
//Break Periods
//Storyboard Layer 0 (Background)
//Storyboard Layer 1 (Fail)
//Storyboard Layer 2 (Pass)
//Storyboard Layer 3 (Foreground)
//Storyboard Sound Samples

[TimingPoints]
-40,322.58064516129,4,2,1,60,1,0
14153,-125,4,2,1,50,0,0
21895,-100,4,2,1,50,0,0
22218,-100,4,2,1,60,0,0
24959,-100,4,2,1,60,0,0
32218,-100,4,2,1,60,0,0
35121,-125,4,2,1,60,0,0
38508,-100,4,2,1,60,0,0
43992,-100,4,2,0,60,0,0
44153,-100,4,2,1,60,0,0
44314,-100,4,2,0,60,0,0
44476,-100,4,2,1,60,0,0
44637,-100,4,2,0,60,0,0
44798,-100,4,2,1,60,0,0
44959,-100,4,2,0,60,0,0
45121,-100,4,2,1,60,0,0
45282,-100,4,2,0,60,0,0
45443,-100,4,2,1,60,0,0
45766,-100,4,2,1,70,0,0
45847,-100,4,2,1,60,0,0
45927,-100,4,2,1,50,0,0
46008,-100,4,2,1,40,0,0
46089,-100,4,2,1,45,0,0
46169,-100,4,2,1,50,0,0
46250,-100,4,2,1,70,0,0
46626,-100,4,2,1,50,0,0
46841,-100,4,2,1,55,0,0
47056,-100,4,2,1,60,0,0
47271,-100,4,2,1,65,0,0
47486,-100,4,2,1,70,0,0
48024,-100,4,2,1,60,0,0
48266,-100,4,2,1,5,0,0
48347,-100,4,2,0,60,0,0
48669,-100,4,2,1,60,0,0
48992,-100,4,2,1,40,0,0
49314,-100,4,2,1,90,0,1
49556,-100,4,2,1,5,0,1
49637,-100,4,2,1,60,0,1
59314,-100,4,2,1,60,0,0
59637,-100,4,2,1,90,0,1
59959,-100,4,2,1,60,0,1
74798,-133.333333333333,4,2,1,60,0,1
77379,-100,4,2,1,60,0,1
79959,-100,4,2,1,60,0,0
80282,-100,4,2,1,90,0,0
80443,-100,4,2,1,60,0,0
87540,-100,4,2,1,60,0,0
88347,-100,4,2,1,5,0,0

[Colours]
Combo1 : 255,255,0
Combo2 : 128,64,64
Combo3 : 255,128,0
Combo4 : 0,128,255

[HitObjects]
124,116,1250,6,0,L|116:52,2,55,8|8|8,0:0|0:0|0:0,0:0:0:0:
224,160,1895,1,8,0:0:0:0:
312,96,2218,1,8,0:0:0:0:
312,96,2379,2,0,P|364:88|424:128,1,110,8|8,0:0|0:0,0:0:0:0:
468,208,3024,1,8,0:0:0:0:
468,208,3185,2,0,L|476:276,2,55,8|8|8,0:0|0:0|0:0,0:0:0:0:
364,244,3830,6,0,P|328:236|288:240,2,55,8|8|8,0:0|0:0|0:0,0:0:0:0:
396,348,4476,1,8,0:0:0:0:
288,376,4798,1,8,0:0:0:0:
288,376,4959,2,0,L|164:364,1,110,8|8,0:0|0:0,0:0:0:0:
68,360,5605,1,8,0:0:0:0:
68,360,5766,2,0,P|56:300|84:248,1,110,8|8,0:0|0:0,0:0:0:0:
152,180,6411,5,4,0:0:0:0:
240,244,6734,2,0,L|372:236,2,110,8|2|8,0:0|0:0|0:0,0:0:0:0:
152,180,7701,2,0,P|140:116|168:60,1,110,2|8,0:0|0:0,0:0:0:0:
192,36,8185,2,0,L|301:29,1,110,0|0,0:0|0:0,0:0:0:0:
356,28,8669,1,8,0:0:0:0:
452,84,8992,6,0,L|444:216,1,110,4|8,0:0|0:0,0:0:0:0:
404,296,9637,2,0,L|412:364,2,55,2|8|8,0:0|0:0|0:0,0:0:0:0:
360,264,10121,2,0,P|324:260|264:312,2,110,4|8|8,0:0|0:0|0:0,0:0:0:0:
440,192,11089,2,0,L|447:132,1,55,8|8,0:0|0:0,0:0:0:0:
456,28,11572,5,4,0:0:0:0:
356,72,11895,1,8,0:0:0:0:
256,28,12218,2,0,L|128:44,1,110,2|8,0:0|0:0,0:0:0:0:
104,72,12701,2,0,P|84:116|76:188,1,110,4|8,0:0|0:0,0:0:0:0:
80,232,13185,1,8,0:0:0:0:
136,324,13508,1,2,0:0:0:0:
240,360,13830,1,8,0:0:0:0:
348,336,14153,5,4,0:0:0:0:
464,68,15121,1,2,0:0:0:0:
368,76,15443,2,0,P|380:124|424:156,1,88,2|2,0:0|0:0,0:0:0:0:
470,222,16089,2,0,L|454:326,1,88,2|2,0:0|0:0,0:0:0:0:
384,372,16734,6,0,P|328:364|288:360,1,88,2|2,0:0|0:0,0:0:0:0:
208,316,17379,1,2,0:0:0:0:
116,344,17701,2,0,P|64:348|16:240,1,176,4|2,0:0|0:0,0:0:0:0:
36,208,18508,2,0,L|48:108,1,88,8|0,0:0|0:0,0:0:0:0:
56,72,18992,1,2,0:0:0:0:
140,24,19314,6,0,P|192:8|288:72,1,176,4|2,0:0|0:0,0:0:0:0:
296,168,20282,1,2,0:0:0:0:
380,120,20605,2,0,B|416:108|444:92|444:92|456:168|464:204,1,176,2|2,0:0|0:0,0:0:0:0:
448,292,21572,1,2,0:0:0:0:
372,352,21895,6,0,L|240:336,1,110,4|8,0:0|0:0,0:0:0:0:
220,304,22379,2,0,L|110:317,1,110,8|8,0:0|0:0,0:0:0:0:
60,336,22863,1,8,0:0:0:0:
4,240,23185,1,8,0:0:0:0:
4,240,23347,2,0,P|-4:200|20:132,1,110,8|0,0:0|0:0,0:0:0:0:
56,96,23830,2,0,P|104:112|168:108,1,110,8|12,0:0|0:0,0:0:0:0:
256,52,24476,5,4,0:0:0:0:
364,28,24798,2,0,P|424:32|464:176,1,220,8|8,0:0|0:0,0:0:0:0:
412,256,25766,2,0,L|396:376,1,110,2|8,0:0|0:0,0:0:0:0:
288,368,26411,2,0,L|302:258,1,110,2|8,0:0|0:0,0:0:0:0:
236,172,27056,6,0,P|280:152|364:168,2,110,2|8|2,0:0|0:0|0:0,0:0:0:0:
156,248,28024,2,0,P|128:148|208:64,1,220,12|8,0:0|0:0,0:0:0:0:
300,24,28992,2,0,L|424:32,1,110,0|8,0:0|0:0,0:0:0:0:
488,108,29637,6,0,P|504:144|504:228,1,110,4|8,0:0|0:0,0:0:0:0:
424,284,30282,1,2,0:0:0:0:
396,176,30605,1,8,0:0:0:0:
316,252,30927,2,0,P|252:268|192:256,1,110,2|8,0:0|0:0,0:0:0:0:
132,184,31572,1,2,0:0:0:0:
100,288,31895,1,8,0:0:0:0:
24,208,32218,6,0,P|20:164|56:100,1,110,4|8,0:0|0:0,0:0:0:0:
160,76,32863,2,0,P|162:41|176:8,2,55,0|8|8,0:0|0:3|0:3,0:0:0:0:
204,112,33347,2,0,L|372:96,1,165,4|0,0:0|0:0,0:0:0:0:
424,92,33992,2,0,P|440:136|432:216,1,110,4|0,0:0|0:0,0:0:0:0:
412,248,34476,1,0,0:0:0:0:
436,356,34798,5,4,0:0:0:0:
328,380,35121,2,0,L|220:372,1,88,2|8,0:0|0:0,0:0:0:0:
152,336,35766,2,0,L|96:344,1,44,2|0,0:0|0:0,0:0:0:0:
20,308,36250,2,0,L|26:264,1,44,8|2,0:0|0:0,0:0:0:0:
104,204,36734,2,0,L|96:104,1,88,8|2,0:0|0:0,0:0:0:0:
136,28,37379,5,4,0:0:0:0:
232,8,37701,1,0,0:0:0:0:
304,72,38024,2,0,P|340:84|408:76,1,88,8|8,0:0|0:0,0:0:0:0:
440,60,38508,6,0,L|424:184,1,110,4|8,0:0|0:0,0:0:0:0:
460,216,38992,1,8,0:0:0:0:
460,216,39153,2,0,P|472:256|464:336,1,110,4|0,0:0|0:0,0:0:0:0:
428,364,39637,1,8,0:3:0:0:
332,304,39959,6,0,L|212:312,1,110,4|8,0:0|0:0,0:0:0:0:
120,348,40605,2,0,L|112:228,1,110,2|8,0:0|0:0,0:0:0:0:
44,152,41250,1,2,0:0:0:0:
108,64,41572,1,8,0:0:0:0:
212,100,41895,1,2,0:0:0:0:
276,12,42217,1,8,0:0:0:0:
368,68,42540,6,0,P|400:96|412:176,1,110,0|8,0:0|0:0,0:0:0:0:
500,228,43185,2,0,L|488:348,1,110,8|8,0:0|0:0,0:0:0:0:
460,384,43669,2,0,P|428:352|296:352,1,165,4|8,0:0|0:0,0:0:0:0:
208,372,44476,2,0,P|153:376|98:379,1,110,8|8,0:0|0:0,0:0:0:0:
28,296,45121,5,8,0:0:0:0:
80,200,45443,1,4,0:0:0:0:
28,104,45766,2,0,P|82:99|137:96,1,110,4|4,0:3|0:3,0:0:0:0:
192,104,46250,1,4,0:0:0:0:
268,208,46626,6,0,P|316:212|360:212,2,73.3333333333333,8|8|8,0:0|0:0|0:0,0:0:0:0:
228,268,47271,2,0,P|180:272|136:272,2,73.3333333333333,8|8|4,0:0|0:0|1:1,0:0:0:0:
296,356,48024,6,0,P|348:368|420:356,1,110,0|2,0:0|0:1,0:0:0:0:
500,308,48669,1,8,1:0:0:0:
468,204,48992,2,0,L|480:128,1,55,8|8,0:0|0:0,0:0:0:0:
484,96,49314,6,0,L|356:112,1,110,4|2,0:0|0:0,0:0:0:0:
292,36,49959,1,8,0:0:0:0:
292,36,50121,2,0,P|224:16|168:28,1,110,4|2,0:0|0:0,0:0:0:0:
140,52,50605,1,8,0:0:0:0:
140,52,50766,2,0,P|96:80|24:88,1,110,0|2,0:0|0:0,0:0:0:0:
8,132,51250,1,8,0:0:0:0:
40,236,51572,6,0,P|93:244|140:273,1,110,6|8,0:0|0:0,0:0:0:0:
200,364,52218,2,0,P|260:352|328:352,1,110,2|8,0:0|0:0,0:0:0:0:
364,356,52701,2,0,L|380:228,1,110,4|2,0:0|0:0,0:0:0:0:
428,220,53185,1,8,0:0:0:0:
428,220,53347,2,0,L|412:92,1,110,4|2,0:0|0:0,0:0:0:0:
376,72,53830,1,8,0:0:0:0:
284,12,54153,6,0,P|268:52|284:136,1,110,4|8,0:0|0:0,0:0:0:0:
316,220,54798,2,0,P|260:232|200:252,1,110,2|8,0:0|0:0,0:0:0:0:
160,268,55282,2,0,P|177:213|190:151,1,110,4|2,0:0|0:0,0:0:0:0:
168,112,55766,1,8,0:0:0:0:
150,1,56089,1,2,0:0:0:0:
44,17,56411,1,8,0:0:0:0:
61,127,56734,6,0,L|48:248,1,110,12|8,0:0|0:0,0:0:0:0:
156,212,57379,2,0,L|143:333,1,110,8|8,0:0|0:0,0:0:0:0:
180,364,57863,2,0,P|216:380|340:328,1,165,4|0,0:0|0:0,0:0:0:0:
436,320,58669,2,0,P|444:264|460:208,1,110,12|12,0:0|0:0,0:0:0:0:
488,108,59314,1,0,0:0:0:0:
420,20,59637,6,0,P|380:56|304:56,1,110,4|2,0:0|0:0,0:0:0:0:
224,16,60282,1,10,0:0:0:0:
224,16,60443,2,0,P|170:22|129:58,1,110,4|2,0:0|0:0,0:0:0:0:
112,112,60927,1,8,0:0:0:0:
112,112,61089,2,0,L|96:236,1,110,0|2,0:0|0:0,0:0:0:0:
92,280,61572,1,8,0:0:0:0:
200,336,61895,6,0,P|248:324|324:324,1,110,6|8,0:0|0:0,0:0:0:0:
420,276,62540,2,0,P|464:284|496:284,2,55,2|8|8,0:0|0:0|0:0,0:0:0:0:
380,236,63024,2,0,P|372:184|416:120,1,110,4|2,0:0|0:0,0:0:0:0:
440,100,63508,1,8,0:0:0:0:
440,100,63669,2,0,L|312:88,1,110,4|2,0:0|0:0,0:0:0:0:
276,80,64153,1,8,0:0:0:0:
176,32,64476,6,0,B|122:22|122:22|71:43,1,110,4|8,0:0|0:0,0:0:0:0:
28,144,65121,2,0,B|82:154|82:154|132:132,1,110,2|8,0:0|0:0,0:0:0:0:
184,148,65605,2,0,L|168:320,1,165,4|8,0:0|0:0,0:0:0:0:
252,384,66411,2,0,P|276:336|264:260,1,110,2|8,0:0|0:0,0:0:0:0:
212,188,67056,6,0,L|80:208,1,110,12|8,0:0|0:0,0:0:0:0:
8,152,67701,2,0,L|24:43,1,110,8|8,0:0|0:0,0:0:0:0:
76,20,68185,2,0,B|148:-4|164:68|248:32,1,165,4|8,0:0|0:0,0:0:0:0:
288,20,68830,2,0,P|332:8|408:48,1,110,4|0,0:0|0:0,0:0:0:0:
428,68,69314,1,8,0:0:0:0:
484,164,69637,6,0,L|472:284,1,110,4|8,0:0|0:0,0:0:0:0:
396,352,70282,2,0,P|352:360|280:332,1,110,8|8,0:0|0:0,0:0:0:0:
228,248,70927,1,8,0:0:0:0:
180,348,71250,1,8,0:0:0:0:
116,256,71572,1,8,0:0:0:0:
68,356,71895,1,8,0:0:0:0:
4,268,72218,6,0,P|8:224|48:168,1,110,8|8,0:0|0:0,0:0:0:0:
96,72,72863,2,0,P|140:84|204:84,1,110,8|8,0:0|0:0,0:0:0:0:
256,68,73347,1,4,0:0:0:0:
364,48,73669,1,4,0:0:0:0:
456,112,73992,1,4,0:0:0:0:
448,220,74314,1,8,0:0:0:0:
340,344,74798,6,0,P|288:344|204:332,2,123.750004720688,4|8|2,0:0|0:0|0:0,0:0:0:0:
436,324,76089,2,0,P|464:280|436:168,1,165.000006294251,4|4,0:0|0:3,0:0:0:0:
256,56,77379,5,4,0:0:0:0:
200,152,77701,2,0,L|88:140,2,110,8|8|8,0:0|0:0|0:0,0:0:0:0:
312,152,78669,2,0,L|424:140,2,110,8|8|8,0:0|0:0|0:0,0:0:0:0:
256,248,79637,1,8,0:0:0:0:
256,356,79959,1,0,0:0:0:0:
160,304,80282,6,0,P|128:324|20:212,1,220,12|8,0:0|0:0,0:0:0:0:
76,132,81250,2,0,P|124:120|196:128,1,110,2|8,0:0|0:0,0:0:0:0:
240,148,81734,2,0,P|287:134|345:91,1,110,0|2,0:0|0:0,0:0:0:0:
368,48,82218,1,8,0:0:0:0:
488,44,82540,5,2,0:0:0:0:
500,164,82863,1,8,0:0:0:0:
444,256,83185,2,0,P|432:300|432:328,2,55,2|8|8,0:0|0:0|0:0,0:0:0:0:
408,212,83669,2,0,L|288:224,1,110,4|0,0:0|0:0,0:0:0:0:
336,328,84314,2,0,L|216:340,1,110,4|0,0:0|0:0,0:0:0:0:
172,348,84798,1,8,0:0:0:0:
76,296,85121,6,0,P|56:256|60:176,1,110,4|8,0:0|0:0,0:0:0:0:
16,88,85766,2,0,L|144:72,1,110,2|8,0:0|0:0,0:0:0:0:
180,60,86250,2,0,P|228:40|340:88,1,165,4|8,0:0|0:0,0:0:0:0:
428,128,87056,2,0,L|412:256,1,110,8|8,0:0|0:0,0:0:0:0:
404,292,87540,1,4,0:0:0:0:
