osu file format v14

[General]
AudioFilename: Euphonium2op.mp3
AudioLeadIn: 0
PreviewTime: 47943
Countdown: 0
SampleSet: Soft
StackLeniency: 0.7
Mode: 0
LetterboxInBreaks: 0
WidescreenStoryboard: 0

[Editor]
Bookmarks: 6583,40938
DistanceSpacing: 1.1
BeatDivisor: 4
GridSize: 4
TimelineZoom: 1

[Metadata]
Title:Soundscape
TitleUnicode:サウンドスケープ
Artist:TRUE
ArtistUnicode:TRUE
Creator:Rizia
Version:Extra
Source:響け!ユーフォニアム2
Tags:sound hibike euphonium season 2 anime opening tv size kawaiwkyik little CloudSplash16 Doormat pata-mon meg image-- Yogurtt Kagetsu kencho StarrStyx
BeatmapID:1080886
BeatmapSetID:508222

[Difficulty]
HPDrainRate:7
CircleSize:4
OverallDifficulty:8.3
ApproachRate:9.3
SliderMultiplier:1.8
SliderTickRate:1

[Events]
//Background and Video events
0,0,"bg.jpg",0,0
Video,0,"optc.flv"
//Break Periods
//Storyboard Layer 0 (Background)
//Storyboard Layer 1 (Fail)
//Storyboard Layer 2 (Pass)
//Storyboard Layer 3 (Foreground)
//Storyboard Sound Samples

[TimingPoints]
-40,322.58064516129,4,2,1,60,1,0
14153,-133.333333333333,4,2,1,50,0,0
22218,-100,4,2,1,60,0,0
24959,-111.111111111111,4,2,1,60,0,0
32218,-100,4,2,1,60,0,0
35121,-133.333333333333,4,2,1,60,0,0
38508,-100,4,2,1,60,0,0
43992,-100,4,2,0,60,0,0
44153,-100,4,2,1,60,0,0
44314,-100,4,2,0,60,0,0
44476,-100,4,2,1,60,0,0
44637,-100,4,2,0,60,0,0
44798,-100,4,2,1,60,0,0
44959,-100,4,2,0,60,0,0
45121,-100,4,2,1,60,0,0
45282,-100,4,2,0,60,0,0
45443,-100,4,2,1,60,0,0
45766,-100,4,2,1,70,0,0
45847,-100,4,2,1,60,0,0
45927,-100,4,2,1,50,0,0
46008,-100,4,2,1,40,0,0
46089,-100,4,2,1,45,0,0
46169,-100,4,2,1,50,0,0
46250,-100,4,2,1,70,0,0
46626,-100,4,2,1,50,0,0
46841,-100,4,2,1,55,0,0
47056,-100,4,2,1,60,0,0
47271,-100,4,2,1,65,0,0
47486,-100,4,2,1,70,0,0
48024,-66.6666666666667,4,2,1,60,0,0
48266,-100,4,2,1,5,0,0
48347,-83.3333333333333,4,2,0,60,0,0
48669,-66.6666666666667,4,2,1,60,0,1
48992,-66.6666666666667,4,2,1,40,0,0
49314,-66.6666666666667,4,2,1,90,0,1
49556,-66.6666666666667,4,2,1,5,0,1
49637,-100,4,2,1,60,0,1
59314,-100,4,2,1,60,0,0
59637,-100,4,2,1,90,0,1
59959,-100,4,2,1,60,0,1
74798,-133.333333333333,4,2,1,60,0,1
77379,-100,4,2,1,60,0,1
79959,-100,4,2,1,60,0,0
80282,-100,4,2,1,90,0,0
80443,-100,4,2,1,60,0,0
87540,-200,4,2,1,60,0,0
88347,-200,4,2,1,5,0,0

[Colours]
Combo1 : 255,255,0
Combo2 : 128,64,64
Combo3 : 255,128,0
Combo4 : 0,128,255

[HitObjects]
128,144,927,5,8,0:0:0:0:
56,235,1250,5,8,0:0:0:0:
248,163,1411,1,8,0:0:0:0:
84,33,1572,1,8,0:0:0:0:
128,144,1895,1,8,0:0:0:0:
360,76,2218,5,8,0:0:0:0:
128,144,2379,1,8,0:0:0:0:
364,228,2701,1,8,0:0:0:0:
180,296,3024,5,8,0:0:0:0:
276,196,3185,1,8,0:0:0:0:
200,376,3347,1,8,0:0:0:0:
60,244,3508,1,8,0:0:0:0:
60,244,3830,5,8,0:0:0:0:
256,320,3992,1,8,0:0:0:0:
452,244,4153,1,8,0:0:0:0:
164,56,4476,1,8,0:0:0:0:
360,272,4798,5,8,0:0:0:0:
460,72,4959,1,8,0:0:0:0:
460,72,5282,1,8,0:0:0:0:
460,72,5605,5,8,0:0:0:0:
376,144,5766,2,0,L|328:136,1,45,8|8,0:0|0:0,0:0:0:0:
192,76,5927,2,0,L|240:68,1,45,8|8,0:0|0:0,0:0:0:0:
340,4,6089,2,0,L|332:52,1,45,8|8,0:0|0:0,0:0:0:0:
244,196,6250,2,0,L|236:151,1,45,8|8,0:0|0:0,0:0:0:0:
104,40,6411,6,0,P|48:36|8:144,2,180,4|8|2,0:0|0:0|0:0,0:0:0:0:
40,256,7218,1,2,0:0:0:0:
244,196,7379,2,0,P|199:195|155:184,1,90,8|0,0:0|0:0,0:0:0:0:
380,100,7701,6,0,P|364:168|340:300,1,180,2|8,0:0|0:0,0:0:0:0:
154,206,8185,2,0,P|199:199|244:196,1,90,0|2,0:0|0:0,0:0:0:0:
328,360,8508,1,0,0:0:0:0:
160,296,8669,1,8,0:0:0:0:
392,200,8830,1,0,0:0:0:0:
230,61,8992,6,0,P|237:128|244:196,1,135,4|0,0:0|0:0,0:0:0:0:
286,272,9314,2,0,P|331:276|376:284,1,90,8|0,0:0|0:0,0:0:0:0:
68,304,9637,1,2,0:0:0:0:
230,61,9798,1,8,0:0:0:0:
286,272,9959,1,8,0:0:0:0:
40,164,10121,6,0,B|100:152|100:152|144:180|144:180|244:164,1,180,4|8,0:0|0:0,0:0:0:0:
332,52,10605,1,8,0:0:0:0:
424,288,10766,1,8,0:0:0:0:
424,288,11089,1,8,0:0:0:0:
380,188,11250,2,0,L|364:236,1,45,8|8,0:0|0:0,0:0:0:0:
476,384,11411,2,0,L|492:336,1,45,8|8,0:0|0:0,0:0:0:0:
452,104,11572,5,4,0:0:0:0:
312,344,11734,1,0,0:0:0:0:
260,164,11895,1,8,0:0:0:0:
424,288,12056,1,0,0:0:0:0:
184,296,12218,1,2,0:0:0:0:
380,188,12379,1,8,0:0:0:0:
176,108,12540,1,8,0:0:0:0:
256,356,12701,6,0,B|276:288|276:288|256:248|256:248|276:172,1,180,4|8,0:0|0:0,0:0:0:0:
336,64,13185,1,8,0:0:0:0:
472,92,13347,1,8,0:0:0:0:
472,228,13508,1,2,0:0:0:0:
448,265,13588,1,0,0:0:0:0:
410,289,13669,1,0,0:0:0:0:
365,293,13749,1,0,0:0:0:0:
324,277,13830,1,8,0:0:0:0:
96,140,14153,5,4,0:0:0:0:
95,139,14476,2,0,P|102:173|104:206,1,67.5000025749208,2|0,0:0|0:0,0:0:0:0:
52,288,14798,2,0,P|73:313|92:341,1,67.5000025749208,2|0,0:0|0:0,0:0:0:0:
188,356,15121,1,2,0:0:0:0:
188,356,15282,1,0,0:0:0:0:
252,224,15443,6,0,P|254:190|260:157,1,67.5000025749208,2|0,0:0|0:0,0:0:0:0:
365,293,15766,2,0,P|371:326|373:359,1,67.5000025749208,2|0,0:0|0:0,0:0:0:0:
444,208,16089,2,0,P|477:210|510:216,1,67.5000025749208,2|0,0:0|0:0,0:0:0:0:
365,293,16411,1,2,0:0:0:0:
324,164,16572,1,0,0:0:0:0:
324,164,16653,1,0,0:0:0:0:
324,164,16734,6,0,P|324:120|356:32,2,135.000005149842,2|2|2,0:0|0:0|0:0,0:0:0:0:
365,293,17540,1,0,0:0:0:0:
132,208,17701,1,4,0:0:0:0:
132,208,18024,6,0,P|172:212|220:228,1,67.5000025749208,2|0,0:0|0:0,0:0:0:0:
44,244,18347,1,2,0:0:0:0:
196,132,18508,2,0,P|212:88|132:20,1,135.000005149842,8|0,0:0|0:0,0:0:0:0:
56,148,18992,1,2,0:0:0:0:
56,148,19072,1,8,0:3:0:0:
56,148,19153,1,2,0:0:0:0:
144,304,19314,6,0,P|184:300|288:276,1,135.000005149842,4|2,0:0|0:0,0:0:0:0:
320,164,19798,1,0,0:0:0:0:
200,216,19959,2,0,P|166:210|137:194,1,67.5000025749208,2|0,0:0|0:0,0:0:0:0:
196,44,20282,2,0,P|229:49|258:65,1,67.5000025749208,2|0,0:0|0:0,0:0:0:0:
320,164,20605,6,0,P|324:220|344:312,1,135.000005149842,2|2,0:0|0:0,0:0:0:0:
339,297,21089,1,0,0:0:0:0:
210,315,21250,2,0,L|144:304,1,67.5000025749208,2|0,0:0|0:0,0:0:0:0:
339,297,21572,2,0,L|362:360,1,67.5000025749208,2|0,0:0|0:0,0:0:0:0:
196,132,21895,5,4,0:0:0:0:
196,132,22218,2,0,L|244:140,3,45,8|8|8|8,0:0|0:0|0:0|0:0,0:0:0:0:
336,76,22540,1,8,0:0:0:0:
350,118,22620,1,8,0:0:0:0:
348,162,22701,1,8,0:0:0:0:
329,203,22781,1,8,0:0:0:0:
297,233,22862,1,8,0:0:0:0:
255,249,22943,1,8,0:0:0:0:
210,248,23023,1,8,0:0:0:0:
169,231,23104,1,8,0:0:0:0:
138,199,23185,5,8,0:0:0:0:
232,40,23347,1,8,0:0:0:0:
352,360,23669,1,0,0:0:0:0:
280,196,23830,1,8,0:0:0:0:
196,340,23992,1,0,0:0:0:0:
126,109,24153,2,0,P|134:154|138:199,1,90,12|0,0:0|0:0,0:0:0:0:
88,304,24476,6,0,P|128:256|268:256,1,180,4|8,0:0|0:0,0:0:0:0:
400,284,24959,1,0,0:0:0:0:
456,192,25121,2,0,P|460:156|448:108,1,80.9999975280763,2|2,0:0|0:0,0:0:0:0:
272,140,25443,2,0,L|360:152,1,80.9999975280763,8|0,0:0|0:0,0:0:0:0:
196,340,25766,6,0,P|188:299|184:252,1,80.9999975280763,2|0,0:0|0:0,0:0:0:0:
283,59,26089,2,0,P|279:100|272:140,1,80.9999975280763,8|0,0:0|0:0,0:0:0:0:
56,220,26411,1,2,0:0:0:0:
88,96,26572,1,2,0:0:0:0:
184,259,26734,2,0,P|224:252|265:248,1,80.9999975280763,8|0,0:0|0:0,0:0:0:0:
176,64,27056,6,0,P|95:56|15:42,2,161.999995056153,2|8|2,0:0|0:0|0:0,0:0:0:0:
184,259,27863,1,2,0:0:0:0:
20,124,28024,6,0,P|28:204|43:284,1,161.999995056153,12|2,0:0|0:0,0:0:0:0:
272,176,28508,1,0,0:0:0:0:
184,20,28669,1,8,0:0:0:0:
132,180,28830,1,0,0:0:0:0:
132,180,28911,1,0,0:0:0:0:
132,180,28992,2,0,P|164:140|216:124,1,80.9999975280763,2|2,0:0|0:0,0:0:0:0:
368,188,29314,2,0,P|386:235|374:288,1,80.9999975280763,8|0,0:0|0:0,0:0:0:0:
232,372,29637,6,0,P|220:320|312:236,2,161.999995056153,4|8|2,0:0|0:0|0:0,0:0:0:0:
184,204,30443,1,2,0:0:0:0:
312,328,30605,2,0,P|352:323|413:312,1,80.9999975280763,8|0,0:0|0:0,0:0:0:0:
460,172,30927,5,2,0:0:0:0:
312,328,31089,1,0,0:0:0:0:
444,264,31250,1,8,0:0:0:0:
328,148,31411,1,0,0:0:0:0:
216,288,31572,2,0,P|160:304|112:316,1,80.9999975280763,2|2,0:0|0:0,0:0:0:0:
8,196,31895,2,0,P|46:207|86:217,1,80.9999975280763,8|0,0:0|0:0,0:0:0:0:
240,128,32218,6,0,P|240:80|128:40,1,180,4|8,0:0|0:0,0:0:0:0:
184,204,32701,1,0,0:0:0:0:
322,34,32863,2,0,P|329:79|332:124,1,90,0|8,0:0|0:3,0:0:0:0:
228,360,33185,1,8,0:3:0:0:
168,280,33347,6,0,B|252:224|268:308|356:240,1,180,4|8,0:0|0:3,0:0:0:0:
124,152,33830,1,0,0:0:0:0:
376,336,33992,5,4,0:0:0:0:
280,176,34153,1,8,0:0:0:0:
136,300,34314,1,0,0:0:0:0:
372,232,34476,2,0,P|384:180|392:128,1,90
322,34,34798,5,4,0:0:0:0:
136,300,35121,2,0,P|203:297|268:280,2,135.000005149842,2|8|2,0:0|0:0|0:0,0:0:0:0:
44,280,35927,2,0,P|36:240|48:196,1,67.5000025749208,2|0,0:0|0:0,0:0:0:0:
104,104,36250,1,8,0:0:0:0:
188,192,36411,2,0,L|276:180,1,67.5000025749208,2|0,0:0|0:0,0:0:0:0:
384,160,36734,1,8,0:0:0:0:
104,104,37056,1,2,0:0:0:0:
104,104,37218,1,0,0:0:0:0:
104,104,37379,6,0,B|88:164|88:164|112:248,1,135.000005149842,4|0,0:0|0:0,0:0:0:0:
384,348,38024,1,8,0:0:0:0:
312,220,38185,1,8,0:0:0:0:
192,308,38347,1,8,0:0:0:0:
416,248,38508,6,0,P|448:204|420:80,1,180,4|8,0:0|0:0,0:0:0:0:
216,36,38992,1,8,0:0:0:0:
188,168,39153,2,0,B|232:192|232:192|376:160,1,180,4|0,0:0|0:0,0:0:0:0:
136,88,39637,1,8,0:3:0:0:
328,48,39798,1,0,0:0:0:0:
328,48,39879,1,0,0:0:0:0:
328,48,39959,6,0,L|316:148,1,90,4|0,0:0|0:0,0:0:0:0:
248,216,40282,2,0,L|260:316,1,90,8|0,0:0|0:0,0:0:0:0:
472,312,40605,2,0,P|485:271|385:209,1,180,2|8,0:0|0:0,0:0:0:0:
320,352,41089,1,0,0:0:0:0:
176,312,41250,6,0,P|168:267|167:222,1,90,2|0,0:0|0:0,0:0:0:0:
340,112,41572,2,0,P|338:156|331:201,1,90,8|0,0:0|0:0,0:0:0:0:
160,336,41895,1,2,0:0:0:0:
116,160,42056,1,2,0:0:0:0:
148,360,42218,1,8,0:0:0:0:
264,236,42379,1,0,0:0:0:0:
56,216,42540,6,0,P|36:172|112:76,1,180,4|8,0:0|0:0,0:0:0:0:
340,112,43024,1,0,0:0:0:0:
160,168,43185,2,0,L|116:160,1,45,8|8,0:0|0:0,0:0:0:0:
98,32,43347,2,0,L|106:76,1,45,8|8,0:0|0:0,0:0:0:0:
256,168,43508,2,0,L|241:210,1,45,8|8,0:0|0:0,0:0:0:0:
156,292,43669,6,0,P|100:316|12:224,1,180,4|2,0:0|0:0,0:0:0:0:
268,352,44153,2,0,P|308:344|364:328,1,90,8|2,0:0|0:0,0:0:0:0:
104,224,44476,5,8,0:0:0:0:
340,112,44637,1,2,0:0:0:0:
128,48,44798,1,8,0:0:0:0:
184,180,44959,1,2,0:0:0:0:
240,312,45121,5,8,0:0:0:0:
56,156,45282,1,2,0:0:0:0:
296,80,45443,1,4,0:0:0:0:
148,308,45605,5,8,0:0:0:0:
148,308,45685,1,8,0:0:0:0:
148,308,45766,2,0,L|156:372,1,45,4|4,0:3|0:3,0:0:0:0:
320,220,45927,2,0,P|301:207|280:199,1,45,4|4,2:3|0:3,0:0:0:0:
248,60,46089,2,0,P|225:62|204:70,1,45,4|4,0:3|0:3,0:0:0:0:
56,104,46250,5,4,0:0:0:0:
56,104,46626,5,8,0:0:0:0:
360,169,46841,1,8,0:0:0:0:
78,297,47056,1,8,0:0:0:0:
232,25,47271,1,8,0:0:0:0:
264,334,47486,1,8,0:0:0:0:
196,186,47701,5,4,1:1:0:0:
196,186,48024,6,0,B|212:328|212:328|252:256,1,202.500007724762
296,200,48347,2,2,L|423:220,1,107.999996704102,2|2,0:1|0:0,0:0:0:0:
452,296,48589,1,2,0:0:0:0:
452,296,48669,6,0,P|404:308|364:300,1,67.5000025749208,8|0,1:0|0:0,0:0:0:0:
264,334,48830,2,0,P|229:298|216:259,1,67.5000025749208
264,88,48992,5,8,0:0:0:0:
264,88,49072,1,8,0:0:0:0:
264,88,49153,1,8,0:0:0:0:
264,88,49234,1,8,0:0:0:0:
264,88,49314,6,0,B|392:64|392:64|368:92|368:152,1,202.500007724762,4|0,0:0|0:0,0:0:0:0:
456,120,49637,5,2,0:0:0:0:
216,172,49798,1,0,0:0:0:0:
416,276,49959,1,8,0:0:0:0:
368,28,50121,6,0,P|324:104|338:192,1,180,4|2,0:0|0:0,0:0:0:0:
264,334,50605,1,8,0:0:0:0:
88,268,50766,2,0,P|136:252|204:256,1,90,0|2,0:0|0:0,0:0:0:0:
352,336,51089,1,2,0:0:0:0:
216,172,51250,1,8,0:0:0:0:
128,356,51411,1,0,0:0:0:0:
312,200,51572,6,0,L|336:44,1,135,6|0,0:0|0:0,0:0:0:0:
256,32,51895,2,0,L|152:44,1,90,8|0,0:0|0:0,0:0:0:0:
428,132,52218,2,0,P|448:84|444:20,1,90,2|2,0:0|0:0,0:0:0:0:
312,200,52540,1,8,0:0:0:0:
492,300,52701,6,0,P|460:258|403:230,1,90,4|0,0:0|0:0,0:0:0:0:
128,256,53024,2,0,P|177:270|241:260,1,90,2|8,0:0|0:0,0:0:0:0:
444,76,53347,2,0,P|394:93|350:139,1,90,4|0,0:0|0:0,0:0:0:0:
292,384,53669,2,0,P|321:341|330:277,1,90,2|8,0:0|0:0,0:0:0:0:
232,128,53992,1,0,0:0:0:0:
232,128,54072,1,0,0:0:0:0:
232,128,54153,6,0,P|138:140|44:148,1,180,4|8,0:0|0:0,0:0:0:0:
164,44,54637,1,0,0:0:0:0:
39,269,54798,2,0,P|83:261|128:256,1,90,2|2,0:0|0:0,0:0:0:0:
316,80,55121,1,8,0:0:0:0:
360,336,55282,6,0,P|270:345|182:361,1,180,4|2,0:0|0:0,0:0:0:0:
312,180,55766,1,8,0:0:0:0:
260,316,55927,1,0,0:0:0:0:
160,200,56089,2,0,P|164:144|184:92,1,90,2|2,0:0|0:0,0:0:0:0:
384,292,56411,2,0,P|380:348|360:400,1,90,8|0,0:0|0:0,0:0:0:0:
128,296,56734,5,12,0:0:0:0:
312,180,56895,1,0,0:0:0:0:
196,80,57056,1,8,0:0:0:0:
160,200,57218,1,0,0:0:0:0:
388,260,57379,5,8,0:0:0:0:
152,156,57540,1,8,0:0:0:0:
300,24,57701,1,8,0:0:0:0:
426,283,57863,6,0,P|486:221|472:136,1,180,4|8,0:0|0:0,0:0:0:0:
471,135,58266,1,0,0:0:0:0:
471,135,58347,1,0,0:0:0:0:
392,16,58508,5,0,0:0:0:0:
392,16,58589,1,0,0:0:0:0:
392,16,58669,2,0,L|380:120,1,90,12|0,0:0|0:0,0:0:0:0:
168,376,58992,2,0,L|157:286,1,90,12|0,0:0|0:0,0:0:0:0:
300,40,59314,5,0,0:0:0:0:
296,76,59395,1,0,0:0:0:0:
292,112,59476,1,0,0:0:0:0:
288,148,59556,1,0,0:0:0:0:
284,184,59637,6,0,P|236:212|148:120,1,180,4|2,0:0|0:0,0:0:0:0:
304,8,60121,1,2,0:0:0:0:
224,132,60282,1,10,0:0:0:0:
440,56,60443,6,0,P|452:108|452:244,1,180,4|2,0:0|0:0,0:0:0:0:
260,336,60927,1,8,0:0:0:0:
248,212,61089,2,0,P|288:216|348:244,1,90,0|2,0:0|0:0,0:0:0:0:
140,348,61411,2,0,P|100:344|40:316,1,90,2|8,0:0|0:0,0:0:0:0:
96,96,61734,1,0,0:0:0:0:
248,212,61895,6,0,P|206:229|162:234,1,90,6|0,0:0|0:0,0:0:0:0:
40,168,62218,1,8,0:0:0:0:
140,348,62379,1,0,0:0:0:0:
176,116,62540,1,2,0:0:0:0:
80,280,62701,1,8,0:0:0:0:
368,328,62863,1,8,0:0:0:0:
248,212,63024,6,0,L|52:240,1,180,4|2,0:0|0:0,0:0:0:0:
244,344,63508,1,8,0:0:0:0:
344,188,63669,2,0,P|316:140|180:136,1,180,4|2,0:0|0:0,0:0:0:0:
448,216,64153,2,0,P|448:171|411:114,1,90,8|0,0:0|0:0,0:0:0:0:
304,312,64476,6,0,P|364:316|484:348,1,180,4|8,0:0|0:0,0:0:0:0:
192,340,64959,1,0,0:0:0:0:
344,188,65121,2,0,P|300:200|256:205,1,90,2|2,0:0|0:0,0:0:0:0:
400,332,65443,1,8,0:0:0:0:
152,160,65605,6,0,P|180:124|316:116,1,180,4|2,0:0|0:0,0:0:0:0:
64,232,66089,2,0,L|52:140,1,90,8|0,0:0|0:0,0:0:0:0:
248,188,66411,1,2,0:0:0:0:
228,312,66572,1,2,0:0:0:0:
428,212,66734,2,0,L|416:120,1,90,8|0,0:0|0:0,0:0:0:0:
140,70,67056,6,0,L|152:160,1,90,12|0,0:0|0:0,0:0:0:0:
344,272,67379,1,8,0:0:0:0:
151,159,67540,1,0,0:0:0:0:
360,124,67701,6,8,L|348:167,1,45,8|0,0:0|0:0,0:0:0:0:
212,304,67863,2,0,L|255:293,1,45
440,244,68024,1,8,0:0:0:0:
184,184,68185,6,0,P|172:124|272:44,1,180,4|8,0:0|0:0,0:0:0:0:
468,52,68669,1,8,0:0:0:0:
408,356,68830,1,4,0:0:0:0:
184,184,68992,5,8,0:0:0:0:
220,156,69072,1,0,0:0:0:0:
264,152,69153,1,0,0:0:0:0:
304,172,69234,1,0,0:0:0:0:
340,200,69314,1,8,0:0:0:0:
384,208,69395,1,0,0:0:0:0:
428,204,69476,1,0,0:0:0:0:
464,180,69556,1,0,0:0:0:0:
484,140,69637,6,0,P|480:84|464:44,1,90,4|0,0:0|0:0,0:0:0:0:
248,248,69959,1,8,0:0:0:0:
384,116,70121,1,2,0:0:0:0:
152,80,70282,1,8,0:0:0:0:
352,224,70443,1,2,0:0:0:0:
104,296,70605,1,8,0:0:0:0:
276,140,70766,5,2,0:0:0:0:
276,140,70847,1,0,0:0:0:0:
276,140,70927,1,8,0:0:0:0:
204,360,71089,1,2,0:0:0:0:
204,360,71170,1,0,0:0:0:0:
204,360,71250,1,8,0:0:0:0:
24,216,71411,1,2,0:0:0:0:
352,224,71572,5,8,0:0:0:0:
104,296,71734,1,2,0:0:0:0:
180,128,71895,1,8,0:0:0:0:
360,324,72056,1,2,0:0:0:0:
388,76,72218,6,0,L|480:92,1,90,8|2,0:0|0:0,0:0:0:0:
180,128,72540,1,8,0:0:0:0:
216,280,72701,1,2,0:0:0:0:
352,224,72863,5,8,0:0:0:0:
64,152,73024,1,8,0:0:0:0:
248,16,73185,1,8,0:0:0:0:
440,192,73347,6,0,P|452:240|460:300,1,90,4|0,0:0|0:0,0:0:0:0:
148,224,73669,2,0,P|184:196|244:200,1,90,4|0,0:0|0:0,0:0:0:0:
68,336,73992,2,0,P|28:288|48:152,1,180,4|8,0:0|0:0,0:0:0:0:
64,152,74395,1,8,0:0:0:0:
64,152,74476,1,8,0:0:0:0:
344,36,74637,1,8,0:0:0:0:
300,344,74798,6,0,P|288:304|276:200,1,135.000005149842,4|0,0:0|0:0,0:0:0:0:
424,128,75282,2,0,P|417:195|400:260,1,135.000005149842,8|2,0:0|0:0,0:0:0:0:
240,288,75766,2,0,P|206:284|172:283,1,67.5000025749208,2|0,0:0|0:0,0:0:0:0:
16,204,76089,6,0,P|40:160|176:172,1,202.500007724762,4|0,0:0|0:0,0:0:0:0:
173,168,76653,1,0,0:0:0:0:
173,168,76734,1,4,0:3:0:0:
240,288,77056,1,0,0:0:0:0:
364,236,77379,5,4,0:0:0:0:
364,236,77701,1,8,0:0:0:0:
328,356,77863,1,8,0:0:0:0:
240,288,78024,5,8,0:0:0:0:
392,80,78185,1,8,0:0:0:0:
173,168,78347,1,8,0:0:0:0:
392,228,78508,1,8,0:0:0:0:
232,76,78669,6,0,L|152:92,1,45,8|8,0:0|0:0,0:0:0:0:
40,192,78830,2,0,L|120:208,1,45,8|8,0:0|0:0,0:0:0:0:
168,312,78992,2,0,L|235:266,1,45,8|8,0:0|0:0,0:0:0:0:
348,316,79153,2,0,L|364:236,1,45,8|8,0:0|0:0,0:0:0:0:
404,76,79314,5,8,0:0:0:0:
368,48,79395,1,8,0:0:0:0:
324,40,79476,1,8,0:0:0:0:
280,48,79556,1,8,0:0:0:0:
244,72,79637,1,8,0:0:0:0:
212,104,79718,1,8,0:0:0:0:
172,124,79798,1,8,0:0:0:0:
128,128,79879,1,8,0:0:0:0:
84,112,79959,6,0,P|88:172|104:296,1,180,0|12,0:0|0:0,0:0:0:0:
320,132,80443,1,0,0:0:0:0:
220,224,80605,2,0,P|164:220|108:208,1,90,2|2,0:0|0:0,0:0:0:0:
320,132,80927,1,8,0:0:0:0:
56,268,81089,1,0,0:0:0:0:
56,268,81169,1,0,0:0:0:0:
56,268,81250,6,0,P|40:220|116:124,1,180,2|8,0:0|0:0,0:0:0:0:
320,280,81734,2,0,P|316:336|308:392,1,90,0|2,0:0|0:0,0:0:0:0:
130,213,82056,1,2,0:0:0:0:
320,132,82218,1,8,0:0:0:0:
224,328,82379,2,0,P|168:324|112:316,1,90,0|2,0:0|0:0,0:0:0:0:
376,204,82701,5,0,0:0:0:0:
188,68,82863,2,0,P|192:124|200:180,1,90,8|0,0:0|0:0,0:0:0:0:
432,92,83185,5,2,0:0:0:0:
388,324,83347,1,8,0:0:0:0:
320,132,83508,1,8,0:0:0:0:
56,268,83669,6,0,P|60:320|72:360,1,90,4|0,0:0|0:0,0:0:0:0:
305,220,83992,2,0,P|316:176|319:131,1,90,0|8,0:0|0:0,0:0:0:0:
88,64,84314,2,0,P|108:128|232:152,1,180,4|0,0:0|0:0,0:0:0:0:
432,92,84798,1,8,0:0:0:0:
331,42,84959,1,0,0:0:0:0:
331,42,85040,1,0,0:0:0:0:
331,41,85121,6,0,L|325:86|319:131,1,90,4|0,0:0|0:0,0:0:0:0:
220,251,85443,2,0,P|213:206|207:161,1,90,8|0,0:0|0:0,0:0:0:0:
420,144,85766,1,2,0:0:0:0:
224,64,85927,1,2,0:0:0:0:
316,264,86089,1,8,0:0:0:0:
104,172,86250,6,0,P|192:164|292:156,1,180,4|8,0:0|0:0,0:0:0:0:
420,272,86734,1,8,0:0:0:0:
420,272,86895,1,8,0:0:0:0:
201,362,87056,1,8,0:0:0:0:
206,318,87136,1,8,0:0:0:0:
231,281,87217,1,8,0:0:0:0:
271,261,87297,1,8,0:0:0:0:
315,263,87378,1,8,0:0:0:0:
496,336,87540,6,0,B|424:312|356:352|356:352|368:300|424:312,1,225,4|0,0:0|0:0,0:0:0:0:
