osu file format v12

[General]
AudioFilename: op.mp3
AudioLeadIn: 0
PreviewTime: 68073
Countdown: 0
SampleSet: Soft
StackLeniency: 0.7
Mode: 0
LetterboxInBreaks: 0
WidescreenStoryboard: 0

[Editor]
DistanceSpacing: 1
BeatDivisor: 4
GridSize: 4

[Metadata]
Title:Kokoroe (TV Size)
TitleUnicode:心絵 (TV Size)
Artist:TRIPLANE
ArtistUnicode:TRIPLANE
Creator:kajiyatta
Version:Insane
Source:MAJOR
Tags:opening baseball
BeatmapID:229629
BeatmapSetID:83097

[Difficulty]
HPDrainRate:7
CircleSize:4
OverallDifficulty:7
ApproachRate:8
SliderMultiplier:1.9
SliderTickRate:1

[Events]
//Background and Video events
Video,0,"video.avi"
0,0,"a.jpg",0,0
//Break Periods
//Storyboard Layer 0 (Background)
//Storyboard Layer 1 (Fail)
//Storyboard Layer 2 (Pass)
//Storyboard Layer 3 (Foreground)
//Storyboard Sound Samples
//Background Colour Transformations
3,100,163,162,255

[TimingPoints]
2740,333.333333333333,4,2,1,50,1,0
3406,-200,4,2,1,50,0,0
24073,-100,4,2,1,40,0,0
24239,-100,4,2,1,60,0,0
24906,-100,4,2,1,40,0,0
25073,-100,4,2,1,60,0,0
25406,-100,4,2,1,50,0,0
25573,-100,4,2,1,80,0,0
35573,-100,4,2,1,50,0,0
36239,-100,4,2,1,80,0,0
45406,-100,4,2,1,70,0,0
46739,-133.333333333333,4,2,1,50,0,0
47073,-133.333333333333,4,2,1,60,0,0
57406,-133.333333333333,4,2,1,50,0,0
57739,-133.333333333333,4,2,1,60,0,0
62739,-133.333333333333,4,2,1,50,0,0
62906,-133.333333333333,4,2,1,60,0,0
66739,-100,4,2,1,80,0,0
68074,-100,4,2,1,60,0,1
68239,-100,4,2,1,90,0,1
73406,-100,4,2,1,60,0,1
73573,-100,4,2,1,90,0,1
77239,-100,4,2,1,60,0,1
77406,-100,4,2,1,90,0,1
78406,-100,4,2,1,70,0,1
78739,-100,4,2,1,60,0,1
78906,-100,4,2,1,90,0,1
84073,-100,4,2,1,60,0,1
84239,-100,4,2,1,90,0,1
89406,-100,4,2,1,60,0,1
89739,-100,4,2,1,90,0,1
91906,-100,4,2,1,60,0,1
92239,-100,4,2,1,90,0,1
93239,-100,4,2,1,60,0,1
93573,-100,4,2,1,90,0,1
94573,-100,4,2,1,60,0,1
94739,-100,4,2,1,90,0,1
95906,-100,4,2,1,60,0,1
96239,-100,4,2,1,90,0,1
97239,-100,4,2,1,70,0,0
98073,-100,4,2,1,60,0,0
98406,-100,4,2,1,50,0,0
98739,-100,4,2,1,40,0,0
99073,-100,4,2,1,30,0,0
99406,-100,4,2,1,20,0,0
99739,-100,4,2,1,10,0,0
100073,-100,4,2,1,5,0,0

[Colours]
Combo1 : 102,102,255
Combo2 : 20,131,20
Combo3 : 255,255,255
Combo4 : 255,129,68

[HitObjects]
132,96,3406,1,0,0:0:0:0:
60,160,3739,1,0,0:0:0:0:
84,252,4073,2,0,B|60:296|84:344,1,95,2|0,0:0|0:0,0:0:0:0:
180,344,4739,2,0,B|203:296|180:252,1,95
208,160,5406,2,0,B|255:136|299:160,1,95,2|0,0:0|0:0,0:0:0:0:
476,228,6073,2,0,B|428:251|384:227,1,95,2|0,0:0|0:0,0:0:0:0:
208,160,6739,6,0,L|136:92,2,95,2|0|0,0:0|0:0|0:0,0:0:0:0:
256,344,7739,1,0,0:0:0:0:
304,160,8073,2,0,L|376:92,2,95,2|0|2,0:0|0:0|0:0,0:0:0:0:
256,344,9073,1,0,0:0:0:0:
256,344,9406,6,0,B|160:344|160:344|80:292,1,190,2|0,0:0|0:0,0:0:0:0:
256,40,10406,1,0,0:0:0:0:
256,40,10739,2,0,B|352:40|352:40|432:92,1,190,2|0,0:0|0:0,0:0:0:0:
256,344,11740,1,0,0:0:0:0:
184,284,12073,6,0,B|160:236|184:192,1,95,2|0,0:0|0:0,0:0:0:0:
327,192,12740,2,0,B|351:236|328:284,1,95
256,108,13406,1,2,0:0:0:0:
74,59,13740,1,2,0:0:0:0:
191,206,14073,1,2,0:0:0:0:
180,17,14406,1,2,0:0:0:0:
80,175,14740,6,0,B|36:208|36:256,1,95,2|0,0:0|0:0,0:0:0:0:
188,372,15406,2,0,B|232:339|232:291,1,95
192,206,16073,1,2,0:0:0:0:
192,206,16740,1,0,0:0:0:0:
344,320,17073,1,0,0:0:0:0:
348,132,17406,6,0,B|348:84|392:48,1,95,2|0,0:0|0:0,0:0:0:0:
480,220,18073,2,0,B|480:268|436:304,1,95,0|0,0:0|0:0,0:0:0:0:
344,320,18740,1,2,0:0:0:0:
344,320,19406,1,2,0:0:0:0:
192,206,19739,1,0,0:0:0:0:
272,148,20073,6,0,B|260:116|196:68|128:116|116:148,2,190,2|0|2,0:0|0:0|0:0,0:0:0:0:
336,328,21739,1,0,0:0:0:0:
180,220,22073,1,0,0:0:0:0:
368,220,22406,1,0,0:0:0:0:
212,328,22739,2,0,B|200:360|136:408|68:360|56:328,1,190,2|0,0:0|0:0,0:0:0:0:
348,88,24073,6,0,B|392:64|440:88,1,95,4|2,0:0|0:0,0:0:0:0:
440,184,24406,2,0,B|396:208|348:184,1,95,2|2,0:0|0:0,0:0:0:0:
268,136,24739,1,2,0:0:0:0:
188,80,24906,1,4,0:0:0:0:
96,104,25073,1,8,0:0:0:0:
60,192,25239,1,0,0:0:0:0:
56,348,25406,6,0,B|104:332|120:284,1,95,4|0,0:0|0:0,0:0:0:0:
272,348,25739,2,0,B|224:332|208:284,1,95,8|0,0:0|0:0,0:0:0:0:
236,192,26073,2,0,B|328:136|416:192,1,190,0|8,0:0|0:0,0:0:0:0:
416,52,26573,1,0,0:0:0:0:
416,52,26739,2,0,B|324:108|236:52,1,190,0|8,0:0|0:0,0:0:0:0:
176,124,27239,1,0,0:0:0:0:
108,192,27406,2,0,B|68:160|72:108,1,95,0|0,0:0|0:0,0:0:0:0:
236,192,27739,2,0,B|276:224|272:276,1,95,8|0,0:0|0:0,0:0:0:0:
192,328,28073,6,0,B|204:360|272:408|336:360|348:328,1,190,0|8,0:0|0:0,0:0:0:0:
480,192,28573,1,0,0:0:0:0:
480,192,28739,2,0,B|468:160|400:112|336:160|324:192,1,190,0|8,0:0|0:0,0:0:0:0:
256,260,29239,1,0,0:0:0:0:
32,192,29406,2,0,B|44:160|112:112|176:160|188:192,1,190,0|8,0:0|0:0,0:0:0:0:
256,260,29906,1,0,0:0:0:0:
156,364,30073,2,0,B|128:320|156:272,1,95,0|0,0:0|0:0,0:0:0:0:
356,272,30406,2,0,B|383:318|355:362,1,95,8|0,0:0|0:0,0:0:0:0:
256,132,30739,6,0,B|310:40|419:55,1,190,0|8,0:0|0:0,0:0:0:0:
376,181,31239,1,0,0:0:0:0:
501,228,31406,2,0,B|442:321|340:304,1,190,0|8,0:0|0:0,0:0:0:0:
376,180,31906,1,0,0:0:0:0:
108,260,32073,2,0,B|140:220|190:220,1,95,0|0,0:0|0:0,0:0:0:0:
376,181,32406,2,0,B|344:220|292:220,1,95,8|0,0:0|0:0,0:0:0:0:
112,352,32739,2,0,B|78:360|2:335|3:252|22:224,1,190,0|8,0:0|0:0,0:0:0:0:
92,160,33239,1,0,0:0:0:0:
121,76,33406,6,0,B|172:88|184:140,1,95,0|0,0:0|0:0,0:0:0:0:
390,76,33739,2,0,B|340:88|328:140,1,95,8|0,0:0|0:0,0:0:0:0:
256,324,34073,2,0,B|276:276|256:232,2,95,0|0|8,0:0|0:0|0:0,0:0:0:0:
172,276,34573,1,0,0:0:0:0:
356,276,34739,2,0,L|452:276,1,95
480,100,35073,2,0,B|504:144|480:192,1,95,8|0,0:0|0:0,0:0:0:0:
396,144,35406,1,0,0:0:0:0:
232,76,35573,1,10,0:0:0:0:
328,76,35739,1,10,0:0:0:0:
168,144,35906,1,2,0:0:0:0:
232,216,36073,6,0,B|256:264|232:308,1,95,4|0,0:0|0:0,0:0:0:0:
104,308,36406,2,0,B|80:260|104:216,1,95,8|0,0:0|0:0,0:0:0:0:
308,168,36739,2,0,B|368:256|312:348,1,190,0|8,0:0|0:0,0:0:0:0:
456,348,37239,1,0,0:0:0:0:
456,348,37406,2,0,B|400:256|460:168,1,190,0|8,0:0|0:0,0:0:0:0:
384,108,37906,1,0,0:0:0:0:
384,108,38073,2,0,B|348:68|300:68,1,95,0|0,0:0|0:0,0:0:0:0:
128,108,38406,2,0,B|164:68|212:68,1,95,8|0,0:0|0:0,0:0:0:0:
200,164,38739,6,0,B|100:208|100:312,1,190,0|8,0:0|0:0,0:0:0:0:
256,276,39239,1,0,0:0:0:0:
312,164,39406,2,0,B|412:208|412:312,1,190,0|8,0:0|0:0,0:0:0:0:
256,276,39906,1,0,0:0:0:0:
200,164,40073,1,0,0:0:0:0:
200,164,40406,2,0,B|152:136|152:88,1,95,8|0,0:0|0:0,0:0:0:0:
228,32,40740,1,0,0:0:0:0:
324,32,40906,1,0,0:0:0:0:
400,88,41073,2,0,B|400:136|352:164,1,95,8|0,0:0|0:0,0:0:0:0:
176,240,41406,6,0,B|68:240|32:344,1,190,0|8,0:0|0:0,0:0:0:0:
220,316,41906,1,0,0:0:0:0:
220,316,42073,2,0,B|252:304|300:240|252:172|220:160,1,190,0|8,0:0|0:0,0:0:0:0:
176,240,42573,1,0,0:0:0:0:
336,292,42740,2,0,B|380:316|428:292,1,95,0|0,0:0|0:0,0:0:0:0:
504,148,43073,2,0,B|460:124|412:148,1,95,8|0,0:0|0:0,0:0:0:0:
284,208,43406,2,0,L|212:144,1,95,0|0,0:0|0:0,0:0:0:0:
336,292,43739,2,0,L|408:356,1,95,8|0,0:0|0:0,0:0:0:0:
224,292,44073,6,0,B|132:348|44:292,1,190,0|8,0:0|0:0,0:0:0:0:
44,120,44573,1,0,0:0:0:0:
44,120,44740,2,0,B|136:64|224:120,1,190,0|8,0:0|0:0,0:0:0:0:
284,208,45240,1,0,0:0:0:0:
368,252,45406,2,0,B|392:208|368:160,2,95,2|2|8,0:0|0:0|0:0,0:0:0:0:
412,68,45906,2,0,B|456:88|464:144,2,95,2|2|8,0:0|0:0|0:0,0:0:0:0:
412,332,46406,2,0,B|456:312|463:257,1,95,8|0,0:0|0:0,0:0:0:0:
320,332,46740,6,0,B|248:364|180:332,1,142.500005435944,4|8,0:0|0:0,0:0:0:0:
108,276,47240,1,0,0:0:0:0:
36,336,47406,2,0,B|12:324|-16:276|12:228|36:216,1,142.500005435944,0|8,0:0|0:0,0:0:0:0:
176,76,47906,2,0,B|200:88|228:136|200:184|176:196,1,142.500005435944,0|0,0:0|0:0,0:0:0:0:
32,136,48406,2,0,L|104:136,1,71.2500027179719,8|0,0:0|0:0,0:0:0:0:
244,276,48740,2,0,B|276:288|316:276,1,71.2500027179719
404,164,49073,2,0,B|372:152|332:164,1,71.2500027179719,8|0,0:0|0:0,0:0:0:0:
464,224,49406,6,0,B|488:212|516:164|488:116|464:104,1,142.500005435944,0|8,0:0|0:0,0:0:0:0:
280,104,49906,2,0,B|256:116|228:164|256:212|280:224,1,142.500005435944,0|0,0:0|0:0,0:0:0:0:
368,332,50406,2,0,L|368:260,1,71.2500027179719,8|0,0:0|0:0,0:0:0:0:
276,348,50740,2,0,B|204:388|140:348,1,142.500005435944,0|8,0:0|0:0,0:0:0:0:
80,280,51240,1,4,0:3:0:0:
120,196,51406,2,0,B|156:208|168:248,1,71.2500027179719
32,164,51740,2,0,B|43:126|79:114,1,71.2500027179719,8|0,0:0|0:0,0:0:0:0:
212,48,52073,6,0,B|280:12|348:48,1,142.500005435944,0|8,0:0|0:0,0:0:0:0:
424,108,52573,2,0,L|496:108,2,71.2500027179719
396,196,53073,1,8,0:0:0:0:
304,200,53240,2,0,B|295:225|309:279|363:293|388:284,1,142.500005435944,0|0,0:0|0:0,0:0:0:0:
272,108,53740,2,0,L|204:128,1,71.2500027179719,8|4,0:0|0:3,0:0:0:0:
20,108,54073,2,0,L|88:128,1,71.2500027179719
272,280,54406,2,0,L|204:260,1,71.2500027179719,8|0,0:0|0:0,0:0:0:0:
148,184,54740,6,0,B|92:236|128:316,1,142.500005435944,0|8,0:0|0:0,0:0:0:0:
328,356,55240,2,0,B|384:304|348:224,1,142.500005435944,0|0,0:0|0:0,0:0:0:0:
432,188,55740,2,0,B|421:150|385:138,1,71.2500027179719,8|0,0:0|0:0,0:0:0:0:
248,104,56073,2,0,B|259:142|295:154,1,71.2500027179719
308,48,56406,2,0,B|296:24|248:-4|200:24|188:48,1,142.500005435944,8|0,0:0|0:0,0:0:0:0:
140,128,56906,1,0,0:0:0:0:
28,20,57073,2,0,B|64:20|92:48,1,71.2500027179719,8|0,0:0|0:0,0:0:0:0:
140,128,57406,6,0,B|96:192|140:264,1,142.500005435944,4|8,0:0|0:0,0:0:0:0:
200,332,57906,2,0,B|188:356|140:384|92:356|80:332,1,142.500005435944,0|0,0:0|0:0,0:0:0:0:
264,264,58406,2,0,B|300:264|328:292,1,71.2500027179719,8|0,0:0|0:0,0:0:0:0:
484,264,58740,2,0,B|448:264|420:292,1,71.2500027179719
484,360,59073,1,8,0:0:0:0:
488,176,59240,2,0,B|412:168|360:224,1,142.500005435944,4|0,0:3|0:0,0:0:0:0:
280,104,59740,2,0,L|280:176,1,71.2500027179719,8|0,0:0|0:0,0:0:0:0:
200,48,60073,6,0,B|132:88|64:48,1,142.500005435944,0|8,0:0|0:0,0:0:0:0:
64,48,60573,1,0,0:0:0:0:
64,184,60740,2,0,B|132:148|200:184,1,142.500005435944,0|8,0:0|0:0,0:0:0:0:
200,184,61240,1,0,0:0:0:0:
164,268,61406,2,0,B|148:300|164:336,1,71.2500027179719
348,336,61740,2,0,B|364:304|348:268,1,71.2500027179719,8|4,0:0|0:3,0:0:0:0:
448,184,62073,2,0,B|380:148|312:184,1,142.500005435944,0|8,0:0|0:0,0:0:0:0:
311,184,62573,1,0,0:0:0:0:
228,44,62740,6,0,B|256:72|256:108,1,71.2500027179719,4|0,0:0|0:0,0:0:0:0:
104,136,63073,2,0,B|128:108|168:104,1,71.2500027179719,8|0,0:0|0:0,0:0:0:0:
40,196,63406,2,0,B|16:184|-12:136|16:88|40:76,1,142.500005435944,0|8,0:0|0:0,0:0:0:0:
208,196,63906,1,0,0:0:0:0:
208,196,64073,2,0,B|232:208|260:256|232:304|208:316,1,142.500005435944,0|8,0:0|0:0,0:0:0:0:
136,256,64573,1,0,0:0:0:0:
340,196,64740,2,0,B|316:208|288:256|316:304|340:316,1,142.500005435944,0|8,0:0|0:0,0:0:0:0:
412,256,65240,1,0,0:0:0:0:
512,136,65406,6,0,B|504:172|476:196,1,71.2500027179719,0|0,0:0|0:0,0:0:0:0:
412,128,65740,2,0,B|352:72|284:72,1,142.500005435944,8|0,0:0|0:0,0:0:0:0:
192,88,66240,2,0,B|188:48|216:20,2,71.2500027179719,8|8|0,0:0|0:0|0:0,0:0:0:0:
264,212,66740,6,0,B|290:257|262:301,1,95,2|2,0:0|0:0,0:0:0:0:
118,301,67073,2,0,B|92:260|120:212,1,95,0|2,0:0|0:0,0:0:0:0:
192,88,67406,2,0,B|224:52|276:44,1,95,0|2,0:0|0:0,0:0:0:0:
304,36,67656,1,8,0:0:0:0:
332,32,67740,1,8,0:0:0:0:
360,36,67823,1,8,0:0:0:0:
388,44,67906,1,8,0:0:0:0:
412,60,67990,1,8,0:0:0:0:
436,76,68073,6,0,B|480:104|472:160,1,95,4|0,0:0|0:0,0:0:0:0:
368,316,68406,2,0,B|324:288|332:232,1,95,8|0,0:0|0:0,0:0:0:0:
134,262,68740,2,0,B|178:290|224:264,1,95,0|0,0:0|0:0,0:0:0:0:
376,148,69073,2,0,B|332:120|286:146,1,95,8|0,0:0|0:0,0:0:0:0:
84,184,69406,2,0,B|52:196|4:264|52:328|84:340,1,190,0|8,0:0|0:0,0:0:0:0:
188,184,69906,2,0,B|220:172|268:104|220:40|188:28,1,190
40,103,70406,2,0,B|84:80|132:104,1,95,8|0,0:0|0:0,0:0:0:0:
280,184,70740,6,0,B|236:207|188:183,1,95,0|0,0:0|0:0,0:0:0:0:
344,104,71073,2,0,B|387:80|435:104,1,95,8|0,0:0|0:0,0:0:0:0:
508,268,71406,2,0,B|508:220|468:184,1,95
240,100,71739,2,0,B|240:148|280:184,1,95,8|0,0:0|0:0,0:0:0:0:
412,256,72073,2,0,B|356:344|252:344,1,190,0|8,0:0|0:0,0:0:0:0:
176,288,72573,1,0,0:0:0:0:
128,204,72740,2,0,B|84:228|80:280,1,95,0|0,0:0|0:0,0:0:0:0:
220,204,73073,1,8,0:0:0:0:
220,204,73156,1,8,0:0:0:0:
220,204,73240,1,0,0:0:0:0:
176,120,73406,6,0,L|112:48,2,95,4|0|8,0:0|0:0|0:0,0:0:0:0:
272,120,73906,1,0,0:0:0:0:
412,204,74073,2,0,B|364:224|320:204,1,95
272,120,74406,2,0,B|316:100|364:120,1,95,8|0,0:0|0:0,0:0:0:0:
272,288,74739,1,0,0:0:0:0:
272,288,74906,2,0,B|264:340|216:360,1,95,0|8,0:0|0:0,0:0:0:0:
44,312,75240,2,0,B|52:260|100:240,1,95,0|0,0:0|0:0,0:0:0:0:
44,72,75573,2,0,B|52:124|100:144,1,95,0|8,0:0|0:0,0:0:0:0:
180,192,75906,1,0,0:0:0:0:
264,144,76073,6,0,B|292:192|264:236,1,95,0|0,0:0|0:0,0:0:0:0:
180,284,76406,1,8,0:0:0:0:
180,284,76573,2,0,B|153:234|180:192,1,95,8|0,0:0|0:0,0:0:0:0:
352,340,76906,1,0,0:0:0:0:
256,340,77073,1,8,0:0:0:0:
428,284,77240,2,0,B|464:252|464:196,1,95,4|0,0:0|0:0,0:0:0:0:
404,124,77573,1,0,0:0:0:0:
404,124,77740,2,0,B|384:76|336:60,1,95,8|0,0:0|0:0,0:0:0:0:
108,124,78073,2,0,B|128:76|176:60,1,95,8|0,0:0|0:0,0:0:0:0:
256,108,78406,1,8,0:0:0:0:
256,124,78490,1,8,0:0:0:0:
256,140,78573,1,8,0:0:0:0:
256,156,78656,1,8,0:0:0:0:
256,172,78739,6,0,B|284:216|256:264,1,95,4|0,0:0|0:0,0:0:0:0:
92,356,79073,2,0,B|64:312|92:264,1,95,8|0,0:0|0:0,0:0:0:0:
16,208,79406,2,0,B|28:176|92:124|160:176|172:208,1,190,0|8,0:0|0:0,0:0:0:0:
257,262,79906,1,0,0:0:0:0:
496,316,80073,2,0,B|484:348|420:400|352:348|340:316,1,190,0|8,0:0|0:0,0:0:0:0:
368,228,80573,2,0,B|412:200|457:226,2,95
296,164,81073,2,0,B|320:116|296:72,1,95,8|0,0:0|0:0,0:0:0:0:
212,32,81406,6,0,B|140:120|212:204,1,190,0|8,0:0|0:0,0:0:0:0:
212,204,81906,1,0,0:0:0:0:
60,32,82073,2,0,B|132:120|60:204,1,190,0|8,0:0|0:0,0:0:0:0:
60,203,82573,1,0,0:0:0:0:
84,336,82739,2,0,B|92:288|136:260,1,95
180,332,83073,2,0,B|268:404|352:332,1,190,8|0,0:0|0:0,0:0:0:0:
396,260,83573,2,0,B|440:288|448:336,2,95,0|8|0,0:0|0:0|0:0,0:0:0:0:
396,124,84073,6,0,B|440:96|448:48,1,95,4|0,0:0|0:0,0:0:0:0:
272,124,84406,2,0,B|228:152|220:200,1,95,8|0,0:0|0:0,0:0:0:0:
296,260,84739,1,0,0:0:0:0:
172,352,84906,1,0,0:0:0:0:
268,352,85073,1,8,0:0:0:0:
144,260,85239,1,0,0:0:0:0:
168,124,85406,2,0,B|212:152|220:200,1,95,0|0,0:0|0:0,0:0:0:0:
68,124,85739,2,0,B|68:76|112:44,1,95,8|0,0:0|0:0,0:0:0:0:
168,124,86073,1,0,0:0:0:0:
316,44,86239,1,0,0:0:0:0:
220,44,86406,1,8,0:0:0:0:
364,124,86573,1,0,0:0:0:0:
456,144,86739,6,0,B|448:192|396:212,1,95,0|0,0:0|0:0,0:0:0:0:
216,280,87073,2,0,B|224:232|276:212,1,95,8|0,0:0|0:0,0:0:0:0:
212,372,87406,2,0,B|178:377|101:348|112:263|134:236,1,190,0|8,0:0|0:0,0:0:0:0:
48,192,87906,1,0,0:0:0:0:
132,56,88073,2,0,B|165:50|242:79|231:164|210:191,1,190,0|8,0:0|0:0,0:0:0:0:
256,272,88573,1,0,0:0:0:0:
320,340,88739,2,0,B|364:368|412:340,1,95,0|0,0:0|0:0,0:0:0:0:
508,192,89073,2,0,B|464:164|416:192,1,95,8|0,0:0|0:0,0:0:0:0:
256,272,89406,6,0,B|168:308|168:308|80:272,1,190,4|8,0:0|0:0,0:0:0:0:
168,172,89906,1,0,0:0:0:0:
80,72,90073,2,0,B|168:36|168:36|256:72,1,190,0|8,0:0|0:0,0:0:0:0:
344,172,90573,1,0,0:0:0:0:
404,256,90739,2,0,B|432:300|404:348,1,95,0|0,0:0|0:0,0:0:0:0:
344,172,91073,2,0,B|316:128|344:80,1,95,8|0,0:0|0:0,0:0:0:0:
468,80,91406,2,0,B|494:125|466:169,1,95,0|0,0:0|0:0,0:0:0:0:
404,256,91739,1,8,0:0:0:0:
196,256,91906,6,0,B|144:348|40:348,1,190,4|0,0:0|0:0,0:0:0:0:
40,36,92406,2,0,B|144:36|196:128,1,190,8|0,0:0|0:0,0:0:0:0:
268,192,92906,1,0,0:0:0:0:
268,192,93073,1,8,0:0:0:0:
492,348,93239,2,0,B|388:348|336:256,1,190,4|0,0:0|0:0,0:0:0:0:
492,36,93739,2,0,B|388:36|336:128,1,190,8|0,0:0|0:0,0:0:0:0:
268,192,94239,1,0,0:0:0:0:
268,192,94406,1,8,0:0:0:0:
80,192,94573,6,0,B|128:172|172:192,1,95,4|0,0:0|0:0,0:0:0:0:
220,320,94906,1,0,0:0:0:0:
220,320,95073,2,0,B|264:340|312:320,1,95,8|0,0:0|0:0,0:0:0:0:
456,192,95406,2,0,B|412:172|364:192,1,95,0|0,0:0|0:0,0:0:0:0:
412,276,95739,1,8,0:0:0:0:
504,108,95906,2,0,B|412:52|324:108,1,190,4|0,0:0|0:0,0:0:0:0:
156,192,96406,2,0,B|200:212|248:192,1,95,8|0,0:0|0:0,0:0:0:0:
72,116,96739,2,0,B|42:126|-8:192|42:258|74:270,1,190,0|8,0:0|0:0,0:0:0:0:
156,192,97239,1,4,0:0:0:0:
256,192,97323,12,0,100073,0:0:0:0:
