osu file format v5

[General]
AudioFilename: (Wangan Midnight Opening) Lights and.mp3
AudioLeadIn: 0
PreviewTime: -1
Countdown: 1
SampleSet: Normal
StackLeniency: 0.7
Mode: 1
LetterboxInBreaks: 1
EditorBookmarks: 22086,41278,42380
EditorDistanceSpacing: 0.800000011920929

[Metadata]
Title:Lights and Anymore
Artist:TRF
Creator:derfington
Version:Normal
Source:Wangan Midnight OST
Tags:wangan midnight

[Difficulty]
HPDrainRate:5
CircleSize:5
OverallDifficulty:5
SliderMultiplier:1.4
SliderTickRate:1

[Events]
//Background and Video events
//Break Periods
//Storyboard Layer 0 (Background)
//Storyboard Layer 1 (Failing)
//Storyboard Layer 2 (Passing)
//Storyboard Layer 3 (Foreground)
//Storyboard Sound Samples
//Background Colour Transformations
3,100,163,162,255

[TimingPoints]
7969.2251136719,441.176470588235,4,1,0,100,1,0

[HitObjects]
96,96,7969,1,0
192,96,8410,1,0
288,96,8851,1,0
320,96,9072,1,0
352,96,9292,1,0
384,128,9513,5,2
416,192,9954,1,2
416,224,10175,1,2
416,256,10395,1,2
416,288,10616,1,2
384,320,10836,1,2
352,320,11057,1,2
256,320,11498,2,0,B|32:320|32:160|64:32|288:32|416:64,1,700
416,96,15028,5,0
416,224,15469,1,0
416,320,15910,1,0
384,320,16130,1,0
352,320,16351,1,0
320,320,16572,1,2
224,320,17013,1,2
192,320,17233,1,2
160,320,17454,1,2
128,320,17675,1,2
96,320,17895,1,2
64,288,18116,1,2
128,128,22086,5,0
256,128,22528,1,0
384,128,22969,1,0
416,128,23189,1,0
416,256,23851,1,0
384,256,24292,1,0
256,256,24733,1,0
224,256,24954,1,0
192,256,25175,1,0
96,256,25616,5,0
96,160,26057,1,0
96,64,26498,1,0
128,64,26719,1,0
160,64,26939,1,0
256,64,27380,1,0
352,64,27822,1,0
416,128,28263,1,0
416,192,28704,1,0
416,288,29145,1,0
384,320,29366,1,0
352,320,29586,1,0
256,320,30028,1,0
224,320,30248,1,0
192,320,30469,1,0
128,256,30910,1,0
160,64,31572,1,0
224,32,31792,1,0
288,32,32013,1,0
352,32,32233,1,0
384,64,32454,1,0
416,128,32675,1,0
416,192,32895,1,0
416,256,33116,1,0
320,320,33557,1,4
256,320,33778,1,4
160,320,34439,1,0
96,288,34880,1,0
64,224,35322,1,0
64,192,35542,1,0
96,96,36204,1,0
160,96,36645,1,0
224,96,37086,1,2
352,96,37969,1,0
384,96,38189,1,0
416,96,38410,1,2
128,160,40395,5,0
160,160,40616,1,0
192,160,40836,1,0
224,160,41057,1,0
320,160,41278,2,0,B|416:320|192:352|64:320|96:352,1,350
128,64,42822,5,0
192,64,43263,1,0
256,64,43704,1,0
320,64,44145,1,2
96,192,45028,1,2
96,96,47454,1,2
128,96,47675,1,2
160,96,47895,1,2
192,96,48116,1,2
288,96,48557,1,0
320,96,48778,1,2
352,96,48998,1,0
384,96,49219,1,2
416,96,49439,1,0
448,96,49660,1,2
64,96,50542,1,4
96,96,50763,1,12
128,96,50983,1,0
160,96,51204,1,2
288,96,52307,1,4
320,96,52528,1,12
352,96,52748,1,0
384,96,52969,1,2
384,288,54072,1,4
352,288,54292,1,12
320,288,54513,1,0
288,288,54733,1,2
128,288,55836,1,0
96,256,56057,1,0
64,224,56278,1,0
64,160,56719,1,4
64,128,56939,1,4
160,64,57380,1,0
192,64,57601,1,0
224,64,57822,1,0
224,320,58483,1,0
