osu file format v13

[General]
AudioFilename: 74181188.mp3
AudioLeadIn: 0
PreviewTime: 30272
Countdown: 1
SampleSet: Normal
StackLeniency: 0.7
Mode: 0
LetterboxInBreaks: 1
WidescreenStoryboard: 0

[Editor]
DistanceSpacing: 1
BeatDivisor: 4
GridSize: 4
TimelineZoom: 1

[Metadata]
Title:Place to Try
TitleUnicode:Place to Try
Artist:TOTALFAT
ArtistUnicode:TOTALFAT
Creator:saisee2010
Version:Insane
Source:NARUTO SHIPPUDEN ED 19
Tags:
BeatmapID:488094
BeatmapSetID:207100

[Difficulty]
HPDrainRate:7
CircleSize:3.8
OverallDifficulty:7
ApproachRate:8.6
SliderMultiplier:1.5
SliderTickRate:1

[Events]
//Background and Video events
0,0,"cover.jpg",0,0
//Break Periods
//Storyboard Layer 0 (Background)
//Storyboard Layer 1 (Fail)
//Storyboard Layer 2 (Pass)
//Storyboard Layer 3 (Foreground)
//Storyboard Sound Samples
//Background Colour Transformations
3,100,163,162,255

[TimingPoints]
680,266.666666666667,4,1,0,100,1,0
30546,-76.9230769230769,4,1,0,100,0,1
45480,-66.6666666666667,4,1,0,100,0,0
51880,-50,4,1,0,100,0,0
54813,-100,4,1,0,100,0,0
73213,-66.6666666666667,4,1,0,100,0,1
88146,-66.6666666666667,4,1,0,100,0,0

[HitObjects]
92,96,680,6,0,P|248:72|332:108,1,225
380,112,1213,2,0,P|404:268|368:352,1,225
308,332,1746,2,0,P|232:352|160:328,2,150,0|0|0,0:0|0:0|0:0,0:0:0:0:
356,192,2546,2,0,L|464:192,2,75,0|0|0,0:0|0:0|0:0,0:0:0:0:
204,192,3080,1,0,0:0:0:0:
204,192,3346,2,0,L|104:192,4,75,0|0|0|0|0,0:0|0:0|0:0|0:0|0:0,0:0:0:0:
324,104,4146,6,0,P|380:132|416:208,1,150
268,192,4680,2,0,P|296:248|372:284,1,150
256,192,5213,2,0,L|96:192,4,150,0|0|0|0|0,0:0|0:0|0:0|0:0|0:0,0:0:0:0:
372,108,6546,5,0,0:0:0:0:
408,176,6680,1,0,0:0:0:0:
404,252,6813,1,0,0:0:0:0:
356,308,6946,1,0,0:0:0:0:
284,328,7080,2,0,P|192:308|136:256,1,150
104,216,7480,1,0,0:0:0:0:
32,188,7613,2,0,P|84:148|168:168,1,150,0|0,0:0|0:0,0:0:0:0:
260,124,8013,1,0,0:0:0:0:
260,124,8146,2,0,L|348:104,4,75,0|0|0|0|0,0:0|0:0|0:0|0:0|0:0,0:0:0:0:
112,152,8946,5,0,0:0:0:0:
112,304,9213,1,0,0:0:0:0:
176,340,9346,1,0,0:0:0:0:
252,348,9480,1,0,0:0:0:0:
324,328,9613,1,0,0:0:0:0:
380,276,9746,2,0,P|388:208|376:124,1,150
248,60,10280,2,0,L|144:64,4,75,0|0|0|0|0,0:0|0:0|0:0|0:0|0:0,0:0:0:0:
260,136,11080,5,0,0:0:0:0:
260,136,11346,2,0,P|292:153|314:183,1,75
332,256,11613,2,0,P|296:296|276:304,1,75
204,308,11880,2,0,P|171:290|149:260,1,75
140,184,12146,2,0,P|176:144|196:136,1,75
244,80,12413,6,0,L|284:80,2,37.5,0|0|0,0:0|0:0|0:0,0:0:0:0:
284,144,12680,2,0,L|200:144,1,75
240,212,12946,2,0,L|348:212,1,75
284,280,13213,2,0,L|196:280,1,75
248,344,13480,6,0,P|132:328|108:276,1,150
96,236,13880,1,0,0:0:0:0:
88,160,14013,2,0,P|148:84|212:76,1,150
268,56,14413,1,0,0:0:0:0:
340,68,14546,2,0,L|420:116,1,75
400,180,14813,2,0,L|328:140,1,75
332,220,15080,2,0,L|404:260,1,75
396,332,15346,2,0,L|300:284,1,75
256,332,15613,6,0,P|176:320|112:260,1,150
92,208,16013,2,0,P|84:148|96:128,1,75
140,72,16280,1,0,0:0:0:0:
208,44,16413,2,0,P|284:32|304:36,2,75,0|0|0,0:0|0:0|0:0,0:0:0:0:
160,184,16946,2,0,P|122:182|86:171,2,75,0|0|0,0:0|0:0|0:0,0:0:0:0:
236,184,17346,1,0,0:0:0:0:
312,188,17480,2,0,P|388:176|408:180,2,75,0|0|0,0:0|0:0|0:0,0:0:0:0:
212,300,18013,6,0,L|212:132,1,150
212,150,18413,1,0,0:0:0:0:
208,76,18546,2,0,L|312:76,2,75,0|0|0,0:0|0:0|0:0,0:0:0:0:
360,72,19080,6,0,L|360:248,1,150
360,222,19480,1,0,0:0:0:0:
360,296,19613,2,0,L|444:296,2,75,0|0|0,0:0|0:0|0:0,0:0:0:0:
216,344,20146,5,0,0:0:0:0:
120,228,20413,2,0,L|120:124,1,75
196,148,20680,2,0,L|196:248,1,75
272,224,20946,2,0,L|424:224,1,150,0|0,0:0|0:0,0:0:0:0:
332,104,21480,1,0,0:0:0:0:
332,104,21613,2,0,L|416:104,1,75
408,180,21880,2,0,L|316:180,1,75
256,308,22280,5,0,0:0:0:0:
192,172,22546,2,0,P|172:124|176:92,1,75
248,92,22813,2,0,P|265:124|266:162,1,75
240,232,23080,2,0,P|276:235|311:223,1,75
364,172,23346,2,0,P|381:204|382:242,1,75
428,304,23613,2,0,P|393:317|308:248,1,150,0|0,0:0|0:0,0:0:0:0:
240,232,24013,1,0,0:0:0:0:
164,224,24146,6,0,L|164:140,1,75
164,149,24413,1,0,0:0:0:0:
240,148,24546,2,0,L|344:148,2,75,0|0|0,0:0|0:0|0:0,0:0:0:0:
240,148,24946,1,0,0:0:0:0:
236,72,25080,2,0,L|324:72,1,75
311,72,25346,1,0,0:0:0:0:
404,188,25480,5,0,0:0:0:0:
404,264,25613,2,0,L|404:348,1,75
256,332,26013,2,0,L|106:332,1,150
104,256,26413,2,0,L|104:80,1,150
180,104,26813,2,0,L|336:104,1,150
404,104,27213,2,0,L|404:272,1,150
404,328,27613,2,0,L|252:328,1,150
256,176,28146,1,0,0:0:0:0:
132,92,28413,6,0,L|168:72,3,37.5,0|0|0|0,0:0|0:0|0:0|0:0,0:0:0:0:
204,68,28680,2,0,L|236:92,3,37.5,0|0|0|0,0:0|0:0|0:0|0:0,0:0:0:0:
268,108,28946,2,0,L|304:96,3,37.5,0|0|0|0,0:0|0:0|0:0|0:0,0:0:0:0:
340,108,29213,2,0,L|368:160,3,37.5,0|0|0|0,0:0|0:0|0:0|0:0,0:0:0:0:
356,180,29480,2,0,L|316:216,3,37.5,0|0|0|0,0:0|0:0|0:0|0:0,0:0:0:0:
320,240,29746,2,0,L|352:300,4,37.5,0|0|0|0|8,0:0|0:0|0:0|0:0|0:0,0:0:0:0:
256,104,30280,5,0,0:0:0:0:
140,260,30546,2,0,L|240:260,1,97.4999955368044
296,184,30813,2,0,L|192:184,1,97.4999955368044
116,112,31080,2,0,L|116:220,2,97.4999955368044,0|0|0,0:0|0:0|0:0,0:0:0:0:
256,104,31480,2,0,L|368:104,1,97.4999955368044
353,104,31746,1,0,0:0:0:0:
356,200,31880,2,0,L|220:200,1,97.4999955368044
160,200,32146,1,0,0:0:0:0:
160,200,32280,2,0,L|160:312,1,97.4999955368044
160,297,32546,1,0,0:0:0:0:
248,336,32680,6,0,P|392:248|376:136,1,292.499986610413
337,72,33213,2,0,P|199:53|124:169,1,292.499986610413
48,228,33746,2,0,P|185:247|260:130,1,292.499986610413
168,164,34280,2,0,P|243:47|380:66,1,292.499986610413
400,164,34813,6,0,L|400:288,1,97.4999955368044
304,268,35080,2,0,L|200:268,2,97.4999955368044,0|0|0,0:0|0:0|0:0,0:0:0:0:
248,188,35480,2,0,L|448:188,1,194.999991073609
376,116,35880,2,0,L|484:116,2,97.4999955368044,0|0|0,0:0|0:0|0:0,0:0:0:0:
280,116,36280,2,0,L|144:116,1,97.4999955368044
92,80,36546,1,0,0:0:0:0:
92,80,36680,2,0,L|92:296,1,194.999991073609,0|0,0:0|0:0,0:0:0:0:
188,252,37080,2,0,L|312:252,1,97.4999955368044
284,156,37346,2,0,L|186:156,1,97.4999955368044
432,312,37746,5,0,0:0:0:0:
328,328,37880,1,0,0:0:0:0:
328,328,38013,2,0,L|328:196,2,97.4999955368044,0|0|0,0:0|0:0|0:0,0:0:0:0:
328,328,38413,2,0,L|216:328,1,97.4999955368044,0|0,0:0|0:0,0:0:0:0:
328,232,38813,1,0,0:0:0:0:
324,136,38946,2,0,L|224:136,1,97.4999955368044
44,200,39346,5,0,0:0:0:0:
44,200,39480,1,0,0:0:0:0:
44,200,39613,1,0,0:0:0:0:
208,304,39880,1,0,0:0:0:0:
208,304,40013,1,0,0:0:0:0:
208,304,40146,1,0,0:0:0:0:
312,136,40413,1,0,0:0:0:0:
312,136,40546,1,0,0:0:0:0:
312,136,40680,1,0,0:0:0:0:
216,124,40813,5,0,0:0:0:0:
120,140,40946,2,0,P|88:220|112:264,1,97.4999955368044
132,316,41213,2,0,P|212:348|312:304,1,194.999991073609
392,260,41613,2,0,P|431:173|399:83,1,194.999991073609
312,40,42013,2,0,P|248:44|200:68,2,97.4999955368044,0|0|0,0:0|0:0|0:0,0:0:0:0:
360,160,42413,1,0,0:0:0:0:
256,228,42546,2,0,P|210:244|161:244,1,97.4999955368044,0|0,0:0|0:0,0:0:0:0:
360,160,42946,5,0,0:0:0:0:
296,88,43080,1,0,0:0:0:0:
200,100,43213,2,0,L|96:136,1,97.4999955368044
200,164,43480,2,0,L|96:200,1,97.4999955368044,0|0,0:0|0:0,0:0:0:0:
200,228,43746,2,0,L|96:264,2,97.4999955368044,0|0|0,0:0|0:0|0:0,0:0:0:0:
200,228,44146,1,0,0:0:0:0:
256,40,44413,1,0,0:0:0:0:
200,228,44680,1,0,0:0:0:0:
344,104,44946,1,0,0:0:0:0:
156,104,45213,1,0,0:0:0:0:
320,224,45480,6,0,L|432:260,2,112.500004291535,0|0|0,0:0|0:0|0:0,0:0:0:0:
212,264,45880,1,0,0:0:0:0:
112,216,46013,1,0,0:0:0:0:
128,108,46146,1,0,0:0:0:0:
232,88,46280,1,0,0:0:0:0:
272,188,46413,1,0,0:0:0:0:
332,112,46546,2,0,P|376:76|436:200,2,225.000008583069,0|0|0,0:0|0:0|0:0,0:0:0:0:
252,192,47213,1,0,0:0:0:0:
140,184,47346,2,0,L|84:220,2,56.2500021457673,0|0|0,0:0|0:0|0:0,0:0:0:0:
204,100,47613,6,0,P|272:84|444:112,1,225.000008583069,0|0,0:0|0:0,0:0:0:0:
324,152,48013,1,0,0:0:0:0:
204,212,48146,2,0,P|314:229|424:208,2,225.000008583069,0|0|0,0:0|0:0|0:0,0:0:0:0:
116,264,48813,1,0,0:0:0:0:
40,180,48946,1,0,0:0:0:0:
112,92,49080,1,0,0:0:0:0:
220,68,49213,2,0,P|288:52|460:80,2,225.000008583069,0|0|0,0:0|0:0|0:0,0:0:0:0:
188,292,50013,5,0,0:0:0:0:
344,128,50280,1,0,0:0:0:0:
144,236,50546,1,0,0:0:0:0:
364,196,50813,1,0,0:0:0:0:
140,172,51080,1,0,0:0:0:0:
344,268,51346,1,0,0:0:0:0:
176,120,51613,1,0,0:0:0:0:
296,348,51880,5,0,0:0:0:0:
280,48,52146,1,0,0:0:0:0:
224,344,52413,1,0,0:0:0:0:
348,72,52680,1,0,0:0:0:0:
168,312,52946,1,0,0:0:0:0:
396,116,53213,1,0,0:0:0:0:
132,260,53480,1,0,0:0:0:0:
420,176,53746,1,0,0:0:0:0:
120,196,54013,1,0,0:0:0:0:
416,240,54280,1,0,0:0:0:0:
136,132,54546,1,0,0:0:0:0:
136,192,54813,6,0,L|364:192,2,225,0|0|0,0:0|0:0|0:0,0:0:0:0:
136,344,55880,5,0,0:0:0:0:
48,344,56146,2,0,L|48:176,1,150
200,188,56680,2,0,L|352:188,1,150
220,264,57213,2,0,L|376:264,2,150,0|0|0,0:0|0:0|0:0,0:0:0:0:
84,328,58013,2,0,P|80:168|208:72,1,300
328,84,58813,5,0,0:0:0:0:
452,172,59080,2,0,P|460:252|408:312,2,150,0|0|0,0:0|0:0|0:0,0:0:0:0:
328,84,59880,2,0,P|256:64|168:100,1,150
188,236,60413,2,0,P|260:256|348:220,2,150,0|0|0,0:0|0:0|0:0,0:0:0:0:
188,236,61213,1,0,0:0:0:0:
256,104,61480,2,0,L|396:168,1,150,0|0,0:0|0:0,0:0:0:0:
256,228,62013,2,0,L|116:292,2,150,0|0|0,0:0|0:0|0:0,0:0:0:0:
112,180,62813,5,0,0:0:0:0:
160,36,63080,1,0,0:0:0:0:
308,36,63346,1,0,0:0:0:0:
360,176,63613,5,0,0:0:0:0:
408,236,63746,1,0,0:0:0:0:
376,304,63880,1,0,0:0:0:0:
308,336,64013,1,0,0:0:0:0:
232,336,64146,2,0,P|160:307|143:231,1,150
80,160,64680,2,0,P|140:132|216:176,2,150,0|0|0,0:0|0:0|0:0,0:0:0:0:
80,160,65480,1,0,0:0:0:0:
224,192,65746,2,0,L|376:168,1,150
404,296,66280,1,0,0:0:0:0:
260,332,66546,1,0,0:0:0:0:
124,268,66813,1,0,0:0:0:0:
232,164,67080,2,0,L|408:128,2,150,0|0|0,0:0|0:0|0:0,0:0:0:0:
376,208,67880,2,0,P|399:277|360:338,1,150
208,340,68413,2,0,P|168:276|220:192,1,150
256,188,68946,1,0,0:0:0:0:
168,332,69213,5,0,0:0:0:0:
256,40,69480,1,0,0:0:0:0:
344,328,69746,1,0,0:0:0:0:
104,128,70013,1,0,0:0:0:0:
404,124,70280,1,0,0:0:0:0:
256,192,70546,1,0,0:0:0:0:
256,192,70813,1,0,0:0:0:0:
256,192,71080,1,4,0:0:0:0:
256,192,72146,6,0,L|216:228,8,37.5,0|0|0|0|0|0|0|0|8,0:0|0:0|0:0|0:0|0:0|0:0|0:0|0:0|0:0,0:0:0:0:
100,128,72946,5,0,0:0:0:0:
100,128,73213,2,0,L|244:128,1,112.500004291535
284,216,73480,2,0,L|171:216,1,112.500004291535
232,312,73746,2,0,L|344:312,2,112.500004291535,0|0|0,0:0|0:0|0:0,0:0:0:0:
120,316,74146,2,0,L|120:160,1,112.500004291535
120,92,74413,1,0,0:0:0:0:
232,88,74546,2,0,L|356:88,2,112.500004291535,0|0|0,0:0|0:0|0:0,0:0:0:0:
232,200,74946,1,0,0:0:0:0:
120,204,75080,2,0,L|120:328,1,112.500004291535,0|0,0:0|0:0,0:0:0:0:
232,320,75346,6,0,L|232:95,1,225.000008583069,0|0,0:0|0:0,0:0:0:0:
120,92,75746,1,0,0:0:0:0:
124,204,75880,1,0,0:0:0:0:
120,320,76013,2,0,L|4:320,2,112.500004291535,0|0|0,0:0|0:0|0:0,0:0:0:0:
188,232,76413,2,0,L|413:232,1,225.000008583069,0|0,0:0|0:0,0:0:0:0:
320,164,76813,2,0,L|432:164,1,112.500004291535
396,92,77213,5,0,0:0:0:0:
396,92,77480,2,0,L|280:92,1,112.500004291535
168,132,77746,2,0,L|168:264,1,112.500004291535
76,180,78013,2,0,L|76:332,2,112.500004291535,0|0|0,0:0|0:0|0:0,0:0:0:0:
168,244,78413,2,0,L|284:244,1,112.500004291535
280,244,78680,1,0,0:0:0:0:
356,136,78813,1,0,0:0:0:0:
256,88,78946,1,0,0:0:0:0:
148,120,79080,1,0,0:0:0:0:
112,228,79213,1,0,0:0:0:0:
168,324,79346,2,0,P|236:348|288:328,1,112.500004291535
260,224,79613,6,0,P|340:240|440:108,2,225.000008583069,0|0|0,0:0|0:0|0:0,0:0:0:0:
152,192,80280,1,0,0:0:0:0:
152,192,80413,1,0,0:0:0:0:
256,152,80546,1,0,0:0:0:0:
256,152,80680,1,0,0:0:0:0:
360,196,80813,1,0,0:0:0:0:
300,284,80946,2,0,P|368:288|420:280,2,112.500004291535,0|0|0,0:0|0:0|0:0,0:0:0:0:
188,284,81346,1,0,0:0:0:0:
76,284,81480,2,0,P|72:216|80:164,2,112.500004291535,0|0|0,0:0|0:0|0:0,0:0:0:0:
200,96,82013,6,0,P|255:89|311:93,2,112.500004291535,0|0|0,0:0|0:0|0:0,0:0:0:0:
200,96,82413,1,0,0:0:0:0:
256,192,82546,2,0,P|200:198|144:194,1,112.500004291535,0|0,0:0|0:0,0:0:0:0:
200,292,82813,2,0,P|320:300|428:248,2,225.000008583069,0|0|0,0:0|0:0|0:0,0:0:0:0:
124,208,83480,1,0,0:0:0:0:
148,100,83613,1,0,0:0:0:0:
256,64,83746,1,0,0:0:0:0:
360,92,83880,6,0,P|416:128|440:196,1,112.500004291535
400,276,84146,1,0,0:0:0:0:
400,276,84280,2,0,P|372:324|208:304,1,225.000008583069
132,248,84680,2,0,L|132:116,1,112.500004291535
228,196,84946,2,0,L|228:332,1,112.500004291535
132,372,85213,1,0,0:0:0:0:
132,372,85346,2,0,L|392:372,1,225.000008583069
400,276,85746,2,0,L|400:120,1,112.500004291535
320,244,86013,2,0,L|320:96,1,112.500004291535
216,176,86280,2,0,L|92:176,2,112.500004291535,0|0|0,0:0|0:0|0:0,0:0:0:0:
256,72,86680,1,0,0:0:0:0:
360,112,86813,6,0,L|400:156,3,56.2500021457673,0|0|0|0,0:0|0:0|0:0|0:0,0:0:0:0:
412,208,87080,2,0,L|376:272,3,56.2500021457673,0|0|0|0,0:0|0:0|0:0|0:0,0:0:0:0:
344,296,87346,2,0,L|256:280,3,56.2500021457673,0|0|0|0,0:0|0:0|0:0|0:0,0:0:0:0:
232,280,87613,2,0,L|168:312,3,56.2500021457673,0|0|0|0,0:0|0:0|0:0|0:0,0:0:0:0:
124,308,87880,2,0,L|72:236,4,56.2500021457673,0|0|0|0|4,0:0|0:0|0:0|0:0|0:0,0:0:0:0:
