osu file format v14

[General]
AudioFilename: The Raising Fighting Spirit.mp3
AudioLeadIn: 0
PreviewTime: 21060
Countdown: 0
SampleSet: Normal
StackLeniency: 0.6
Mode: 0
LetterboxInBreaks: 0
WidescreenStoryboard: 0

[Editor]
DistanceSpacing: 1.6
BeatDivisor: 6
GridSize: 4
TimelineZoom: 1.5

[Metadata]
Title:Wakiagaru Toushi
TitleUnicode:沸き上がる闘志
Artist:TOSHIO MASUDA
ArtistUnicode:増田俊郎
Creator:liangv587
Version:Insane
Source:NARUTO-ナルト-
Tags:火影忍者 AIR The Raising Fighting Spirit
BeatmapID:404024
BeatmapSetID:166185

[Difficulty]
HPDrainRate:6
CircleSize:4
OverallDifficulty:7
ApproachRate:9
SliderMultiplier:2.1
SliderTickRate:1

[Events]
//Background and Video events
0,0,"nntssk.jpg",0,0
//Break Periods
//Storyboard Layer 0 (Background)
//Storyboard Layer 1 (Fail)
//Storyboard Layer 2 (Pass)
//Storyboard Layer 3 (Foreground)
//Storyboard Sound Samples

[TimingPoints]
560,428.571428571429,4,1,1,30,1,0
5988,-100,4,1,1,40,0,0
6417,-100,4,1,1,50,0,0
6845,-100,4,1,1,60,0,0
7345,-100,4,1,1,50,0,0
21060,-100,4,1,1,60,0,0
48488,-100,4,2,1,60,0,0
59917,-100,4,1,1,60,0,0
62274,-100,4,1,1,60,0,1
75131,-100,4,2,1,50,0,0
75702,-100,4,2,1,30,0,0
75845,-100,4,2,1,15,0,0
75988,-100,4,1,1,50,0,0
92131,-100,4,1,1,20,0,0
92845,-100,4,2,1,5,0,0

[Colours]
Combo1 : 128,64,64
Combo2 : 255,128,0
Combo3 : 223,32,128
Combo4 : 64,32,96

[HitObjects]
256,192,5702,12,4,6988,0:0:0:0:
120,68,7417,5,4,0:0:0:0:
128,140,7560,1,0,0:0:0:0:
192,180,7702,1,0,0:0:0:0:
308,108,7845,1,8,0:2:0:0:
236,120,7988,1,0,0:0:0:0:
192,180,8131,1,0,0:0:0:0:
88,304,8274,2,0,P|144:284|188:216,1,140
256,220,8702,2,0,P|278:248|296:292,2,70,8|0|0,0:0|0:0|0:0,0:0:0:0:
192,180,9131,5,0,0:0:0:0:
128,140,9274,1,0,0:0:0:0:
120,68,9417,1,0,0:0:0:0:
192,180,9560,1,8,0:2:0:0:
192,256,9702,1,0,0:0:0:0:
140,308,9845,1,0,0:0:0:0:
256,220,9988,2,0,P|320:224|392:256,1,140,4|0,0:2|0:0,0:0:0:0:
512,188,10417,2,0,P|440:176|376:140,1,140,4|0,0:0|0:0,0:0:0:0:
312,40,10845,6,0,P|376:44|452:76,1,140,4|0,0:2|0:0,0:0:0:0:
380,144,11274,2,0,L|404:220,2,70,8|0|0,0:2|0:0|0:0,0:0:0:0:
336,260,11702,2,0,L|336:344,2,70
228,304,12131,2,0,L|204:380,1,70,8|8,0:0|0:2,0:0:0:0:
256,224,12417,2,0,L|232:152,1,70,8|0,0:2|0:0,0:0:0:0:
204,84,12702,5,4,0:2:0:0:
204,84,12988,2,0,P|136:144|16:160,1,210,4|0,0:2|0:0,0:0:0:0:
148,244,13560,1,4,0:2:0:0:
148,244,13845,1,4,0:2:0:0:
148,244,13917,1,8,0:2:0:0:
148,244,13988,2,0,P|176:276|192:304,1,70,8|8,0:2|0:3,0:0:0:0:
280,352,14274,5,4,0:0:0:0:
324,292,14417,1,0,0:0:0:0:
386,340,14560,1,0,0:0:0:0:
370,230,14702,1,8,0:2:0:0:
482,221,14845,1,0,0:0:0:0:
432,277,14988,1,0,0:0:0:0:
425,169,15131,2,0,P|397:121|417:37,1,140
324,172,15560,2,0,L|256:204,2,70,8|0|0,0:0|0:0|0:0,0:0:0:0:
482,221,15988,5,0,0:0:0:0:
324,292,16131,1,0,0:0:0:0:
370,230,16274,1,0,0:0:0:0:
432,277,16417,1,8,0:2:0:0:
386,340,16560,2,0,L|322:378,1,70
324,292,16845,2,0,P|264:264|192:260,1,140,4|0,0:2|0:0,0:0:0:0:
52,316,17274,2,0,P|112:344|184:348,1,140,4|0,0:0|0:0,0:0:0:0:
220,168,17702,6,0,L|248:16,1,140,4|0,0:2|0:0,0:0:0:0:
344,88,18131,2,0,L|368:156,2,70,8|0|0,0:2|0:0|0:0,0:0:0:0:
440,144,18560,2,0,L|464:216,2,70
292,160,18988,1,8,0:0:0:0:
316,228,19131,1,8,0:2:0:0:
244,240,19274,1,8,0:2:0:0:
248,312,19417,1,8,0:3:0:0:
176,332,19560,5,4,0:2:0:0:
176,332,19845,2,0,P|116:320|56:264,1,140,4|0,0:2|0:0,0:0:0:0:
96,104,20274,1,4,0:2:0:0:
96,104,20345,1,8,0:2:0:0:
96,104,20417,2,0,L|112:24,1,70,8|8,0:2|0:3,0:0:0:0:
196,136,20702,1,4,0:2:0:0:
169,227,20845,1,8,0:2:0:0:
169,227,20917,1,8,0:2:0:0:
169,227,20988,1,8,0:2:0:0:
248,312,21131,6,0,P|318:315|384:340,1,140,4|0,0:0|0:0,0:0:0:0:
496,256,21560,2,0,P|426:253|352:224,1,140,8|0,0:0|0:0,0:0:0:0:
196,136,21988,2,0,L|240:4,1,140
296,180,22417,2,0,L|248:312,1,140,8|0,0:2|0:0,0:0:0:0:
32,196,22845,6,0,P|102:199|168:224,1,140,2|0,0:3|0:0,0:0:0:0:
176,332,23274,2,0,L|104:356,2,70,8|0|0,0:0|0:0|0:0,0:0:0:0:
296,180,23702,2,0,P|292:112|312:44,1,140,0|0,0:2|0:0,0:0:0:0:
196,136,24131,1,8,0:2:0:0:
196,136,24560,6,0,P|204:208|188:276,1,140,4|0,0:2|0:0,0:0:0:0:
296,180,24988,2,0,P|356:204|432:196,1,140,8|0,0:0|0:0,0:0:0:0:
440,72,25417,2,0,P|380:48|304:56,1,140
304,296,25845,2,0,P|272:352|200:384,1,140,8|0,0:2|0:0,0:0:0:0:
196,268,26274,6,0,P|228:212|300:180,1,140,2|0,0:3|0:0,0:0:0:0:
420,208,26702,1,8,0:0:0:0:
304,296,26845,1,0,0:0:0:0:
428,324,26988,1,0,0:0:0:0:
296,180,27131,2,0,P|280:116|296:32,1,140
200,128,27560,2,0,P|172:144|136:152,1,70,8|0,0:2|0:0,0:0:0:0:
52,136,27845,1,0,0:0:0:0:
52,136,27917,1,0,0:0:0:0:
52,136,27988,6,0,P|68:200|56:276,1,140,4|0,0:2|0:0,0:0:0:0:
196,268,28417,2,0,L|180:344,2,70,8|0|0,0:0|0:0|0:0,0:0:0:0:
424,200,28845,2,0,P|352:216|276:200,1,140
200,128,29274,2,0,P|165:145|136:176,1,70,8|0,0:2|0:0,0:0:0:0:
100,263,29560,1,0,0:0:0:0:
229,377,29702,6,0,P|297:313|285:201,1,210,2|8,0:3|0:0,0:0:0:0:
196,268,30274,1,0,0:0:0:0:
196,268,30345,1,0,0:0:0:0:
196,268,30417,1,0,0:0:0:0:
288,204,30560,2,0,P|316:136|300:68,1,140
88,52,30988,2,0,P|137:102|204:128,1,140,8|0,0:2|0:0,0:0:0:0:
112,212,31417,6,0,L|76:292,2,70,4|0|0,0:2|0:0|0:0,0:0:0:0:
196,268,31845,2,0,L|196:344,2,70,8|0|0,0:0|0:0|0:0,0:0:0:0:
392,288,32274,2,0,P|346:229|280:204,1,140
112,212,32702,1,8,0:2:0:0:
196,268,32845,1,8,0:2:0:0:
196,156,32988,2,0,L|172:76,1,70,8|8,0:0|0:3,0:0:0:0:
92,56,33274,5,4,0:2:0:0:
92,56,33560,2,0,P|176:76|288:24,1,210,4|0,0:2|0:0,0:0:0:0:
196,156,34131,1,4,0:2:0:0:
196,156,34417,2,0,P|264:180|300:240,1,140,4|0,0:2|0:0,0:0:0:0:
296,344,34845,6,0,P|228:316|192:260,1,140,4|0,0:0|0:0,0:0:0:0:
416,160,35274,2,0,L|292:240,1,140,8|0,0:0|0:0,0:0:0:0:
328,88,35702,2,0,L|452:12,1,140
416,160,36131,2,0,L|432:228,2,70,8|0|0,0:2|0:0|0:0,0:0:0:0:
256,160,36560,6,0,P|228:96|244:28,1,140,2|0,0:3|0:0,0:0:0:0:
300,232,36988,2,0,L|280:308,2,70,8|0|0,0:0|0:0|0:0,0:0:0:0:
216,232,37417,2,0,P|152:272|80:272,1,140
116,144,37845,1,8,0:2:0:0:
116,144,38274,6,0,L|256:160,1,140,4|0,0:2|0:0,0:0:0:0:
412,80,38702,2,0,L|272:64,1,140,8|0,0:0|0:0,0:0:0:0:
216,232,39131,2,0,P|180:288|196:360,1,140
300,232,39560,2,0,P|336:176|320:104,1,140,8|0,0:2|0:0,0:0:0:0:
148,8,39988,6,0,L|112:156,1,140,2|0,0:3|0:0,0:0:0:0:
268,368,40417,2,0,L|304:220,1,140,8|0,0:0|0:0,0:0:0:0:
287,84,40845,1,0,0:0:0:0:
208,164,40988,2,0,L|216:236,1,70
132,240,41274,2,0,L|140:312,1,70,8|8,0:2|0:3,0:0:0:0:
32,244,41560,1,0,0:0:0:0:
32,244,41631,1,0,0:0:0:0:
32,244,41702,6,0,P|60:176|116:144,1,140,4|0,0:2|0:0,0:0:0:0:
208,164,42131,2,0,L|224:92,2,70,8|0|0,0:0|0:0|0:0,0:0:0:0:
300,232,42560,2,0,P|372:240|448:216,1,140
360,84,42988,2,0,P|288:76|212:100,1,140,8|0,0:2|0:0,0:0:0:0:
132,240,43417,6,0,L|144:320,2,70,2|0|0,0:3|0:0|0:0,0:0:0:0:
208,164,43845,2,0,L|228:312,1,140,8|0,0:0|0:0,0:0:0:0:
300,232,44274,2,0,L|280:84,1,140
348,16,44702,2,0,L|360:88,2,70,8|0|0,0:2|0:0|0:0,0:0:0:0:
280,96,45131,5,4,0:2:0:0:
204,92,45274,1,0,0:0:0:0:
128,88,45417,1,0,0:0:0:0:
168,24,45560,5,8,0:0:0:0:
128,88,45702,1,0,0:0:0:0:
80,148,45845,1,0,0:0:0:0:
48,76,45988,6,0,P|116:80|160:144,1,140
132,208,46417,1,8,0:2:0:0:
132,208,46488,1,8,0:2:0:0:
132,208,46560,1,8,0:2:0:0:
56,224,46702,2,0,P|68:256|104:280,1,70,8|8,0:0|0:3,0:0:0:0:
44,336,46988,5,4,0:2:0:0:
44,336,47274,2,0,P|124:348|164:244,1,210,4|0,0:2|0:0,0:0:0:0:
172,128,47845,2,0,L|228:180,1,70
280,228,48131,1,8,0:2:0:0:
280,228,48202,1,8,0:2:0:0:
280,228,48274,2,0,L|352:228,1,70,8|8,0:2|0:3,0:0:0:0:
224,176,48560,5,4,0:0:0:0:
296,152,48702,2,0,L|372:124,1,70,0|0,0:0|0:0,0:0:0:0:
280,228,48988,2,0,P|288:296|272:368,1,140,0|0,1:0|0:0,0:0:0:0:
208,256,49417,1,2,0:0:0:0:
152,204,49560,2,0,L|76:232,1,70
224,176,49845,2,0,P|216:108|232:36,1,140,0|0,1:0|0:0,0:0:0:0:
296,152,50274,5,2,0:0:0:0:
356,204,50417,2,0,L|416:256,1,70
280,228,50702,1,0,1:0:0:0:
124,120,50988,5,0,0:0:0:0:
100,88,51131,1,2,0:0:0:0:
288,44,51417,1,0,0:0:0:0:
312,76,51560,1,0,1:0:0:0:
208,256,51845,1,0,0:0:0:0:
196,304,51988,1,2,0:0:0:0:
360,304,52274,1,0,0:0:0:0:
376,348,52417,1,0,1:0:0:0:
456,204,52702,5,0,0:0:0:0:
452,148,52845,1,2,0:0:0:0:
420,100,52988,1,0,0:0:0:0:
368,76,53131,1,0,0:0:0:0:
312,76,53274,1,0,1:0:0:0:
208,256,53560,5,0,0:0:0:0:
264,284,53702,1,2,0:0:0:0:
364,168,53988,1,0,0:0:0:0:
156,228,54274,1,0,0:0:0:0:
264,108,54560,1,2,0:0:0:0:
264,284,54845,2,0,L|240:212,1,70,0|0,0:0|1:0,0:0:0:0:
124,120,55274,5,0,0:0:0:0:
68,160,55417,1,6,0:0:0:0:
156,368,55702,1,0,0:0:0:0:
212,328,55845,1,0,1:0:0:0:
419,298,56131,1,0,0:0:0:0:
403,230,56274,1,2,0:0:0:0:
264,108,56560,1,0,0:0:0:0:
280,176,56702,1,0,1:0:0:0:
212,328,56988,1,0,0:0:0:0:
196,260,57131,1,2,0:0:0:0:
124,120,57417,5,0,0:0:0:0:
196,136,57560,1,0,1:0:0:0:
264,108,57702,1,0,0:0:0:0:
304,48,57845,1,0,0:0:0:0:
372,76,57988,1,2,0:0:0:0:
419,298,58274,1,0,0:0:0:0:
196,260,58560,1,0,0:0:0:0:
372,76,58845,5,2,0:0:0:0:
376,152,58988,1,0,0:0:0:0:
336,220,59131,1,0,0:0:0:0:
272,260,59274,1,0,1:0:0:0:
204,152,59417,1,0,0:0:0:0:
280,168,59560,1,0,0:0:0:0:
336,220,59702,1,2,0:0:0:0:
372,288,59845,1,0,0:0:0:0:
272,260,59988,6,0,L|252:328,1,70,0|8,0:0|0:2,0:0:0:0:
196,260,60274,2,0,L|136:300,1,70,0|8,0:0|0:0,0:0:0:0:
84,64,60560,6,0,L|76:88,2,17.5,0|0|0,0:0|3:0|3:0,0:0:0:0:
204,152,60845,2,0,L|196:176,2,17.5,0|0|0,0:0|3:0|3:0,0:0:0:0:
208,44,61131,2,0,L|200:68,2,17.5,0|0|0,0:0|3:0|3:0,0:0:0:0:
80,172,61417,2,0,L|72:196,2,17.5,0|0|0,0:0|3:0|3:0,0:0:0:0:
372,293,61845,5,8,0:2:0:0:
372,293,61917,1,8,0:2:0:0:
372,293,61988,1,8,0:2:0:0:
336,224,62131,1,8,0:0:0:0:
324,148,62274,6,0,P|328:84|360:16,1,140,4|0,0:0|0:0,0:0:0:0:
208,44,62702,2,0,P|172:56|132:52,1,70,8|0,0:2|0:0,0:0:0:0:
260,208,62988,1,0,0:0:0:0:
260,208,63060,1,0,0:0:0:0:
260,208,63131,2,0,P|256:272|224:340,1,140,8|0,0:2|0:0,0:0:0:0:
104,236,63560,2,0,L|48:280,2,70,8|0|0,0:0|0:0|0:0,0:0:0:0:
204,152,63988,6,0,P|144:112|72:108,1,140,2|0,0:3|0:0,0:0:0:0:
104,236,64417,2,0,L|120:312,1,70,8|0,0:2|0:0,0:0:0:0:
260,208,64702,1,0,0:0:0:0:
260,208,64774,1,0,0:0:0:0:
260,208,64845,2,0,P|320:248|392:252,1,140,8|0,0:2|0:0,0:0:0:0:
360,124,65274,2,0,L|448:96,2,70,8|0|0,0:0|0:0|0:0,0:0:0:0:
212,64,65702,6,0,L|76:108,1,140,4|0,0:2|0:0,0:0:0:0:
36,256,66131,2,0,L|112:232,1,70,8|0,0:2|0:0,0:0:0:0:
24,368,66417,1,0,0:0:0:0:
24,368,66488,1,0,0:0:0:0:
24,368,66560,2,0,L|160:324,1,140,8|0,0:2|0:0,0:0:0:0:
260,208,66988,2,0,L|284:288,2,70,8|0|0,0:0|0:0|0:0,0:0:0:0:
360,124,67417,6,0,L|408:276,1,140,2|0,0:3|0:0,0:0:0:0:
504,176,67845,2,0,L|480:104,1,70,4|0,0:2|0:0,0:0:0:0:
452,28,68131,1,0,0:0:0:0:
460,28,68202,1,0,0:0:0:0:
468,28,68274,2,0,L|512:28,2,35,8|8|8,0:2|0:3|0:3,0:0:0:0:
360,124,68560,1,8,0:3:0:0:
260,208,68702,2,0,L|184:208,2,70,8|0|0,0:0|0:0|0:0,0:0:0:0:
212,64,69131,6,0,P|140:72|84:112,1,140,4|0,0:2|0:0,0:0:0:0:
148,264,69560,2,0,L|192:204,1,70,8|0,0:2|0:0,0:0:0:0:
288,320,69845,1,0,0:0:0:0:
288,320,69917,1,0,0:0:0:0:
288,320,69988,2,0,P|360:312|416:272,1,140,8|0,0:2|0:0,0:0:0:0:
360,124,70417,2,0,L|316:184,2,70,8|0|0,0:0|0:0|0:0,0:0:0:0:
212,64,70845,6,0,P|156:104|84:108,1,140,2|0,0:3|0:0,0:0:0:0:
188,208,71274,2,0,L|144:268,1,70,8|0,0:2|0:0,0:0:0:0:
288,320,71560,1,0,0:0:0:0:
288,320,71631,1,0,0:0:0:0:
288,320,71702,2,0,P|344:280|416:276,1,140,8|0,0:2|0:0,0:0:0:0:
320,180,72131,2,0,L|364:120,2,70,8|8|8,0:0|0:2|0:2,0:0:0:0:
212,64,72560,5,4,0:2:0:0:
212,64,72631,1,4,0:2:0:0:
320,180,72845,1,0,0:0:0:0:
188,208,73131,1,0,0:0:0:0:
288,320,73417,1,4,0:2:0:0:
288,320,73488,1,4,0:2:0:0:
188,208,73702,1,0,0:0:0:0:
320,180,73988,1,0,0:0:0:0:
88,108,74274,5,4,0:2:0:0:
360,124,74560,1,0,0:0:0:0:
148,264,74845,1,0,0:0:0:0:
416,272,75131,1,4,0:2:0:0:
240,144,75560,6,2,L|212:144,10,17.5
240,144,75988,6,0,L|316:192,2,70,4|0|0,0:0|0:0|0:0,0:0:0:0:
284,56,76417,2,0,L|220:16,2,70,8|0|0,0:2|0:0|0:0,0:0:0:0:
400,168,76845,2,0,P|380:244|328:280,1,140
192,316,77274,2,0,P|162:292|144:256,2,70,8|0|0,0:0|0:0|0:0,0:0:0:0:
232,232,77702,5,0,0:0:0:0:
168,188,77845,1,0,0:0:0:0:
92,204,77988,1,0,0:0:0:0:
192,112,78131,1,8,0:2:0:0:
168,40,78273,1,0,0:0:0:0:
96,16,78416,1,0,0:0:0:0:
192,112,78559,2,0,P|248:156|324:156,1,140,4|0,0:2|0:0,0:0:0:0:
408,104,78988,2,0,P|352:60|276:60,1,140,4|0,0:0|0:0,0:0:0:0:
204,284,79417,6,0,P|260:328|336:328,1,140,4|0,0:2|0:0,0:0:0:0:
316,160,79845,2,0,L|296:232,2,70,8|0|0,0:2|0:0|0:0,0:0:0:0:
192,112,80274,2,0,L|212:40,2,70
60,168,80702,2,0,L|36:96,1,70,8|0,0:0|0:0,0:0:0:0:
168,188,80988,2,0,L|192:260,1,70
148,344,81273,5,4,0:2:0:0:
148,344,81559,2,0,P|216:284|336:268,1,210,4|0,0:2|0:0,0:0:0:0:
448,324,82131,1,4,0:2:0:0:
448,324,82417,1,4,0:2:0:0:
428,248,82560,1,8,0:0:0:0:
436,172,82702,1,8,0:2:0:0:
476,108,82845,6,0,L|416:48,2,70,4|0|0,0:0|0:0|0:0,0:0:0:0:
344,88,83274,2,0,L|284:28,2,70,8|0|0,0:2|0:0|0:0,0:0:0:0:
316,160,83702,1,0,0:0:0:0:
248,192,83845,1,0,0:0:0:0:
172,184,83988,1,0,0:0:0:0:
108,228,84131,2,0,L|48:276,2,70,8|0|0,0:0|0:0|0:0,0:0:0:0:
172,184,84559,5,0,0:0:0:0:
312,240,84702,1,8,0:2:0:0:
316,160,84845,1,0,0:0:0:0:
204,256,84988,1,8,0:2:0:0:
240,332,85131,2,0,L|304:364,1,70
312,240,85416,2,0,P|380:208|392:144,1,140,4|0,0:2|0:0,0:0:0:0:
176,104,85845,2,0,P|108:136|96:200,1,140,4|0,0:0|0:0,0:0:0:0:
256,156,86274,6,0,L|256:8,1,140,4|0,0:2|0:0,0:0:0:0:
344,88,86702,2,0,L|396:32,2,70,8|0|0,0:2|0:0|0:0,0:0:0:0:
312,240,87131,2,0,L|260:296,2,70
256,156,87559,1,8,0:0:0:0:
256,156,87631,1,8,0:2:0:0:
256,156,87702,1,8,0:2:0:0:
176,104,87845,1,0,0:0:0:0:
96,196,87988,1,0,0:0:0:0:
80,352,88131,5,4,0:2:0:0:
80,352,88416,2,0,P|184:324|244:232,1,210,4|0,0:2|0:0,0:0:0:0:
96,196,88988,1,4,0:2:0:0:
96,196,89059,1,8,0:2:0:0:
96,196,89130,1,8,0:2:0:0:
256,156,89274,2,0,P|320:196|392:188,1,140,4|0,0:2|0:0,0:0:0:0:
256,32,89702,5,4,0:2:0:0:
96,228,89988,1,0,0:0:0:0:
384,96,90274,1,0,0:0:0:0:
328,340,90560,1,4,0:2:0:0:
128,96,90845,1,0,0:0:0:0:
416,228,91131,1,0,0:0:0:0:
184,340,91417,1,0,0:0:0:0:
256,192,91560,12,0,93131,0:0:0:0:
