osu file format v14

[General]
AudioFilename: The Raising Fighting Spirit.mp3
AudioLeadIn: 0
PreviewTime: 21060
Countdown: 0
SampleSet: Normal
StackLeniency: 0.6
Mode: 0
LetterboxInBreaks: 0
WidescreenStoryboard: 0

[Editor]
DistanceSpacing: 1.6
BeatDivisor: 6
GridSize: 4
TimelineZoom: 1.5

[Metadata]
Title:Wakiagaru Toushi
TitleUnicode:沸き上がる闘志
Artist:TOSHIO MASUDA
ArtistUnicode:増田俊郎
Creator:liangv587
Version:Hard
Source:NARUTO-ナルト-
Tags:火影忍者 AIR The Raising Fighting Spirit
BeatmapID:404023
BeatmapSetID:166185

[Difficulty]
HPDrainRate:6
CircleSize:3.2
OverallDifficulty:6
ApproachRate:7.2
SliderMultiplier:1.8
SliderTickRate:1

[Events]
//Background and Video events
0,0,"nntssk.jpg",0,0
//Break Periods
//Storyboard Layer 0 (Background)
//Storyboard Layer 1 (Fail)
//Storyboard Layer 2 (Pass)
//Storyboard Layer 3 (Foreground)
//Storyboard Sound Samples

[TimingPoints]
560,428.571428571429,4,1,1,30,1,0
5988,-100,4,1,1,40,0,0
6417,-100,4,1,1,50,0,0
6845,-100,4,1,1,60,0,0
7345,-100,4,1,1,50,0,0
21060,-100,4,1,1,60,0,0
48488,-100,4,2,1,60,0,0
60488,-100,4,1,1,60,0,0
62274,-100,4,1,1,60,0,1
75131,-133.333333333333,4,2,1,50,0,0
75702,-133.333333333333,4,2,1,30,0,0
75845,-133.333333333333,4,2,1,15,0,0
75988,-100,4,1,1,50,0,0
92131,-100,4,1,1,20,0,0
92845,-100,4,2,1,5,0,0

[Colours]
Combo1 : 128,64,64
Combo2 : 255,128,0
Combo3 : 223,32,128
Combo4 : 64,32,96

[HitObjects]
256,192,5702,12,4,6988,0:0:0:0:
96,112,7417,6,0,P|88:140|88:172,2,60,4|0|0,0:0|0:0|0:0,0:0:0:0:
184,156,7845,2,0,P|184:184|192:216,2,60,8|0|0,0:2|0:0|0:0,0:0:0:0:
284,172,8274,2,0,P|316:220|376:248,1,120,0|0,0:0|0:0,0:0:0:0:
400,128,8702,2,0,P|428:140|468:140,2,60,8|0|0,0:0|0:0|0:0,0:0:0:0:
308,76,9131,6,0,P|280:64|240:56,2,60,0|0|0,0:0|0:0|0:0,0:0:0:0:
284,172,9560,2,0,P|256:164|212:160,2,60,8|0|0,0:2|0:0|0:0,0:0:0:0:
264,268,9988,2,0,P|200:268|140:280,1,120,4|0,0:2|0:0,0:0:0:0:
36,196,10417,2,0,P|100:196|160:184,1,120,4|0,0:0|0:0,0:0:0:0:
208,92,10845,6,0,P|208:60|216:28,2,60,4|0|0,0:2|0:0|0:0,0:0:0:0:
308,76,11274,2,0,P|316:52|340:24,2,60,8|0|0,0:2|0:0|0:0,0:0:0:0:
400,96,11702,2,0,P|464:112|508:152,1,120,0|0,0:0|0:0,0:0:0:0:
408,212,12131,2,0,L|436:280,1,60,8|8,0:0|0:2,0:0:0:0:
320,276,12417,2,0,L|312:340,1,60,8|0,0:2|0:0,0:0:0:0:
215,268,12702,5,4,0:2:0:0:
215,268,12988,2,0,P|139:213|62:242,1,180,4|0,0:2|0:0,0:0:0:0:
128,312,13560,1,4,0:2:0:0:
128,312,13845,2,0,P|177:356|228:363,1,120,4|8,0:2|0:3,0:0:0:0:
320,276,14274,6,0,P|328:308|348:336,2,60,4|0|0,0:0|0:0|0:0,0:0:0:0:
368,180,14702,2,0,P|360:148|340:120,2,60,8|0|0,0:2|0:0|0:0,0:0:0:0:
256,96,15131,2,0,P|288:48|352:32,1,120,0|0,0:0|0:0,0:0:0:0:
280,180,15560,2,0,P|248:184|212:172,2,60,8|0|0,0:0|0:0|0:0,0:0:0:0:
176,112,15988,6,0,P|168:84|144:56,2,60,0|0|0,0:0|0:0|0:0,0:0:0:0:
128,192,16417,2,0,P|136:220|160:248,2,60,8|0|0,0:2|0:0|0:0,0:0:0:0:
240,260,16845,2,0,P|212:312|152:332,1,120,4|0,0:2|0:0,0:0:0:0:
208,184,17274,2,0,P|272:184|316:236,1,120,4|0,0:0|0:0,0:0:0:0:
412,176,17702,6,0,P|420:208|420:240,2,60,4|0|0,0:2|0:0|0:0,0:0:0:0:
320,112,18131,2,0,P|312:80|312:48,2,60,8|0|0,0:2|0:0|0:0,0:0:0:0:
312,220,18560,2,0,P|320:280|288:328,1,120,0|0,0:0|0:0,0:0:0:0:
180,248,18988,2,0,L|240:260,1,60,8|0,0:0|0:0,0:0:0:0:
196,344,19274,2,0,L|128:328,1,60,8|8,0:2|0:3,0:0:0:0:
92,232,19560,5,4,0:2:0:0:
92,232,19845,2,0,P|84:172|116:124,1,120,4|0,0:2|0:0,0:0:0:0:
180,196,20274,2,0,L|180:236,2,30,4|8|8,0:2|0:2|0:2,0:0:0:0:
248,128,20560,1,8,0:3:0:0:
236,32,20702,1,4,0:2:0:0:
329,62,20845,2,0,L|361:62,2,30,8|8|8,0:2|0:2|0:2,0:0:0:0:
348,156,21131,6,0,B|404:220|348:268|400:328,1,180,4|8,0:0|0:0,0:0:0:0:
288,299,21702,2,0,P|256:299|224:311,1,60
152,368,21988,2,0,P|132:316|88:264,1,120,0|0,0:0|0:0,0:0:0:0:
16,200,22417,2,0,P|67:185|114:139,1,120,8|0,0:2|0:0,0:0:0:0:
113,39,22845,6,0,P|123:127|180:196,1,180,2|8,0:3|0:0,0:0:0:0:
276,184,23417,2,0,L|344:148,1,60,0|0,0:0|0:0,0:0:0:0:
436,280,23702,2,0,P|376:264|296:264,1,120,0|0,0:2|0:0,0:0:0:0:
231,309,24131,1,8,0:2:0:0:
152,368,24274,2,0,L|76:344,1,60,0|0,0:0|0:0,0:0:0:0:
22,262,24560,6,0,P|94:219|196:223,1,180,4|8,0:2|0:0,0:0:0:0:
224,131,25131,2,0,P|226:86|222:56,1,60,0|0,0:0|0:0,0:0:0:0:
311,183,25417,2,0,P|383:172|432:140,1,120,0|0,0:0|0:0,0:0:0:0:
467,233,25845,2,0,P|470:297|436:343,1,120,8|0,0:2|0:0,0:0:0:0:
343,354,26274,6,0,L|280:378,2,60,2|0|0,0:3|0:0|0:0,0:0:0:0:
384,267,26702,2,0,L|371:208,2,60,8|0|0,0:0|0:0|0:0,0:0:0:0:
269,269,27131,2,0,P|255:175|275:88,1,180,0|8,0:0|0:2,0:0:0:0:
145,351,27988,6,0,P|77:343|32:304,1,120,4|0,0:2|0:0,0:0:0:0:
16,217,28417,2,0,L|42:149,2,60,8|0|0,0:0|0:0|0:0,0:0:0:0:
125,231,28845,2,0,P|183:213|221:169,1,120,0|0,0:0|0:0,0:0:0:0:
227,72,29274,2,0,P|169:90|131:134,1,120,8|0,0:2|0:0,0:0:0:0:
263,242,29702,6,0,P|321:242|382:230,1,120,2|0,0:3|0:0,0:0:0:0:
487,129,30131,1,8,0:0:0:0:
391,136,30274,2,0,L|317:141,1,60
465,217,30560,2,0,P|467:277|449:345,1,120
358,321,30988,1,8,0:2:0:0:
262,325,31131,2,0,L|188:330,1,60,0|0,0:0|0:0,0:0:0:0:
87,308,31417,6,0,P|62:332|47:367,2,60,4|0|0,0:2|0:0|0:0,0:0:0:0:
67,213,31845,2,0,P|37:212|1:223,2,60,8|0|0,0:0|0:0|0:0,0:0:0:0:
157,245,32274,2,0,P|160:184|121:133,1,120,0|0,0:0|0:0,0:0:0:0:
32,120,32702,1,8,0:2:0:0:
95,47,32845,2,0,P|120:28|156:17,2,60,8|8|8,0:2|0:0|0:3,0:0:0:0:
127,138,33274,5,4,0:2:0:0:
127,138,33560,2,0,B|177:136|205:93|205:93|236:50|284:49,1,180,4|0,0:2|0:0,0:0:0:0:
372,47,34131,1,4,0:2:0:0:
384,238,34417,2,0,P|317:263|247:259,1,120,4|0,0:2|0:0,0:0:0:0:
196,200,34845,6,0,B|162:236|172:286|172:286|181:339|147:373,1,180,4|8,0:0|0:0,0:0:0:0:
253,341,35417,2,0,P|288:334|318:341,1,60
395,374,35702,2,0,P|397:319|425:260,1,120,0|0,0:0|0:0,0:0:0:0:
496,186,36131,2,0,P|445:171|398:125,1,120,8|0,0:2|0:0,0:0:0:0:
400,23,36560,6,0,P|390:111|333:180,1,180,2|8,0:3|0:0,0:0:0:0:
236,184,37131,2,0,L|168:148,1,60,0|0,0:0|0:0,0:0:0:0:
76,280,37416,2,0,P|136:264|216:264,1,120,0|0,0:0|0:0,0:0:0:0:
281,309,37845,1,8,0:2:0:0:
360,368,37988,2,0,L|436:344,1,60,0|0,0:0|0:0,0:0:0:0:
490,262,38274,6,0,P|418:219|316:223,1,180,4|8,0:2|0:0,0:0:0:0:
288,131,38845,2,0,P|286:86|290:56,1,60,0|0,0:0|0:0,0:0:0:0:
201,183,39131,2,0,P|129:172|80:140,1,120,0|0,0:0|0:0,0:0:0:0:
45,233,39559,2,0,P|42:297|76:343,1,120,8|0,0:2|0:0,0:0:0:0:
169,354,39988,6,0,L|232:378,2,60,2|0|0,0:3|0:0|0:0,0:0:0:0:
128,267,40416,2,0,L|140:208,2,60,8|0|0,0:0|0:0|0:0,0:0:0:0:
243,269,40845,2,0,P|257:175|237:88,1,180,0|8,0:0|0:2,0:0:0:0:
367,351,41702,6,0,P|435:343|480:304,1,120,4|0,0:2|0:0,0:0:0:0:
496,217,42131,2,0,L|470:149,2,60,8|0|0,0:0|0:0|0:0,0:0:0:0:
387,231,42559,2,0,P|329:213|291:169,1,120,0|0,0:0|0:0,0:0:0:0:
285,72,42988,2,0,P|343:90|381:134,1,120,8|0,0:2|0:0,0:0:0:0:
249,242,43416,6,0,P|187:244|130:234,1,120,2|0,0:3|0:0,0:0:0:0:
10,137,43845,1,8,0:0:0:0:
106,145,43988,2,0,L|180:150,1,60,0|0,0:0|0:0,0:0:0:0:
47,217,44274,2,0,P|48:282|59:335,1,120
154,321,44702,1,8,0:2:0:0:
250,325,44845,2,0,L|324:330,1,60,0|0,0:0|0:0,0:0:0:0:
425,308,45131,6,0,P|450:332|465:367,2,60,4|0|0,0:2|0:0|0:0,0:0:0:0:
445,213,45559,2,0,P|475:212|511:223,2,60,8|0|0,0:0|0:0|0:0,0:0:0:0:
355,245,45988,2,0,P|352:184|391:133,1,120,0|0,0:0|0:0,0:0:0:0:
480,120,46417,2,0,L|509:143,4,30,8|8|8|0|8,0:2|0:2|0:2|0:0|0:3,0:0:0:0:
260,183,46988,5,4,0:2:0:0:
260,183,47274,2,0,B|234:139|255:93|255:93|274:43|249:2,1,180,4|0,0:2|0:0,0:0:0:0:
165,48,47845,5,0,0:0:0:0:
128,238,48131,2,0,P|183:260|242:263,1,120,8|8,0:2|0:3,0:0:0:0:
337,244,48560,6,0,L|331:318,2,60,4|0|0,0:0|0:0|0:0,0:0:0:0:
260,183,48988,2,0,P|205:161|146:158,1,120,0|0,1:0|0:0,0:0:0:0:
53,278,49417,2,0,L|61:342,2,60,2|0|0,0:0|0:0|0:0,0:0:0:0:
17,188,49845,2,0,P|18:104|38:47,1,120,0|0,1:0|0:0,0:0:0:0:
159,32,50274,5,2,0:0:0:0:
253,51,50417,2,0,P|273:77|285:105,1,60,0|0,0:0|0:0,0:0:0:0:
295,197,50702,1,0,1:0:0:0:
181,352,50988,1,0,0:0:0:0:
181,352,51131,1,2,0:0:0:0:
143,163,51417,1,0,0:0:0:0:
143,163,51560,1,0,1:0:0:0:
295,278,51845,1,0,0:0:0:0:
295,278,51988,5,2,0:0:0:0:
103,268,52274,1,0,0:0:0:0:
103,268,52417,1,0,1:0:0:0:
231,126,52702,1,0,0:0:0:0:
295,197,52845,2,0,L|369:188,1,60,2|0,0:0|0:0,0:0:0:0:
295,278,53131,2,0,L|235:285,1,60,0|0,0:0|1:0,0:0:0:0:
406,375,53560,1,0,0:0:0:0:
472,306,53702,6,0,P|483:245|478:173,1,120,2|0,0:0|0:0,0:0:0:0:
378,23,54274,2,0,P|367:84|371:145,1,120,0|2,0:0|0:0,0:0:0:0:
203,236,54845,1,0,0:0:0:0:
203,236,54988,1,0,1:0:0:0:
36,140,55274,1,0,0:0:0:0:
36,140,55417,5,6,0:0:0:0:
227,148,55702,1,0,0:0:0:0:
227,148,55845,1,0,1:0:0:0:
51,227,56131,1,0,0:0:0:0:
51,227,56274,1,2,0:0:0:0:
175,80,56560,1,0,0:0:0:0:
175,80,56702,1,0,1:0:0:0:
126,265,56988,1,0,0:0:0:0:
126,265,57131,5,2,0:0:0:0:
93,75,57417,1,0,0:0:0:0:
93,75,57560,2,0,L|155:46,1,60,0|0,1:0|0:0,0:0:0:0:
240,72,57845,1,0,0:0:0:0:
318,126,57988,2,0,P|380:132|454:118,2,120,2|0|0,0:0|0:0|0:0,0:0:0:0:
131,171,58845,6,0,L|68:213,2,60,2|0|0,0:0|0:0|0:0,0:0:0:0:
163,262,59274,2,0,L|143:318,1,60,0|0,1:0|0:0,0:0:0:0:
238,300,59560,2,0,L|253:360,1,60,0|2,0:0|0:0,0:0:0:0:
327,297,59845,2,0,L|380:337,2,60,0|0|8,0:0|0:0|0:2,0:0:0:0:
417,261,60274,2,0,L|498:272,1,60,8|8,0:2|0:0,0:0:0:0:
397,181,60560,6,0,L|403:152,1,30,0|0,0:0|3:0,0:0:0:0:
259,137,60845,2,0,L|266:107,1,30,0|0,0:0|3:0,0:0:0:0:
136,202,61131,2,0,L|144:234,1,30,0|0,0:0|3:0,0:0:0:0:
286,251,61417,2,0,L|294:295,1,30,0|0,0:0|3:0,0:0:0:0:
53,333,61845,2,0,L|34:364,2,30,8|8|8,0:2|0:2|0:2,0:0:0:0:
147,351,62131,1,8,0:0:0:0:
203,273,62274,6,0,P|211:173|200:88,1,180,4|8,0:0|0:2,0:0:0:0:
17,39,62988,1,0,0:0:0:0:
20,135,63131,2,0,P|71:118|110:65,1,120,8|0,0:2|0:0,0:0:0:0:
201,94,63560,2,0,P|259:81|320:92,1,120,8|0,0:0|0:0,0:0:0:0:
414,86,63988,6,0,L|460:36,2,60,2|0|0,0:3|0:0|0:0,0:0:0:0:
373,173,64417,2,0,L|391:301,1,120,8|0,0:2|0:0,0:0:0:0:
304,369,64845,2,0,L|279:188,1,180,8|8,0:2|0:0,0:0:0:0:
13,79,65702,6,0,P|106:66|178:13,1,180,4|8,0:2|0:2,0:0:0:0:
96,196,66417,1,0,0:0:0:0:
187,224,66560,2,0,L|204:345,1,120,8|0,0:2|0:0,0:0:0:0:
108,355,66988,2,0,L|44:375,2,60,8|0|0,0:0|0:0|0:0,0:0:0:0:
46,280,67417,6,0,L|24:141,1,120,2|0,0:3|0:0,0:0:0:0:
123,164,67845,2,0,L|258:123,1,120,4|0,0:2|0:0,0:0:0:0:
247,32,68274,2,0,L|225:10,2,30,8|8|8,0:2|0:3|0:3,0:0:0:0:
343,20,68560,1,8,0:3:0:0:
391,102,68702,2,0,L|456:102,1,60,8|0,0:0|0:0,0:0:0:0:
328,171,68988,1,0,0:0:0:0:
426,265,69131,6,0,P|326:273|241:262,1,180,4|8,0:2|0:2,0:0:0:0:
165,89,69845,1,0,0:0:0:0:
260,93,69988,2,0,P|243:144|190:183,1,120,8|0,0:2|0:0,0:0:0:0:
165,89,70417,2,0,P|104:81|45:101,1,120,8|0,0:0|0:0,0:0:0:0:
18,189,70845,6,0,L|9:249,2,60,2|0|0,0:3|0:0|0:0,0:0:0:0:
113,201,71274,2,0,L|95:329,1,120,8|0,0:2|0:0,0:0:0:0:
191,364,71702,2,0,L|216:183,1,180,8|8,0:2|0:0,0:0:0:0:
472,53,72560,6,0,L|455:171,1,120,4|0,0:2|0:0,0:0:0:0:
298,133,73131,1,0,0:0:0:0:
95,169,73417,2,0,L|215:185,1,120,4|0,0:2|0:0,0:0:0:0:
312,38,73988,1,0,0:0:0:0:
286,228,74274,5,4,0:2:0:0:
422,362,74560,1,8,0:0:0:0:
455,172,74845,1,8,0:2:0:0:
272,232,75131,1,4,0:2:0:0:
284,65,75560,6,0,P|344:65|401:84,1,112.500004291535,2|2,0:0|0:0,0:0:0:0:
416,112,75988,6,0,P|424:140|424:172,2,60,4|0|0,0:0|0:0|0:0,0:0:0:0:
328,156,76416,2,0,P|328:184|320:216,2,60,8|0|0,0:2|0:0|0:0,0:0:0:0:
228,172,76845,2,0,P|196:220|136:248,1,120,0|0,0:0|0:0,0:0:0:0:
112,128,77274,2,0,P|84:140|44:140,2,60,8|0|0,0:0|0:0|0:0,0:0:0:0:
204,76,77702,6,0,P|232:64|272:56,2,60,0|0|0,0:0|0:0|0:0,0:0:0:0:
228,172,78131,2,0,P|256:164|300:160,2,60,8|0|0,0:2|0:0|0:0,0:0:0:0:
248,268,78559,2,0,P|312:268|372:280,1,120,4|0,0:2|0:0,0:0:0:0:
476,196,78988,2,0,P|412:196|352:184,1,120,4|0,0:0|0:0,0:0:0:0:
304,92,79416,6,0,P|304:60|296:28,2,60,4|0|0,0:2|0:0|0:0,0:0:0:0:
204,76,79845,2,0,P|196:52|172:24,2,60,8|0|0,0:2|0:0|0:0,0:0:0:0:
112,96,80274,2,0,P|48:112|4:152,1,120,0|0,0:0|0:0,0:0:0:0:
104,212,80702,2,0,L|76:280,1,60,8|0,0:0|0:0,0:0:0:0:
192,276,80988,2,0,L|200:340,1,60,0|0,0:0|0:0,0:0:0:0:
297,268,81273,5,4,0:2:0:0:
297,268,81559,2,0,P|318:176|395:148,1,180,4|0,0:2|0:0,0:0:0:0:
445,228,82131,1,4,0:2:0:0:
445,228,82417,2,0,P|409:238|376:240,2,60,4|8|8,0:2|0:0|0:2,0:0:0:0:
488,142,82845,6,0,P|480:110|465:88,2,60,4|0|0,0:0|0:0|0:0,0:0:0:0:
392,148,83274,2,0,P|361:149|327:136,2,60,8|0|0,0:2|0:0|0:0,0:0:0:0:
375,52,83702,2,0,P|354:35|310:18,1,60,0|0,0:0|0:0,0:0:0:0:
250,84,83988,1,0,0:0:0:0:
244,179,84131,2,0,P|236:207|214:240,2,60,8|0|0,0:0|0:0|0:0,0:0:0:0:
156,70,84560,6,0,P|164:42|185:12,2,60,0|8|0,0:0|0:2|0:0,0:0:0:0:
151,166,84988,2,0,P|136:191|107:213,2,60,8|0|0,0:2|0:0|0:0,0:0:0:0:
26,207,85416,2,0,P|41:263|95:296,1,120,4|0,0:2|0:0,0:0:0:0:
261,331,85845,2,0,P|224:278|156:272,1,120,4|0,0:0|0:0,0:0:0:0:
240,200,86274,6,0,P|244:174|256:142,2,60,4|0|0,0:2|0:0|0:0,0:0:0:0:
330,233,86702,2,0,P|330:262|338:291,2,60,8|0|0,0:2|0:0|0:0,0:0:0:0:
425,249,87131,2,0,P|476:218|498:161,1,120,0|0,0:0|0:0,0:0:0:0:
402,155,87559,2,0,P|376:154|343:140,1,60,8|8,0:0|0:2,0:0:0:0:
443,36,87845,2,0,P|454:64|457:100,1,60,0|0,0:0|0:0,0:0:0:0:
347,49,88131,5,4,0:2:0:0:
347,49,88416,2,0,B|301:39|260:60|260:60|215:83|168:69,1,180,4|0,0:2|0:0,0:0:0:0:
83,31,88988,1,4,0:2:0:0:
83,31,89274,2,0,L|87:170,1,120,4|0,0:2|0:0,0:0:0:0:
20,247,89702,6,0,L|142:236,1,120,4|0,0:2|0:0,0:0:0:0:
331,219,90274,1,0,0:0:0:0:
492,323,90560,2,0,L|370:334,1,120,4|0,0:2|0:0,0:0:0:0:
181,351,91132,1,0,0:0:0:0:
256,174,91417,1,0,0:0:0:0:
256,192,91560,12,0,93131,0:0:0:0:
