osu file format v9

[General]
AudioFilename: Seasons.mp3
AudioLeadIn: 0
PreviewTime: 35758
Countdown: 0
SampleSet: Soft
StackLeniency: 0.7
Mode: 0
LetterboxInBreaks: 0

[Editor]
Bookmarks: 88095,91130,93987,96845,99702,101130
DistanceSpacing: 1
BeatDivisor: 4
GridSize: 8

[Metadata]
Title:Seasons
Artist:TOMOSUKE feat. Crystal Paloa
Creator:ouranhshc
Version:Normal
Source:DanceDanceRevolution 2010
Tags:Dance Dance Revolution DDR

[Difficulty]
HPDrainRate:2
CircleSize:3
OverallDifficulty:3
ApproachRate:4
SliderMultiplier:0.999999999999999
SliderTickRate:2

[Events]
//Background and Video events
0,0,"Seasons_by_Yucki.jpg"
//Break Periods
//Storyboard Layer 0 (Background)
//Storyboard Layer 1 (Fail)
//Storyboard Layer 2 (Pass)
//Storyboard Layer 3 (Foreground)
//Storyboard Sound Samples
//Background Colour Transformations
3,100,163,162,255

[TimingPoints]
1473,357.142857142857,4,2,0,100,1,0
12812,-100,4,1,0,80,0,0
13615,-100,4,2,1,80,0,0
15669,-100,4,1,1,80,0,0
15847,-100,4,2,1,80,0,0
16205,-100,4,1,0,80,0,0
16472,-100,4,2,1,80,0,0
18526,-100,4,1,1,80,0,0
18705,-100,4,2,1,80,0,0
19062,-100,4,1,1,80,0,0
19240,-100,4,2,1,80,0,0
21383,-100,4,1,1,80,0,0
21562,-100,4,2,1,80,0,0
21919,-100,4,1,1,80,0,0
22097,-100,4,2,1,80,0,0
27097,-100,4,1,1,80,0,0
27276,-100,4,2,1,80,0,0
27633,-100,4,1,1,80,0,0
27812,-100,4,2,1,80,0,0
29955,-100,4,1,1,80,0,0
30133,-100,4,2,1,80,0,0
30490,-100,4,1,1,80,0,0
30669,-100,4,2,1,80,0,0
32812,-100,4,1,1,80,0,0
32990,-100,4,2,1,80,0,0
33347,-100,4,1,1,80,0,0
33526,-100,4,2,1,80,0,0
35669,-100,4,1,1,80,0,0
35847,-100,4,2,1,80,0,0
36740,-100,4,1,1,80,0,0
37276,-100,4,2,1,80,0,0
38169,-100,4,1,1,80,0,0
38705,-100,4,2,1,80,0,0
39062,-100,4,1,1,80,0,0
39240,-100,4,2,1,80,0,0
39597,-100,4,1,1,80,0,0
39776,-100,4,2,1,80,0,0
39955,-100,4,1,1,80,0,0
40133,-100,4,2,1,80,0,0
40669,-100,4,1,1,80,0,0
40847,-100,4,2,1,80,0,0
41383,-100,4,1,1,80,0,0
41562,-100,4,2,1,80,0,0
42455,-100,4,1,1,80,0,0
42990,-100,4,2,1,80,0,0
43883,-100,4,1,1,80,0,0
44419,-100,4,2,1,80,0,0
44776,-100,4,1,1,80,0,0
44955,-100,4,2,1,80,0,0
45312,-100,4,1,1,80,0,0
45847,-100,4,2,1,80,0,0
46383,-100,4,1,1,80,0,0
46562,-100,4,2,1,80,0,0
47097,-100,4,1,1,80,0,0
47276,-100,4,2,1,80,0,0
48169,-100,4,1,1,80,0,0
48705,-100,4,2,1,80,0,0
49597,-100,4,1,1,80,0,0
50133,-100,4,2,1,80,0,0
50490,-100,4,1,1,80,0,0
50669,-100,4,2,1,80,0,0
51026,-100,4,1,1,80,0,0
51562,-100,4,2,1,80,0,0
52097,-100,4,1,1,80,0,0
52276,-100,4,2,1,80,0,0
52812,-100,4,1,1,80,0,0
52990,-100,4,2,1,80,0,0
53883,-100,4,1,1,80,0,0
54419,-100,4,2,1,80,0,0
55312,-100,4,1,1,80,0,0
55847,-100,4,2,1,80,0,0
56205,-100,4,1,1,80,0,0
56383,-100,4,2,1,80,0,0
56740,-100,4,1,1,80,0,0
57276,-100,4,2,1,80,0,0
57812,-100,4,1,1,80,0,0
57990,-100,4,2,1,80,0,0
59240,-100,4,1,1,80,0,0
60133,-100,4,2,1,80,0,0
62812,-100,4,1,1,80,0,0
62990,-100,4,2,1,80,0,0
63347,-100,4,1,1,80,0,0
63526,-100,4,2,1,80,0,0
63883,-100,4,1,1,80,0,0
64062,-100,4,2,1,80,0,0
64955,-100,4,1,1,80,0,0
65847,-100,4,2,1,80,0,0
68526,-100,4,1,1,80,0,0
68705,-100,4,2,1,80,0,0
69062,-100,4,1,1,80,0,0
69240,-100,4,2,1,80,0,0
69597,-100,4,1,1,80,0,0
69865,-100,4,2,1,80,0,0
81919,-100,4,1,1,80,0,0
82544,-100,4,2,1,80,0,0
84776,-100,4,1,1,80,0,0
85401,-100,4,2,1,80,0,0
87633,-100,4,1,1,80,0,0
88258,-100,4,2,1,80,0,0
90490,-100,4,1,1,80,0,0
91115,-100,4,2,1,80,0,0
93347,-100,4,1,1,80,0,0
93972,-100,4,2,1,80,0,0
96205,-100,4,1,1,80,0,0
96830,-100,4,2,1,80,0,0
99062,-100,4,1,1,80,0,0
99687,-100,4,2,1,80,0,0
101919,-100,4,1,1,80,0,0
102544,-100,4,2,1,80,0,0

[Colours]
Combo1 : 255,192,130
Combo2 : 128,255,128
Combo3 : 128,255,255
Combo4 : 255,128,128

[HitObjects]
56,56,12901,2,0,B|216:56,1,150,0|0
256,144,13794,1,0
160,144,14151,1,0
208,232,14508,2,0,B|256:256|304:232,1,99.9999999999999
352,144,15222,1,0
306,56,15580,2,0,B|504:56,1,200
464,144,16651,6,0,B|432:184|448:248,1,99.9999999999999
408,336,17365,2,0,B|440:296|424:232,1,99.9999999999999
344,184,18080,2,0,B|192:184,2,150,0|4|0
312,280,19508,5,0
216,280,19865,1,0
136,344,20222,2,0,B|104:296|120:248,1,99.9999999999999
200,184,20937,1,0
112,136,21294,2,0,B|144:72|232:64|280:120,1,200
304,216,22365,6,0,B|408:216,1,99.9999999999999
472,288,23080,1,0
496,192,23437,2,0,B|496:88,1,99.9999999999999
432,16,24151,1,0
184,16,25044,5,0
160,176,25580,2,0,B|256:224|352:176,1,200
336,272,26651,2,0,B|256:296|184:272,2,150
416,328,28080,2,0,B|496:296|496:208,1,150
456,120,28972,5,0
456,120,29151,1,0
344,120,29508,2,0,B|248:120|216:48,2,150,0|4|0
384,216,30937,6,0,B|296:264,1,99.9999999999999
304,360,31651,2,0,B|200:320,1,99.9999999999999
128,376,32365,1,0
128,280,32722,2,0,B|88:184|128:80,1,200
208,32,33794,5,0
256,120,34151,1,0
304,32,34508,1,0
352,120,34865,2,0,B|352:184|288:216,1,99.9999999999999
208,320,35758,6,0,B|88:320|88:120|208:120,1,300,4|0
305,120,37187,2,0,B|424:120|424:320|304:320,1,300
256,232,38615,2,0,B|256:80,2,150
152,232,40044,6,0,B|160:296|208:320,1,99.9999999999999
311,315,40758,2,0,B|352:296|360:232,1,99.9999999999999
304,152,41472,6,0,B|304:16|480:16|480:152,1,300,4|0
479,233,42901,2,0,B|480:368|304:368|304:232,1,300
216,192,44330,2,0,B|64:192,2,150
304,144,45758,6,0,B|408:144,1,99.9999999999999
404,240,46472,2,0,B|304:240,1,99.9999999999999
208,232,47187,6,0,B|208:368|32:368|32:233,1,300,4|0
31,150,48615,2,0,B|32:16|208:16|208:151,1,300
120,192,50044,2,0,B|120:344,2,150
208,240,51472,6,0,B|256:336,1,99.9999999999999
304,248,52187,2,0,B|392:296,1,99.9999999999999
488,256,52901,6,0,B|352:192|304:24,1,300,4|0
206,29,54330,2,0,B|160:192|24:256,1,300
0,352,55758,2,0,B|152:352,2,150
32,256,57187,6,0,B|32:144,1,99.9999999999999
120,104,57901,2,0,B|120:208,1,99.9999999999999
208,152,58615,6,0,B|224:80|280:96|336:80|352:152,1,200,4|0
440,192,59687,1,0
351,233,60044,2,0,B|336:304|280:288|224:304|208:232,1,200
120,192,61115,1,0
32,144,61472,6,0,B|8:192|32:248,1,99.9999999999999,4|0
120,288,62187,2,0,B|224:288,1,99.9999999999999
224,192,62901,2,0,B|376:192,2,150
120,192,64330,6,0,B|120:112|200:72|264:96,1,200,4|0
352,136,65401,1,0
440,96,65758,2,0,B|488:192|440:288,1,200
352,248,66830,1,0
344,344,67187,6,0,B|288:328|264:280,1,99.9999999999999,4|0
208,360,67901,2,0,B|104:360,1,99.9999999999999
152,272,68615,2,0,B|72:240|64:160,2,150
208,192,70044,1,4
296,72,70580,5,2
376,128,70937,1,2
456,72,71294,2,0,B|496:136|456:224|384:224,1,200,2|2
296,192,72365,1,2
200,224,72722,2,0,B|136:224,1,50,2|0
80,64,73437,6,0,B|0:128|40:248,1,200,2|0
120,312,74508,1,2
216,344,74865,1,2
312,312,75222,2,0,B|312:264,1,50,2|4
464,296,75937,6,0,B|504:224|464:152,1,150
336,224,77008,2,0,B|296:152|336:80,1,150
240,200,78080,2,0,B|88:200,1,150
160,336,79151,2,0,B|232:376|304:336,1,150
448,256,80222,2,0,B|376:216|304:256,1,150
256,184,81115,1,2
168,192,81472,6,0,B|96:176|56:248|72:288,1,150,4|0
160,280,82365,1,0
248,232,82722,2,0,B|352:232,1,99.9999999999999
384,136,83437,1,0
504,224,83972,5,2
456,312,84330,2,0,B|384:352|312:312,1,150,4|0
272,224,85222,1,0
184,208,85580,2,0,B|80:208,1,99.9999999999999
0,160,86294,1,0
56,16,86830,5,2
144,64,87187,2,0,B|232:72|240:160,1,150,4|0
232,256,88080,1,0
312,192,88437,2,0,B|416:192,1,99.9999999999999
496,248,89151,1,0
392,360,89687,5,2
344,272,90044,2,0,B|272:232|200:272,1,150,4|0
128,344,90937,1,0
40,296,91294,2,0,B|16:256|40:200,1,99.9999999999999
112,136,92008,1,0
256,160,92544,5,2
200,240,92901,2,0,B|240:272|320:264|344:200,1,150,4|0
352,120,93794,1,0
416,40,94151,2,0,B|456:72|456:128,2,99.9999999999999
264,32,95401,5,2
176,80,95758,2,0,B|104:120|32:80,1,150,4|0
16,176,96651,1,0
32,272,97008,2,0,B|88:272|104:328,1,99.9999999999999
176,256,97722,1,0
280,368,98258,5,2
336,280,98615,2,0,B|488:280,1,150,4|0
440,192,99508,1,0
344,168,99865,2,0,B|368:112|416:96,2,99.9999999999999
200,216,101115,5,2
104,216,101472,2,0,B|40:200|24:136|40:88,1,150,4|0
136,120,102365,1,0
232,120,102722,5,4
