osu file format v9

[General]
AudioFilename: Seasons.mp3
AudioLeadIn: 0
PreviewTime: 35758
Countdown: 0
SampleSet: Soft
StackLeniency: 0.7
Mode: 0
LetterboxInBreaks: 0

[Editor]
Bookmarks: 88095,91130,93987,96845,99702,101130
DistanceSpacing: 1
BeatDivisor: 4
GridSize: 8

[Metadata]
Title:Seasons
Artist:TOMOSUKE feat. Crystal Paloa
Creator:ouranhshc
Version:Easy
Source:DanceDanceRevolution 2010
Tags:Dance Dance Revolution DDR

[Difficulty]
HPDrainRate:1
CircleSize:3
OverallDifficulty:1
ApproachRate:2
SliderMultiplier:0.799999999999999
SliderTickRate:2

[Events]
//Background and Video events
0,0,"Seasons_by_Yucki.jpg"
//Break Periods
//Storyboard Layer 0 (Background)
//Storyboard Layer 1 (Fail)
//Storyboard Layer 2 (Pass)
//Storyboard Layer 3 (Foreground)
//Storyboard Sound Samples
//Background Colour Transformations
3,100,163,162,255

[TimingPoints]
1473,357.142857142857,4,2,0,100,1,0
12812,-100,4,1,0,80,0,0
13615,-100,4,2,1,80,0,0
15669,-100,4,1,1,80,0,0
16383,-100,4,2,1,80,0,0
18437,-100,4,1,1,80,0,0
19240,-100,4,2,1,80,0,0
21383,-100,4,1,1,80,0,0
22097,-100,4,2,1,80,0,0
24687,-100,4,1,1,80,0,0
25044,-100,4,2,1,80,0,0
27097,-100,4,1,1,80,0,0
27812,-100,4,2,1,80,0,0
29955,-100,4,1,1,80,0,0
30133,-100,4,2,1,80,0,0
30490,-100,4,1,1,80,0,0
30669,-100,4,2,1,80,0,0
32812,-100,4,1,1,80,0,0
32990,-100,4,2,1,80,0,0
33347,-100,4,1,1,80,0,0
33526,-100,4,2,1,80,0,0
35669,-100,4,1,1,80,0,0
35847,-100,4,2,1,80,0,0
36740,-100,4,1,1,80,0,0
36919,-100,4,2,1,80,0,0
37097,-100,4,1,1,80,0,0
37276,-100,4,2,1,80,0,0
38169,-100,4,1,1,80,0,0
38705,-100,4,2,1,80,0,0
39062,-100,4,1,1,80,0,0
39240,-100,4,2,1,80,0,0
39597,-100,4,1,1,80,0,0
39776,-100,4,2,1,80,0,0
39955,-100,4,1,1,80,0,0
40133,-100,4,2,1,80,0,0
41383,-100,4,1,1,80,0,0
41562,-100,4,2,1,80,0,0
42455,-100,4,1,1,80,0,0
42633,-100,4,2,1,80,0,0
42812,-100,4,1,1,80,0,0
42990,-100,4,2,1,80,0,0
43883,-100,4,1,1,80,0,0
44419,-100,4,2,1,80,0,0
44776,-100,4,1,1,80,0,0
44955,-100,4,2,1,80,0,0
45312,-100,4,1,1,80,0,0
45490,-100,4,2,1,80,0,0
45669,-100,4,1,1,80,0,0
45847,-100,4,2,1,80,0,0
47097,-100,4,1,1,80,0,0
47276,-100,4,2,1,80,0,0
48169,-100,4,1,1,80,0,0
48347,-100,4,2,1,80,0,0
48526,-100,4,1,1,80,0,0
48705,-100,4,2,1,80,0,0
49597,-100,4,1,1,80,0,0
50133,-100,4,2,1,80,0,0
50490,-100,4,1,1,80,0,0
50669,-100,4,2,1,80,0,0
51026,-100,4,1,1,80,0,0
51205,-100,4,2,1,80,0,0
51383,-100,4,1,1,80,0,0
51562,-100,4,2,1,80,0,0
52812,-100,4,1,1,80,0,0
52990,-100,4,2,1,80,0,0
53883,-100,4,1,1,80,0,0
54062,-100,4,2,1,80,0,0
54240,-100,4,1,1,80,0,0
54419,-100,4,2,1,80,0,0
55312,-100,4,1,1,80,0,0
55847,-100,4,2,1,80,0,0
56205,-100,4,1,1,80,0,0
56383,-100,4,2,1,80,0,0
56740,-100,4,1,1,80,0,0
56919,-100,4,2,1,80,0,0
57097,-100,4,1,1,80,0,0
57276,-100,4,2,1,80,0,0
59240,-100,4,1,1,80,0,0
60133,-100,4,2,1,80,0,0
62812,-100,4,1,1,80,0,0
62990,-100,4,2,1,80,0,0
64955,-100,4,1,1,80,0,0
65847,-100,4,2,1,80,0,0
68526,-100,4,1,1,80,0,0
68705,-100,4,2,1,80,0,0
81919,-100,4,1,1,80,0,0
82544,-100,4,2,1,80,0,0
84776,-100,4,1,1,80,0,0
85401,-100,4,2,1,80,0,0
87633,-100,4,1,1,80,0,0
88258,-100,4,2,1,80,0,0
90490,-100,4,1,1,80,0,0
91115,-100,4,2,1,80,0,0
93347,-100,4,1,1,80,0,0
93972,-100,4,2,1,80,0,0
96205,-100,4,1,1,80,0,0
96830,-100,4,2,1,80,0,0
99062,-100,4,1,1,80,0,0
99687,-100,4,2,1,80,0,0
101919,-100,4,1,1,80,0,0
102544,-100,4,2,1,80,0,0

[Colours]
Combo1 : 255,192,130
Combo2 : 128,255,128
Combo3 : 128,255,255
Combo4 : 255,128,128

[HitObjects]
64,48,12901,1,0
64,168,13437,2,0,B|120:232|208:232,1,160
448,48,15758,5,0
448,168,16294,2,0,B|392:232|304:232,1,160
24,344,18615,5,0
120,280,19151,2,0,B|280:280,1,160
488,40,21472,5,0
392,104,22008,2,0,B|232:104,1,160
416,352,24330,5,4
304,312,24865,2,0,B|232:360|152:312,1,160
416,32,27187,5,0
304,72,27722,2,0,B|232:24|152:72,1,160
208,360,30044,6,0,B|96:344|80:256|96:168|208:152,1,320
256,8,32187,1,0
307,152,32901,2,0,B|416:168|432:256|416:344|304:360,1,320
104,112,35758,6,0,B|256:16|408:112,1,320
104,272,38615,2,0,B|256:368|408:272,1,320
176,48,41472,6,0,B|120:104|88:192|120:280|176:336,1,320
336,48,44330,2,0,B|392:104|424:192|392:280|336:336,1,320
16,368,47187,6,0,B|-24:304|64:224|112:288|160:344|232:296|224:232,1,320
496,16,50044,2,0,B|536:80|448:160|400:96|352:40|280:88|288:152,1,320
16,16,52901,6,0,B|-24:80|64:160|112:96|160:40|232:88|224:152,1,320
496,368,55758,2,0,B|536:304|448:224|400:288|352:344|280:296|288:232,1,320
32,328,58615,5,4
144,32,60044,1,0
256,328,61472,1,4
368,32,62901,1,0
480,328,64330,5,4
368,32,65758,1,0
256,328,67187,1,4
144,32,68615,1,0
32,328,70044,6,0,B|192:328,2,160,4|0|0
336,232,72901,2,0,B|176:232,2,160,0|0|0
200,32,75758,6,0,B|144:128|256:224|368:128|312:32,3,320,4|0|4|0
472,32,80758,1,0
480,192,81472,6,0,B|400:304,1,120,4|0
128,72,83615,5,0
32,192,84330,2,0,B|112:304,1,120,4|0
336,16,86472,5,0
312,176,87187,2,0,B|256:216|200:176,1,120,4|0
504,368,89330,5,0
352,320,90044,2,0,B|352:200,1,120,4|0
8,368,92187,5,0
160,320,92901,2,0,B|160:200,1,120,4|0
504,16,95044,5,0
352,64,95758,2,0,B|352:184,1,120,4|0
8,16,97901,5,0
160,64,98615,2,0,B|160:184,1,120,4|0
256,360,100758,5,0
312,208,101472,2,0,B|256:168|200:208,1,120,4|0
256,360,102722,1,4
