osu file format v9

[General]
AudioFilename: Macuilxochitl.mp3
AudioLeadIn: 1015
PreviewTime: 53327
Countdown: 0
SampleSet: Soft
StackLeniency: 0.7
Mode: 0
LetterboxInBreaks: 0

[Editor]
Bookmarks: 42686,73091,87685,99036,100860
DistanceSpacing: 0.8
BeatDivisor: 4
GridSize: 4

[Metadata]
Title:Macuilxochitl
Artist:TOMOSUKE
Creator:Charles445
Version:Another
Source:jubeat ripples
Tags:contemporary piano [Shalon]

[Difficulty]
HPDrainRate:6
CircleSize:4
OverallDifficulty:6
ApproachRate:8
SliderMultiplier:1.7
SliderTickRate:1

[Events]
//Background and Video events
0,0,"MacuilxochitlBGBetter.png"
//Break Periods
//Storyboard Layer 0 (Background)
//Storyboard Layer 1 (Fail)
//Storyboard Layer 2 (Pass)
//Storyboard Layer 3 (Foreground)
//Storyboard Sound Samples
//Background Colour Transformations
3,100,163,162,255

[TimingPoints]
1439.61576033427,405.405405405405,4,2,1,100,1,0
20085,405.405405405405,4,2,2,100,1,0
36199,-100,4,2,1,100,0,0
51706,405.405405405405,4,2,2,100,1,0
53276,-100,4,2,1,100,0,0
73192,405.405405405405,4,2,1,100,1,0

[Colours]
Combo1 : 255,173,51
Combo2 : 47,251,47
Combo3 : 84,84,252
Combo4 : 251,68,68

[HitObjects]
196,108,1439,6,0,B|256:72|316:108,2,127.5,2|2|2
120,148,2250,6,0,B|92:160|84:188,3,42.5
76,212,2655,2,0,B|68:248|88:272,3,42.5,2|0|0|0
96,288,3061,6,0,B|144:324,3,42.5
164,296,3466,2,0,B|212:260,3,42.5,2|0|0|0
232,248,3872,5,2
296,192,4074,1,0
296,192,4176,1,2
360,248,4378,1,0
360,248,4480,1,2
424,196,4682,6,0,B|468:152|444:76,2,127.5,0|2|2
356,136,5493,5,0
340,120,5595,1,0
324,104,5696,1,0
308,88,5797,1,0
292,76,5899,2,0,B|256:40,3,42.5,2|0|0|0
220,44,6304,6,0,B|187:70,3,42.5
169,88,6709,1,2
151,106,6811,1,0
135,126,6912,1,0
121,147,7013,1,0
108,172,7115,6,0,B|96:256|184:296,2,127.5,2|2|2
188,204,7926,5,2
256,156,8128,1,0
288,140,8230,2,0,B|336:124|404:148,1,85
408,156,8534,1,0
444,252,8736,5,0
424,259,8838,1,0
404,266,8939,1,0
384,274,9040,1,0
364,282,9142,1,0
344,290,9243,1,0
323,297,9345,1,0
303,304,9446,1,0
283,312,9547,6,0,B|208:336|208:336|160:324,1,127.5,2|0
120,308,9953,1,0
44,272,10155,1,0
128,208,10358,6,0,B|172:176,1,42.5
196,196,10561,2,0,B|240:164,1,42.5,0|0
328,108,10865,1,0
356,101,10966,1,0
385,99,11067,1,0
412,108,11169,6,0,B|456:132,3,42.5,2|2|0|0
448,168,11574,2,0,B|404:192,3,42.5,2|0|0|0
412,240,11980,2,0,B|456:264,3,42.5
422,301,12385,6,0,B|362:333|298:305,1,127.5,8|0
293,302,12790,2,0,B|233:270|169:298,1,127.5,8|0
163,300,13196,2,0,B|163:110,1,170,8|0
163,124,13703,2,0,B|163:31,2,85,2|2|2
332,40,14412,5,2
356,56,14513,1,0
380,72,14615,1,2
404,88,14716,1,0
428,104,14817,1,0
376,192,15020,1,0
356,216,15122,1,2
336,240,15223,6,0,B|296:284,3,42.5
284,288,15628,6,0,B|244:316|192:304,1,85,2|0
168,292,15932,2,0,B|176:219|124:158,1,127.5,2|0
156,140,16338,2,0,B|247:151|323:85,1,170,2|0
384,40,16946,1,0
384,40,17047,1,4
256,192,17149,12,2,18872
256,324,19581,5,0
216,248,19784,2,0,B|256:224|296:248,1,85
328,264,20085,6,0,B|368:284|416:264,1,85,4|0
432,256,20389,1,0
456,244,20490,1,8
456,132,20693,1,0
364,60,20895,5,8
348,48,20997,1,0
332,36,21098,1,0
312,48,21199,1,0
292,60,21301,5,8
276,48,21403,1,0
260,36,21504,1,0
240,48,21605,1,0
224,64,21706,6,0,B|152:132,1,85,8|0
144,140,22010,1,0
160,160,22112,2,0,B|221:218,1,85,8|0
240,236,22416,1,0
260,252,22517,6,0,B|288:268|300:304,3,42.5,8|0|0|0
292,308,22922,2,0,B|301:338|333:358,3,42.5,8|0|0|0
336,356,23328,5,8
359,365,23429,1,0
384,365,23530,1,0
408,358,23632,1,0
430,345,23733,1,8
448,327,23834,1,0
460,304,23936,1,0
462,278,24037,1,0
462,252,24139,6,0,B|457:206,3,42.5
449,185,24544,1,0
437,162,24645,1,0
421,141,24747,1,0
399,127,24848,1,0
376,112,24949,6,0,B|336:77|284:93,1,85,8|0
276,104,25253,2,0,B|236:139|184:123,1,85
172,124,25557,1,0
40,96,25760,6,0,B|40:196,1,85,8|0
84,180,26064,2,0,B|84:280,1,85
128,264,26368,1,0
208,232,26571,5,8
240,220,26672,1,0
272,208,26774,1,0
300,188,26875,2,0,B|340:156|340:108,2,85
252,160,27382,6,0,B|208:136,3,42.5,8|0|0|0
188,124,27787,2,0,B|144:100,2,42.5,8|0|0
112,202,28193,5,8
112,230,28294,1,0
112,258,28395,1,0
112,286,28497,2,0,B|112:314|112:314|126:333|126:333|126:364,2,85
152,278,29003,6,0,B|204:258,3,42.5,8|0|0|0
220,253,29409,1,8
248,244,29510,1,0
276,234,29612,1,0
348,160,29814,6,0,B|380:116,1,42.5,10|0
368,92,30017,2,0,B|336:48,1,42.5,0|0
320,32,30220,1,8
224,64,30422,2,0,B|180:84,1,42.5,2|0
152,93,30625,6,0,B|108:113,1,42.5,10|0
84,125,30828,2,0,B|44:157,1,42.5,0|0
28,173,31031,1,8
70,265,31233,1,2
93,283,31334,1,0
119,296,31436,6,0,B|171:322,3,42.5,8|0|0|0
184,326,31841,1,8
213,333,31943,1,0
242,334,32044,1,0
271,329,32145,1,0
296,312,32247,5,8
321,296,32348,1,0
350,292,32449,1,0
378,300,32551,1,0
405,310,32652,1,8
434,310,32753,1,0
461,299,32855,1,0
484,280,32956,1,0
498,254,33057,6,0,B|508:201,3,42.5,8|0|0|0
512,184,33463,2,0,B|508:104|437:78,2,127.5,2|0|0
420,172,34274,1,8
328,156,34476,1,0
232,136,34679,6,0,B|168:120,3,42.5,8|0|0|0
192,180,35084,2,0,B|120:184,3,42.5,8|0|0|0
168,228,35490,6,0,B|100:260,3,42.5,8|0|0|0
168,288,35895,2,0,B|84:352,1,85,8|0
52,272,36301,5,4
52,272,36402,1,0
84,192,36605,1,0
52,112,36807,1,0
84,32,37010,6,4,B|144:56|208:32,1,127.5
460,272,38024,5,4
428,192,38227,1,0
460,112,38429,1,0
428,32,38632,6,4,B|368:56|304:32,1,127.5
128,280,39544,6,0,B|176:292,3,42.5,4|0|0|0
208,288,39949,2,0,B|256:276,3,42.5,8|0|0|0
288,264,40355,6,0,B|380:236,1,85
408,144,40760,2,0,B|326:168,1,85,8|0
228,196,41166,6,0,B|168:208,3,42.5
172,152,41571,2,0,B|116:152,3,42.5,8|0|0|0
160,100,41976,6,0,B|172:48|220:32,1,85
352,100,42382,2,0,B|340:48|292:32,1,85,8|0
256,128,42787,5,0
256,156,42889,1,0
256,184,42990,1,0
256,212,43091,1,0
256,240,43193,2,0,B|256:292,3,42.5,8|0|0|0
220,304,43598,6,0,B|183:332|121:319,1,85
288,304,44003,2,0,B|324:332|386:319,1,85,8|0
459,275,44409,5,0
475,261,44510,1,0
487,243,44612,1,0
495,223,44713,1,0
496,201,44814,1,8
490,180,44916,1,0
474,165,45017,1,0
456,152,45118,1,0
436,144,45220,5,0
414,144,45321,1,0
393,138,45422,1,0
374,126,45524,1,0
357,112,45625,1,8
185,72,46030,6,0,B|159:86|147:102,3,42.5,4|0|0|0
140,143,46436,2,0,B|131:154|105:168,3,42.5,8|0|0|0
106,215,46841,6,0,B|131:229|140:241,3,42.5,0|0|0|0
150,286,47247,2,0,B|159:298|185:312,3,42.5,8|0|0|0
203,321,47652,6,0,B|304:349,1,85
432,295,48057,2,0,B|350:272,1,85,8|0
253,240,48463,5,0
234,230,48564,1,0
217,216,48666,1,0
205,198,48767,1,0
201,177,48868,1,8
209,157,48970,1,0
207,135,49071,1,0
198,115,49172,1,0
189,95,49274,6,0,B|172:77|161:46,3,42.5
199,39,49679,2,0,B|247:13,3,42.5,8|0|0|0
275,18,50084,6,0,B|313:39,3,42.5
345,59,50490,2,0,B|340:77|323:95,3,42.5,8|0|0|0
314,114,50895,6,0,B|285:192|329:261,2,127.5
198,114,51706,6,0,B|227:192|183:261,2,127.5,2|2|0
108,68,52516,5,2
108,68,52618,1,2
36,140,52820,1,2
36,244,53023,1,2
110,320,53226,1,4
122,328,53327,6,0,B|170:348,3,42.5
202,344,53733,2,0,B|258:328,3,42.5,8|0|0|0
278,320,54138,6,0,B|354:288|366:220,1,127.5,2|2
374,128,54645,1,0
374,128,54746,1,0
286,80,54949,5,0
264,66,55050,1,0
239,59,55151,1,0
213,60,55253,1,0
189,70,55354,1,8
168,85,55456,1,0
144,95,55557,1,0
119,102,55658,1,0
93,104,55760,6,0,B|-2:106,1,85,2|0
8,278,56165,2,0,B|93:280,1,85,8|0
228,258,56570,6,0,B|294:247,3,42.5,4|0|0|0
294,245,56976,1,8
317,234,57077,1,0
336,217,57178,1,0
350,195,57280,1,0
362,173,57381,6,0,B|387:112|341:45,1,127.5,2|2
256,116,57888,1,0
256,116,57989,1,0
166,51,58192,6,0,B|125:112|150:173,1,127.5
164,196,58597,1,8
356,324,59003,6,0,B|396:376|420:300|476:364,2,127.5
264,272,59814,5,0
240,261,59915,1,0
214,256,60016,1,0
189,263,60118,1,0
169,279,60219,1,8
143,281,60320,1,0
119,271,60422,1,0
100,253,60523,1,0
85,231,60624,6,0,B|54:169|79:107,2,127.5,2|2|0
169,176,61435,6,0,B|204:143|212:88,1,85
329,57,61841,2,0,B|294:90|286:145,1,85,8|0
345,215,62246,6,0,B|380:182|388:127,2,85,0|0|8
327,233,62753,1,0
309,251,62854,1,0
291,269,62955,1,0
278,282,63057,6,0,B|242:312|199:310,1,85,4|4
110,273,63462,6,0,B|72:255,3,42.5,8|0|0|0
95,210,63868,2,0,B|134:197,3,42.5,0|8|8|8
116,151,64273,2,0,B|78:133,3,42.5,0|0|8|0
102,89,64678,6,4,B|189:44,1,85
245,126,65084,6,0,B|277:160,3,42.5,8|0|0|0
324,165,65489,2,0,B|356:199,3,42.5,0|8|8|8
404,198,65895,2,0,B|436:232,3,42.5,0|0|8|0
481,242,66300,6,4,B|492:286|458:324,1,85
363,287,66705,6,0,B|327:273|301:289,3,42.5,8|0|0|0
294,324,67111,2,0,B|258:338|232:322,3,42.5,0|8|8|8
225,286,67516,2,0,B|189:272|163:288,3,42.5,0|0|8|0
153,321,67922,6,4,B|112:350|50:318,1,85
64,224,68327,6,0,B|63:166,3,42.5,8|0|0|0
89,137,68733,2,0,B|127:109,3,42.5,0|8|8|8
172,97,69138,2,0,B|214:96,3,42.5,0|0|8|0
264,104,69543,6,4,B|335:116|377:65,4,127.5,4|4|4|4|0
248,280,71165,6,4,B|176:267|134:318,4,127.5,4|4|4|4|0
268,288,72483,1,0
290,299,72584,1,0
314,304,72685,1,0
339,304,72787,6,0,B|389:289,3,42.5
405,281,73192,6,0,B|453:269|464:218,1,85,4|0
468,192,73496,1,0
462,159,73597,2,0,B|453:115|405:103,1,85,8|0
384,96,73901,1,0
360,92,74002,5,2
256,128,74205,1,0
152,92,74408,1,8
256,56,74610,1,0
360,92,74813,6,0,B|380:132|352:180,1,85
340,204,75117,2,0,B|312:272|368:320,1,127.5,2|0
396,324,75523,1,0
424,320,75624,6,0,B|480:256|452:156,1,170,0|8
440,136,76131,1,0
424,112,76232,1,0
400,92,76333,1,0
380,76,76435,6,0,B|320:44|332:56,3,42.5
317,49,76840,1,8
291,43,76942,1,0
265,42,77043,1,0
239,45,77144,1,0
215,55,77246,6,0,B|171:83,3,42.5
158,92,77651,2,0,B|121:138,3,42.5,8|0|0|0
120,147,78056,6,0,B|106:187,3,42.5
102,212,78462,1,8
100,237,78563,1,0
105,261,78664,1,0
112,285,78766,1,0
124,311,78867,5,0
200,232,79070,1,2
256,324,79273,1,2
312,232,79475,1,2
387,312,79678,6,0,B|427:343|464:312,1,85
488,288,79982,1,0
492,256,80083,2,0,B|492:164,1,85,8|0
487,137,80387,1,0
474,105,80489,5,0
366,61,80692,1,0
256,104,80894,1,8
146,61,81097,1,0
38,105,81300,6,0,B|19:149|37:188,1,85
64,207,81604,2,0,B|98:230|144:193|185:261,1,127.5,2|0
189,282,82009,1,0
204,311,82110,6,0,B|262:368|333:346|369:295,1,170,0|8
379,286,82617,1,0
398,257,82719,1,0
414,227,82820,1,0
425,195,82921,6,0,B|435:132,3,42.5
424,119,83327,1,8
406,90,83428,1,0
380,67,83529,1,0
350,50,83631,1,0
316,42,83732,6,0,B|264:40,3,42.5
240,47,84137,2,0,B|197:60,3,42.5,8|0|0|0
169,76,84543,5,0
143,91,84644,1,0
126,115,84746,1,0
120,144,84847,1,0
124,173,84948,1,8
137,199,85050,1,0
157,220,85151,1,0
185,229,85252,1,0
214,226,85354,5,0
242,217,85455,1,0
267,201,85556,1,0
292,185,85658,1,0
320,176,85759,1,8
349,175,85860,1,0
378,179,85962,1,0
403,193,86063,1,0
426,211,86164,6,0,B|454:258,3,42.5,6|2|2|2
459,275,86570,1,0
460,304,86671,1,0
448,331,86773,1,0
427,351,86874,1,0
399,361,86975,6,0,B|353:372,3,42.5,0|2|2|2
327,373,87381,1,2
297,367,87482,1,2
269,356,87583,1,2
245,338,87685,1,0
219,322,87786,6,0,B|176:272|100:292,2,127.5
293,322,88597,6,0,B|336:272|412:292,2,127.5
256,252,89408,6,0,B|256:192,3,42.5,2|2|2|2
256,179,89813,1,0
259,149,89914,1,0
266,120,90016,1,0
281,94,90117,1,0
306,78,90219,6,0,B|331:62|362:56,3,42.5,0|2|2|2
375,60,90624,1,2
404,65,90725,1,2
427,83,90827,1,2
444,106,90928,1,0
457,131,91029,6,0,B|490:192|457:253,2,127.5
384,192,91840,6,0,B|252:192,2,127.5
379,274,92651,6,0,B|323:307,3,42.5,2|2|2|2
317,311,93056,1,0
287,317,93158,1,0
257,319,93259,1,0
227,318,93360,1,0
197,314,93462,6,0,B|146:304,3,42.5,0|2|2|2
129,292,93867,1,2
103,276,93969,1,2
78,259,94070,1,2
55,239,94171,1,0
34,216,94273,6,0,B|-13:163|21:90,2,127.5
83,149,95083,6,0,B|87:78|162:50,2,127.5
159,206,95894,6,0,B|200:244,3,42.5,2|2|2|2
211,255,96300,1,0
235,271,96401,1,0
262,283,96502,1,0
291,288,96604,1,0
320,288,96705,6,0,B|347:289|380:274,3,42.5,0|2|2|2
390,272,97110,1,2
416,258,97212,1,2
440,241,97313,1,2
462,221,97414,1,0
476,192,97516,6,0,B|500:140|468:68,2,127.5
476,192,98327,6,0,B|500:244|468:316,2,127.5
400,116,99137,5,4
316,48,99340,2,4,B|256:12|196:48,1,127.5,4|0
165,64,99746,1,0
137,83,99847,1,0
114,107,99948,5,0
100,138,100050,1,0
99,171,100151,1,0
112,201,100252,1,0
136,225,100354,5,0
167,237,100455,1,0
200,233,100556,1,0
230,217,100658,1,0
256,192,100759,5,4
