osu file format v12

[General]
AudioFilename: Ergosphere.mp3
AudioLeadIn: 1809
PreviewTime: 13037
Countdown: 0
SampleSet: Soft
StackLeniency: 0.3
Mode: 0
LetterboxInBreaks: 0

[Editor]
Bookmarks: 50154,51213,53948,54037,55272,57213,58272,84037
DistanceSpacing: 0.7
BeatDivisor: 4
GridSize: 4

[Metadata]
Title:Ergosphere
TitleUnicode:Ergosphere
Artist:TOMOSUKE
ArtistUnicode:TOMOSUKE
Creator:Charles445
Version:Hyper
Source:Pop'n Music 16 PARTY
Tags:collapse jazz Mr Color
BeatmapID:169483
BeatmapSetID:53547

[Difficulty]
HPDrainRate:5
CircleSize:4
OverallDifficulty:6
ApproachRate:7
SliderMultiplier:1.5
SliderTickRate:1

[Events]
//Background and Video events
0,0,"ergobg.jpg",0,0
//Break Periods
//Storyboard Layer 0 (Background)
//Storyboard Layer 1 (Fail)
//Storyboard Layer 2 (Pass)
//Storyboard Layer 3 (Foreground)
//Storyboard Sound Samples
//Background Colour Transformations
3,100,163,162,255

[TimingPoints]
-3845,352.941176470588,4,2,1,80,1,0
831,-100,4,2,2,100,0,0
963,-100,4,2,2,90,0,0
1051,-100,4,2,2,70,0,0
1139,-100,4,2,2,80,0,0
1213,-100,4,2,2,80,0,0
1404,-100,4,2,2,65,0,0
1581,-100,4,2,2,80,0,0
1757,-100,4,2,2,100,0,0
13007,-100,4,2,1,100,0,0
13184,-100,4,2,1,100,0,0
24478,-100,4,2,2,60,0,0
26595,-100,4,2,2,100,0,0
27301,-100,4,2,1,100,0,0
37537,-100,4,2,1,70,0,0
37934,-100,4,2,1,75,0,0
38110,-100,4,2,1,85,0,0
38287,-100,4,2,1,95,0,0
38463,-100,4,2,1,100,0,0
48831,-100,4,2,1,60,0,0
49228,-100,4,2,1,75,0,0
49404,-100,4,2,1,85,0,0
49581,-100,4,2,1,95,0,0
49757,-100,4,2,2,100,0,0
49978,-80,4,2,2,100,0,0
51875,-100,4,2,1,100,0,0
52228,-100,4,2,1,60,0,0
52581,-100,4,2,1,100,0,0
54213,-80,4,2,2,100,0,0
55184,-100,4,2,1,100,0,0
58228,-80,4,2,2,100,0,0
59639,-100,4,2,2,100,0,0
60684,-80,4,2,2,100,0,0
61037,-100,4,2,2,100,0,0
64360,-80,4,2,2,100,0,0
65625,-100,4,2,2,100,0,0
68095,-80,4,2,2,100,0,0
69507,-100,4,2,2,100,0,0
69610,-100,4,2,1,100,0,0
77272,-100,4,2,1,100,0,0
80331,-133.333333333333,4,2,1,70,0,0
80816,-100,4,2,1,100,0,0
95860,-80,4,2,1,100,0,0
97272,-100,4,2,1,80,0,0
97742,-80,4,2,1,100,0,0
99037,-100,4,2,1,100,0,0
99978,-80,4,2,1,100,0,0
101037,-100,4,2,1,100,0,0
101742,-80,4,2,1,100,0,0
102684,-100,4,2,1,100,0,0
103389,-100,4,2,1,15,0,0

[Colours]
Combo1 : 128,224,31
Combo2 : 255,128,0
Combo3 : 153,255,0
Combo4 : 255,102,0

[HitObjects]
396,96,390,6,0,L|252:144,1,150,4|4,0:0|0:0,0:0:0:0:
192,92,919,2,0,B|160:132|172:204|228:216|232:220|232:220|240:224|292:236|304:308|272:348,1,300,8|8,0:0|0:0,0:0:0:0:
360,328,1801,6,0,B|412:360|472:344,2,112.5,12|8|0,0:0|0:0|0:0,0:0:0:0:
416,268,2507,1,2,0:0:0:0:
396,188,2684,1,0,0:0:0:0:
440,120,2860,6,0,B|380:92|332:136,2,112.5,10|8|0,0:0|0:0|0:0,0:0:0:0:
396,188,3566,1,2,0:0:0:0:
316,212,3742,1,0,0:0:0:0:
368,280,3919,2,0,B|392:364,1,75,2|8,0:0|0:0,0:0:0:0:
304,356,4272,2,0,B|280:272,1,75,10|0,0:0|0:0,0:0:0:0:
208,292,4625,6,0,B|148:316|104:268,2,112.5,14|8|0,0:0|0:0|0:0,0:0:0:0:
168,220,5331,1,2,0:0:0:0:
208,148,5507,1,0,0:0:0:0:
184,68,5684,6,0,B|68:68,2,112.5,10|8|0,0:0|0:0|0:0,0:0:0:0:
256,24,6389,1,2,0:0:0:0:
256,24,6566,1,0,0:0:0:0:
324,72,6742,2,0,B|356:48|400:60,1,75,2|8,0:0|0:0,0:0:0:0:
444,116,7095,2,0,B|412:140|368:128,1,75,2|2,0:0|0:0,0:0:0:0:
296,144,7448,6,8,B|288:208|340:244,2,112.5,14|8|0,0:0|0:0|0:0,0:0:0:0:
376,168,8154,1,2,0:0:0:0:
452,204,8331,1,0,0:0:0:0:
424,280,8507,6,0,B|488:296|524:240,2,112.5,8|8|0,0:0|0:0|0:0,0:0:0:0:
368,340,9213,1,2,0:0:0:0:
284,344,9389,1,0,0:0:0:0:
208,372,9566,2,0,B|124:364,1,75,2|8,0:0|0:0,0:0:0:0:
104,292,9919,2,8,B|188:300,1,75,10|0,0:0|0:0,0:0:0:0:
212,232,10272,6,0,B|160:208|96:224,2,112.5,14|8|0,0:0|0:0|0:0,0:0:0:0:
292,208,10978,1,2,0:0:0:0:
368,236,11154,1,8,0:0:0:0:
356,152,11331,6,0,B|380:96|352:32,2,112.5,10|8|0,0:0|0:0|0:0,0:0:0:0:
280,120,12037,1,2,0:0:0:0:
216,68,12213,1,0,0:0:0:0:
136,80,12390,2,0,B|132:38|162:12,2,75,2|8|10,0:0|0:0|0:0,0:0:0:0:
88,148,12919,1,0,0:0:0:0:
168,164,13095,5,12,0:0:0:0:
120,232,13272,1,0,0:0:0:0:
172,296,13448,1,2,0:0:0:0:
248,264,13625,2,0,B|328:232|392:288,1,150,8|8,0:0|0:0,0:0:0:0:
464,320,14154,2,0,B|464:244,1,75,2|8,0:0|0:0,0:0:0:0:
492,176,14507,5,0,0:0:0:0:
420,164,14684,1,0,0:0:0:0:
464,108,14860,1,2,0:0:0:0:
416,52,15037,2,8,B|368:112|272:96,1,150,8|2,0:0|0:0,0:0:0:0:
200,76,15566,2,0,B|188:116|216:152,1,75,2|8,0:0|0:0,0:0:0:0:
140,196,15919,5,12,0:0:0:0:
140,196,16095,1,0,0:0:0:0:
68,236,16272,1,2,0:0:0:0:
32,312,16449,2,0,B|104:348|188:316,1,150,8|8,0:0|0:0,0:0:0:0:
256,296,16978,1,2,0:0:0:0:
332,264,17154,6,0,B|405:235|477:271,1,150,8|0,0:0|0:0,0:0:0:0:
472,192,17684,1,2,0:0:0:0:
477,112,17860,6,0,B|405:148|332:120,1,150,8|2,0:0|0:0,0:0:0:0:
272,64,18389,2,0,B|192:88,1,75,2|8,0:0|0:0,0:0:0:0:
128,124,18742,5,12,0:0:0:0:
84,192,18919,1,0,0:0:0:0:
136,256,19095,1,2,0:0:0:0:
84,316,19272,2,0,B|128:352|200:332|212:276,1,150,8|8,0:0|0:0,0:0:0:0:
256,216,19801,1,2,0:0:0:0:
324,264,19978,1,8,0:0:0:0:
396,228,20154,6,0,B|480:228,2,75,0|0|2,0:0|0:0|0:0,0:0:0:0:
344,164,20684,2,0,B|324:128|344:88,1,75,8|0,0:0|0:0,0:0:0:0:
272,48,21037,2,0,B|116:48,1,150,2|8,0:0|0:0,0:0:0:0:
48,84,21566,5,12,0:0:0:0:
120,124,21742,1,0,0:0:0:0:
48,168,21919,1,2,0:0:0:0:
120,208,22096,2,0,B|88:260|140:320|196:296,1,150,8|8,0:0|0:0,0:0:0:0:
256,248,22625,1,2,0:0:0:0:
321,298,22801,6,0,B|372:320|424:260|392:208,1,150,8|8,0:0|0:0,0:0:0:0:
428,136,23331,1,2,0:0:0:0:
404,56,23507,2,0,B|96:56,1,300,0|8,0:0|0:0,0:0:0:0:
84,136,24389,1,8,0:0:0:0:
256,192,24478,12,8,26507,0:0:0:0:
60,276,27213,6,0,B|104:344|196:324,1,150,4|2,0:0|0:0,0:0:0:0:
256,272,27742,1,8,0:0:0:0:
408,336,28095,1,8,0:0:0:0:
472,284,28272,1,2,0:0:0:0:
436,208,28449,6,0,B|404:140|428:60,1,150
352,24,28978,1,2,0:0:0:0:
280,68,29154,2,0,B|228:68|228:68|192:96|192:96|128:96,1,150,8|8,0:0|0:0,0:0:0:0:
76,44,29684,1,2,0:0:0:0:
32,204,30037,5,8,0:0:0:0:
44,284,30213,1,0,0:0:0:0:
124,268,30389,1,2,0:0:0:0:
112,188,30566,2,0,B|168:120|248:144,1,150,8|8,0:0|0:0,0:0:0:0:
300,208,31095,1,2,0:0:0:0:
304,292,31272,6,0,B|248:360|168:336,2,150,0|8|8,0:0|0:0|0:0,0:0:0:0:
372,248,32154,1,0,0:0:0:0:
448,280,32331,1,8,0:0:0:0:
500,216,32507,1,2,0:0:0:0:
456,148,32684,1,8,0:0:0:0:
376,160,32860,6,0,B|320:184|268:136|284:80,1,150,8|2,0:0|0:0,0:0:0:0:
352,40,33390,2,0,B|432:8|500:72,2,150,8|8|0,0:0|0:0|0:0,0:0:0:0:
284,84,34272,1,8,0:0:0:0:
208,52,34448,2,0,B|124:52,1,75,0|2,0:0|0:0,0:0:0:0:
68,104,34801,2,0,B|40:176|72:256,1,150,8|8,0:0|0:0,0:0:0:0:
36,328,35331,1,2,0:0:0:0:
200,348,35684,5,8,0:0:0:0:
244,280,35860,2,0,B|276:304|324:296,1,75,0|2,0:0|0:0,0:0:0:0:
388,256,36213,2,0,B|444:248|476:320|428:360,2,150,8|8|8,0:0|0:0|0:0,0:0:0:0:
336,192,37096,6,0,B|295:127|307:43,1,150,8|2,0:0|0:0,0:0:0:0:
204,47,37625,2,2,B|216:128|176:192,1,150,8|8,0:0|0:0,0:0:0:0:
100,160,38154,1,2,0:0:0:0:
100,160,38331,1,8,0:0:0:0:
72,236,38507,6,0,B|40:284|96:344|148:316,1,150,12|2,0:0|0:0,0:0:0:0:
180,240,39037,2,0,B|340:240,1,150,8|8,0:0|0:0,0:0:0:0:
404,200,39566,1,2,0:0:0:0:
332,160,39743,6,0,B|172:160,1,150
116,212,40272,1,2,0:0:0:0:
72,148,40449,2,0,B|40:100|96:40|148:68,1,150,8|8,0:0|0:0,0:0:0:0:
216,24,40978,1,2,0:0:0:0:
376,68,41331,5,8,0:0:0:0:
456,44,41507,1,0,0:0:0:0:
436,124,41684,1,2,0:0:0:0:
416,204,41860,2,0,B|400:240|420:284,1,75,8|0,0:0|0:0,0:0:0:0:
344,296,42213,2,0,B|268:296|268:296|204:336,1,150,8|0,0:0|0:0,0:0:0:0:
116,116,42919,6,0,B|192:116|192:116|256:76,2,150,0|8|8,0:0|0:0|0:0,0:0:0:0:
68,184,43801,1,2,0:0:0:0:
112,256,43978,1,0,0:0:0:0:
144,332,44154,6,0,B|196:316|212:248|180:200,1,150,8|2,0:0|0:0,0:0:0:0:
256,164,44684,1,8,0:0:0:0:
256,164,44860,1,0,0:0:0:0:
327,206,45037,2,0,B|296:248|312:312|368:332,1,150,8|0,0:0|0:0,0:0:0:0:
432,376,45566,1,8,0:0:0:0:
456,304,45743,2,0,B|487:262|471:198|415:178,2,150,0|0|8,0:0|0:0|0:0,0:0:0:0:
392,256,46625,1,2,0:0:0:0:
360,92,46978,6,0,B|440:92,2,75,8|0|2,0:0|0:0|0:0,0:0:0:0:
292,40,47507,2,0,B|256:24|216:40,1,75,8|0,0:0|0:0,0:0:0:0:
220,120,47860,2,0,B|256:136|293:121,1,75,8|2,0:0|0:0,0:0:0:0:
336,192,48213,6,0,B|372:268|319:333,1,150
256,280,48742,1,2,0:0:0:0:
192,333,48919,2,2,B|140:268|176:192,1,150,0|8,0:0|0:0,0:0:0:0:
256,168,49448,1,2,0:0:0:0:
300,100,49625,1,8,0:0:0:0:
212,100,49801,1,12,0:0:0:0:
380,64,50154,6,0,B|336:8|260:24,2,125,8|8|8,0:0|0:0|0:0,0:0:0:0:
356,176,50860,2,0,B|400:232|476:216,2,125,8|8|8,0:0|0:0|0:0,0:0:0:0:
256,156,51566,2,0,B|256:228|208:276,1,125,8|8,0:0|0:0,0:0:0:0:
172,280,51919,2,0,B|96:240|28:272,2,150,8|10|8,0:0|0:0|0:0,0:0:0:0:
356,280,52890,6,0,B|432:240|500:272,1,150,4|4,0:0|0:0,0:0:0:0:
508,112,53596,2,0,B|428:148|364:104,1,150,8|8,0:0|0:0,0:0:0:0:
344,84,54037,1,4,0:0:0:0:
164,84,54389,5,10,0:0:0:0:
132,104,54507,2,0,B|68:128|-4:88,2,125,10|10|10,0:0|0:0|0:0,0:0:0:0:
104,276,55389,6,0,B|144:228|216:228,1,125,4|8,0:0|0:0,0:0:0:0:
248,232,55801,2,0,B|328:256|404:232,2,150,8|8|8,0:0|0:0|0:0,0:0:0:0:
320,60,57213,6,0,B|320:116|392:148,1,100,4|0,0:0|0:0,0:0:0:0:
452,212,57684,2,0,B|496:252,2,50,0|8|8,0:0|0:0|0:0,0:0:0:0:
348,232,58154,1,0,0:0:0:0:
308,248,58272,6,0,B|249:248|249:248|194:285,1,125,2|0,0:0|0:0,0:0:0:0:
40,240,58742,2,0,B|100:240|100:240|153:204,1,125,2|0,0:0|0:0,0:0:0:0:
192,188,59095,1,2,0:0:0:0:
208,72,59331,1,0,0:0:0:0:
332,72,59566,1,0,0:0:0:0:
364,72,59684,6,0,B|424:80|448:132,2,100,2|0|0,0:0|0:0|0:0,0:0:0:0:
320,148,60389,2,0,B|340:192|400:200,2,100,2|2|2,0:0|0:0|0:0,0:0:0:0:
216,56,61095,6,0,B|156:44|104:56,1,112.5,0|2,0:0|0:0,0:0:0:0:
64,144,61537,2,0,B|124:156|176:144,1,112.5,0|2,0:0|0:0,0:0:0:0:
176,240,61978,2,0,B|124:228|64:240,1,112.5,0|2,0:0|0:0,0:0:0:0:
104,328,62420,2,0,B|156:340|216:328,1,112.5,0|2,0:0|0:0,0:0:0:0:
332,236,62860,6,0,B|368:279|420:279,1,100,0|2,0:0|0:0,0:0:0:0:
452,268,63214,1,0,0:0:0:0:
484,252,63331,2,0,B|520:209|511:157,1,100
404,96,63801,1,0,0:0:0:0:
368,96,63919,2,0,B|216:96,1,150,2|2,0:0|0:0,0:0:0:0:
124,160,64507,6,0,B|108:232|168:276,2,125
96,144,65095,1,0,0:0:0:0:
16,52,65331,2,0,B|4:112,2,62.5,0|2|2,0:0|0:0|0:0,0:0:0:0:
48,36,65684,6,0,B|128:12|196:60,1,150,4|8,0:0|0:0,0:0:0:0:
304,92,66272,2,0,B|356:108|404:84,1,100,8|8,0:0|0:0,0:0:0:0:
432,180,66743,2,0,B|363:214|285:190,1,150,6|0,0:0|0:0,0:0:0:0:
256,184,67213,1,2,0:0:0:0:
316,276,67448,1,2,0:0:0:0:
196,276,67684,1,2,0:0:0:0:
144,180,67919,1,2,0:0:0:0:
185,69,68154,6,0,B|244:48|308:72,1,125,6|2,0:0|0:0,0:0:0:0:
404,128,68625,2,0,B|425:186|401:250,1,125,2|2,0:0|0:0,0:0:0:0:
308,312,69095,2,0,B|244:335|180:311,1,125,2|2,0:0|0:0,0:0:0:0:
104,248,69566,6,0,B|68:176|96:100,1,150,12|8,0:0|0:0,0:0:0:0:
112,72,70037,1,0,0:0:0:0:
180,116,70272,2,0,B|156:163|174:213,2,100,8|2|2,0:0|0:0|0:0,0:0:0:0:
256,64,70978,6,0,B|256:8,2,50,8|0|0,0:0|0:0|0:0,0:0:0:0:
256,152,71448,1,0,0:0:0:0:
332,116,71684,2,0,B|355:163|337:213,2,100,8|2|2,0:0|0:0|0:0,0:0:0:0:
408,88,72390,6,0,B|444:160|416:236,1,150,8|8,0:0|0:0,0:0:0:0:
404,264,72860,1,0,0:0:0:0:
328,304,73095,2,0,B|360:348|416:344,2,100,8|2|2,0:0|0:0|0:0,0:0:0:0:
256,256,73801,2,0,B|256:200,2,50,8|0|0,0:0|0:0|0:0,0:0:0:0:
256,348,74272,1,0,0:0:0:0:
184,304,74507,2,0,B|152:352|96:348,2,100,8|2|2,0:0|0:0|0:0,0:0:0:0:
104,260,75213,6,0,B|68:188|96:112,1,150,8|8,0:0|0:0,0:0:0:0:
116,88,75684,2,0,B|172:88,2,50,0|0|8,0:0|0:0|0:0,0:0:0:0:
200,156,76154,1,2,0:0:0:0:
312,156,76389,1,2,0:0:0:0:
408,124,76625,6,0,B|444:196|416:272,1,150,8|8,0:0|0:0,0:0:0:0:
396,300,77096,2,0,B|344:300,2,50,0|0|8,0:0|0:0|0:0,0:0:0:0:
312,228,77566,1,2,0:0:0:0:
200,228,77801,1,2,0:0:0:0:
180,140,78037,6,0,B|256:112|332:140,1,150,8|8,0:0|0:0,0:0:0:0:
356,148,78507,1,0,0:0:0:0:
404,236,78743,2,0,B|432:288|404:344,2,100,8|2|2,0:0|0:0|0:0,0:0:0:0:
328,288,79449,6,0,B|256:312|180:288,2,150,4|4|4,0:0|0:0|0:0,0:0:0:0:
256,184,80389,1,2,0:0:0:0:
256,184,80625,1,2,0:0:0:0:
208,108,80860,6,0,B|136:148|64:108,1,150,4|2,0:0|0:0,0:0:0:0:
20,176,81389,1,0,0:0:0:0:
68,244,81566,2,0,P|88:272|88:320,1,75
188,348,81919,2,0,P|168:320|168:272,1,75,2|0,0:0|0:0,0:0:0:0:
260,284,82272,6,0,B|312:260|364:288|372:344,1,150,0|2,0:0|0:0,0:0:0:0:
448,316,82801,1,0,0:0:0:0:
416,228,82978,2,0,L|488:192,1,75
384,140,83331,2,0,L|456:104,1,75,2|0,0:0|0:0,0:0:0:0:
324,60,83684,6,0,B|288:40|244:56,1,75
208,116,84037,2,0,B|244:136|288:120,1,75,2|0,0:0|0:0,0:0:0:0:
300,204,84389,1,0,0:0:0:0:
220,228,84566,1,0,0:0:0:0:
281,284,84742,2,0,L|338:333,1,75,2|0,0:0|0:0,0:0:0:0:
184,344,85096,6,0,B|36:344,1,150,0|2,0:0|0:0,0:0:0:0:
56,252,85625,1,0,0:0:0:0:
32,165,85801,1,0,0:0:0:0:
32,165,85978,1,0,0:0:0:0:
60,80,86154,1,2,0:0:0:0:
143,41,86331,1,0,0:0:0:0:
184,120,86507,6,0,B|224:104|260:120|260:120|300:140|336:120,1,150,0|2,0:0|0:0,0:0:0:0:
300,44,87037,1,0,0:0:0:0:
380,60,87213,2,0,L|456:72,1,75
428,152,87566,1,2,0:0:0:0:
488,208,87742,1,0,0:0:0:0:
444,276,87919,6,0,B|372:248|296:284,1,150,0|2,0:0|0:0,0:0:0:0:
232,332,88448,1,0,0:0:0:0:
152,356,88625,2,0,P|116:368|80:356,1,75
44,264,88978,2,0,P|80:252|116:264,1,75,2|0,0:0|0:0,0:0:0:0:
68,148,89331,6,0,B|52:116|64:76,1,75
160,60,89684,2,0,B|176:92|164:132,1,75,2|0,0:0|0:0,0:0:0:0:
264,200,90037,2,0,B|248:168|260:128,1,75
356,112,90390,2,0,B|372:144|360:184,1,75,2|0,0:0|0:0,0:0:0:0:
380,276,90742,6,0,B|420:328|480:316,2,112.5,4|4|8,0:0|0:0|0:0,0:0:0:0:
456,236,91448,2,0,B|488:200|468:152,1,75,8|2,0:0|0:0,0:0:0:0:
432,36,91801,2,0,B|400:72|420:120,1,75,2|8,0:0|0:0,0:0:0:0:
332,100,92154,5,8,0:0:0:0:
256,56,92331,1,8,0:0:0:0:
168,76,92507,2,0,B|124:28|60:48,2,112.5,2|4|2,0:0|0:0|0:0,0:0:0:0:
100,120,93213,1,2,0:0:0:0:
136,192,93389,1,8,0:0:0:0:
96,268,93566,6,0,B|128:300|180:296,1,75,8|8,0:0|0:0,0:0:0:0:
224,352,93919,2,0,B|284:324|344:340,2,112.5,2|4|2,0:0|0:0|0:0,0:0:0:0:
228,248,94625,2,0,B|196:216|144:220,1,75,2|8,0:0|0:0,0:0:0:0:
136,148,94978,5,8,0:0:0:0:
184,80,95154,1,8,0:0:0:0:
264,92,95331,2,0,B|328:100|356:164,1,112.5,2|4,0:0|0:0,0:0:0:0:
384,240,95801,6,0,B|424:332,2,100,8|8|8,0:0|0:0|0:0,0:0:0:0:
348,248,96389,2,0,B|292:208|228:236,1,125,8|8,0:0|0:0,0:0:0:0:
160,172,96860,2,0,B|32:136,2,125,8|8|8,0:0|0:0|0:0,0:0:0:0:
400,72,97801,6,0,B|424:136|376:192,1,125,8|8,0:0|0:0,0:0:0:0:
260,160,98272,2,0,B|236:96|284:40,2,125,2|2|2,0:0|0:0|0:0,0:0:0:0:
256,272,98978,1,8,0:0:0:0:
340,348,99213,6,0,B|460:364,2,100,8|8|8,0:0|0:0|0:0,0:0:0:0:
172,348,99919,2,0,B|52:364,2,100,8|8|8,0:0|0:0|0:0,0:0:0:0:
204,252,100625,5,2,0:0:0:0:
308,252,100860,1,2,0:0:0:0:
364,164,101095,1,8,0:0:0:0:
256,164,101331,5,2,0:0:0:0:
144,164,101566,1,8,0:0:0:0:
60,236,101801,2,0,B|20:184|44:116,2,125,2|2|8,0:0|0:0|0:0,0:0:0:0:
256,284,102742,5,8,0:0:0:0:
328,192,102978,1,8,0:0:0:0:
256,100,103213,1,8,0:0:0:0:
256,192,103448,12,0,104860,0:0:0:0:
