osu file format v12

[General]
AudioFilename: Ergosphere.mp3
AudioLeadIn: 1809
PreviewTime: 13037
Countdown: 0
SampleSet: Soft
StackLeniency: 0.3
Mode: 0
LetterboxInBreaks: 0

[Editor]
Bookmarks: 50154,51213,54037,55272,57213,58272
DistanceSpacing: 0.7
BeatDivisor: 8
GridSize: 4

[Metadata]
Title:Ergosphere
TitleUnicode:Ergosphere
Artist:TOMOSUKE
ArtistUnicode:TOMOSUKE
Creator:Charles445
Version:Extra
Source:Pop'n Music 16 PARTY
Tags:collapse jazz Mr Color
BeatmapID:163155
BeatmapSetID:53547

[Difficulty]
HPDrainRate:6
CircleSize:4
OverallDifficulty:8
ApproachRate:9
SliderMultiplier:2
SliderTickRate:1

[Events]
//Background and Video events
0,0,"ergobg.jpg",0,0
//Break Periods
//Storyboard Layer 0 (Background)
//Storyboard Layer 1 (Fail)
//Storyboard Layer 2 (Pass)
//Storyboard Layer 3 (Foreground)
//Storyboard Sound Samples
//Background Colour Transformations
3,100,163,162,255

[TimingPoints]
-3845,352.941176470588,4,2,1,80,1,0
831,-100,4,2,2,100,0,0
963,-100,4,2,2,90,0,0
1051,-100,4,2,2,70,0,0
1139,-100,4,2,2,80,0,0
1213,-100,4,2,2,80,0,0
1404,-100,4,2,2,65,0,0
1581,-100,4,2,2,80,0,0
1757,-100,4,2,2,100,0,0
13007,-100,4,2,1,100,0,0
13184,-100,4,2,1,100,0,0
24478,-100,4,2,2,100,0,0
27301,-100,4,2,1,100,0,0
37537,-100,4,2,1,60,0,0
37934,-100,4,2,1,75,0,0
38110,-100,4,2,1,85,0,0
38287,-100,4,2,1,95,0,0
38463,-100,4,2,1,100,0,0
48831,-100,4,2,1,60,0,0
49228,-100,4,2,1,75,0,0
49404,-100,4,2,1,85,0,0
49581,-100,4,2,1,95,0,0
49757,-100,4,2,2,100,0,0
49978,-80,4,2,2,100,0,0
51875,-100,4,2,1,100,0,0
52228,-100,4,2,1,60,0,0
52581,-100,4,2,1,100,0,0
54213,-80,4,2,2,100,0,0
55184,-100,4,2,1,100,0,0
57081,-100,4,2,2,100,0,0
57301,-100,4,2,1,100,0,0
58228,-80,4,2,2,100,0,0
59639,-100,4,2,2,100,0,0
60684,-80,4,2,2,100,0,0
61037,-100,4,2,2,100,0,0
64360,-80,4,2,2,100,0,0
65625,-100,4,2,2,100,0,0
69610,-100,4,2,1,100,0,0
80331,-133.333333333333,4,2,1,70,0,0
80816,-100,4,2,1,100,0,0
95860,-80,4,2,1,100,0,0
97272,-100,4,2,1,80,0,0
103389,-100,4,2,1,15,0,0

[Colours]
Combo1 : 128,224,31
Combo2 : 255,128,0
Combo3 : 153,255,0
Combo4 : 255,102,0

[HitObjects]
168,44,390,6,4,B|216:99|296:99|344:44,1,200
409,151,919,5,8,0:0:0:0:
383,171,1007,1,8,0:0:0:0:
353,185,1095,1,8,0:0:0:0:
322,196,1184,1,8,0:0:0:0:
289,202,1272,1,8,0:0:0:0:
256,203,1360,1,8,0:0:0:0:
223,202,1448,1,8,0:0:0:0:
190,196,1536,1,8,0:0:0:0:
159,185,1625,1,8,0:0:0:0:
129,171,1713,1,8,0:0:0:0:
103,151,1801,6,0,B|24:176|24:268,1,150,14|8,0:0|0:0,0:0:0:0:
88,312,2154,2,0,B|136:340|192:320,1,100,2|0,0:0|0:0,0:0:0:0:
424,312,2507,2,0,B|376:340|320:320,1,100,2|0,0:0|0:0,0:0:0:0:
248,136,2860,6,0,B|224:56|136:56,1,150,10|8,0:0|0:0,0:0:0:0:
312,88,3213,2,0,B|360:116|416:96,1,100,2|0,0:0|0:0,0:0:0:0:
408,285,3566,2,0,B|360:268|312:296,1,100,2|0,0:0|0:0,0:0:0:0:
156,288,3919,5,10,0:0:0:0:
76,192,4095,1,0,0:0:0:0:
156,96,4272,1,0,0:0:0:0:
188,88,4360,2,0,B|240:80|256:24,1,100,0|0,0:0|0:0,0:0:0:0:
256,160,4625,6,0,B|256:312,2,150,14|8|0,0:0|0:0|0:0,0:0:0:0:
188,42,5331,1,2,0:0:0:0:
324,42,5507,1,0,0:0:0:0:
447,123,5684,6,2,B|444:200|360:236,1,150,10|8,0:0|0:0,0:0:0:0:
256,160,6037,2,0,B|132:160,1,100,2|0,0:0|0:0,0:0:0:0:
24,284,6389,2,0,B|128:284,1,100,2|0,0:0|0:0,0:0:0:0:
280,280,6742,5,8,0:0:0:0:
316,276,6831,1,0,0:0:0:0:
344,264,6919,2,0,B|387:231|391:179,1,100,0|2,0:0|0:0,0:0:0:0:
304,76,7184,2,2,B|261:109|257:161,1,100,0|2,0:0|0:0,0:0:0:0:
252,192,7448,6,0,B|208:264|120:252,1,150,14|8,0:0|0:0,0:0:0:0:
148,140,7801,1,2,0:0:0:0:
304,76,7978,2,0,B|404:72,2,100,0|2|0,0:0|0:0|0:0,0:0:0:0:
148,140,8507,6,0,B|64:156|40:252,1,150,10|8,0:0|0:0,0:0:0:0:
164,312,8860,2,0,B|212:340|264:320,1,100,2|0,0:0|0:0,0:0:0:0:
420,232,9213,1,2,0:0:0:0:
448,204,9301,1,0,0:0:0:0:
460,168,9389,1,0,0:0:0:0:
456,132,9478,1,0,0:0:0:0:
436,92,9566,6,0,B|408:52,1,50,2|0,0:0|0:0,0:0:0:0:
321,77,9742,2,0,B|293:37,1,50,0|0,0:0|0:0,0:0:0:0:
221,100,9919,2,0,B|193:60,1,50,2|0,0:0|0:0,0:0:0:0:
136,152,10095,2,0,B|108:112,1,50,0|0,0:0|0:0,0:0:0:0:
48,232,10272,6,2,B|104:252,1,50,6|2,0:0|0:0,0:0:0:0:
160,336,10448,2,0,B|216:316,1,50,0|8,0:0|0:0,0:0:0:0:
264,224,10625,2,0,B|320:244,1,50,2|0,0:0|0:0,0:0:0:0:
376,328,10801,2,0,B|432:308,1,50,0|0,0:0|0:0,0:0:0:0:
474,221,10978,1,2,0:0:0:0:
458,189,11066,1,0,0:0:0:0:
442,157,11154,1,0,0:0:0:0:
427,125,11242,1,0,0:0:0:0:
408,95,11331,6,0,B|383:50,1,50,2|0,0:0|0:0,0:0:0:0:
320,150,11507,2,0,B|303:91,1,50
192,150,11684,2,0,B|205:101,1,50,2|0,0:0|0:0,0:0:0:0:
104,95,11860,2,0,B|128:51,1,50
68,169,12037,2,0,B|40:220,3,50,2|0|0|0,0:0|0:0|0:0|0:0,0:0:0:0:
79,286,12389,6,0,B|126:323,1,50,2|0,0:0|0:0,0:0:0:0:
197,254,12566,2,0,B|260:281,1,50,0|0,0:0|0:0,0:0:0:0:
323,231,12742,1,2,0:0:0:0:
356,221,12831,2,0,B|438:188|427:95,1,150,0|4,0:0|0:0,0:0:0:0:
256,44,13272,5,0,0:0:0:0:
116,68,13448,1,2,0:0:0:0:
156,192,13625,2,0,B|180:280|104:336,1,150,8|8,0:0|0:0,0:0:0:0:
268,248,13978,2,0,B|364:184,1,100,8|2,0:0|0:0,0:0:0:0:
504,92,14331,1,0,0:0:0:0:
376,48,14507,5,8,0:0:0:0:
256,92,14684,1,0,0:0:0:0:
136,48,14860,1,2,0:0:0:0:
8,92,15037,2,0,B|84:136|76:240,1,150,8|8,0:0|0:0,0:0:0:0:
172,272,15389,2,0,B|172:324,1,50,2|0,0:0|0:0,0:0:0:0:
256,192,15566,2,0,B|256:140,1,50,2|2,0:0|0:0,0:0:0:0:
340,272,15742,2,8,B|340:324,1,50
424,192,15919,6,0,B|436:136|400:96,2,100,4|0|2,0:0|0:0|0:0,0:0:0:0:
240,324,16448,2,8,B|200:360|144:360|104:324,1,150
172,272,16801,2,0,B|172:164,1,100,8|2,0:0|0:0,0:0:0:0:
356,88,17154,1,0,0:0:0:0:
424,192,17331,6,0,B|448:240|424:288,2,100,8|0|2,0:0|0:0|0:0,0:0:0:0:
256,108,17860,2,0,B|212:60|160:116|116:76,1,150,8|8,0:0|0:0,0:0:0:0:
88,52,18213,1,2,0:0:0:0:
50,204,18389,1,2,0:0:0:0:
44,238,18478,1,2,0:0:0:0:
51,271,18566,1,8,0:0:0:0:
71,299,18654,1,8,0:0:0:0:
100,317,18742,6,0,B|144:341|197:327,1,100,4|0,0:0|0:0,0:0:0:0:
308,200,19095,1,2,0:0:0:0:
176,164,19272,2,8,B|98:132|89:52,1,150
208,64,19625,2,0,B|256:88|304:64,1,100,8|2,0:0|0:0,0:0:0:0:
469,32,19978,1,0,0:0:0:0:
388,128,20154,5,8,0:0:0:0:
388,256,20331,1,0,0:0:0:0:
469,352,20507,1,2,0:0:0:0:
388,256,20684,2,8,B|320:204|240:240,1,150
128,280,21037,2,0,B|60:308,1,50,2|0,0:0|0:0,0:0:0:0:
64,192,21213,2,0,B|4:192,1,50,2|2,0:0|0:0,0:0:0:0:
128,104,21390,2,0,B|60:76,1,50,8|8,0:0|0:0,0:0:0:0:
224,60,21566,6,0,B|276:40|332:72,1,100,4|0,0:0|0:0,0:0:0:0:
432,192,21919,1,2,0:0:0:0:
340,272,22095,2,8,B|212:365,1,150
256,232,22448,2,0,B|343:168,1,100,8|2,0:0|0:0,0:0:0:0:
224,60,22801,1,0,0:0:0:0:
128,104,22978,6,0,B|88:140|32:128,2,100,8|0|2,0:0|0:0|0:0,0:0:0:0:
332,64,23507,2,8,B|416:64|448:144,1,150
450,178,23860,1,2,0:0:0:0:
323,284,24037,1,2,0:0:0:0:
291,298,24125,1,2,0:0:0:0:
256,304,24213,1,8,0:0:0:0:
221,298,24301,1,8,0:0:0:0:
189,284,24389,1,8,0:0:0:0:
88,192,24566,6,0,B|47:156,1,50,0|0,0:0|0:0,0:0:0:0:
146,104,24742,2,0,B|122:62,1,50,0|0,0:0|0:0,0:0:0:0:
250,66,24919,2,0,B|234:17,1,50,0|0,0:0|0:0,0:0:0:0:
362,71,25095,5,0,0:0:0:0:
396,78,25184,1,0,0:0:0:0:
430,85,25272,1,0,0:0:0:0:
463,92,25360,1,0,0:0:0:0:
444,121,25448,5,0,0:0:0:0:
425,151,25537,1,0,0:0:0:0:
407,180,25625,1,0,0:0:0:0:
389,210,25713,1,0,0:0:0:0:
370,239,25801,6,0,B|310:333,1,100,2|0,0:0|0:0,0:0:0:0:
142,239,26154,2,0,B|202:333,1,100,2|0,0:0|0:0,0:0:0:0:
336,140,26507,6,0,B|365:92,1,50,8|0,0:0|0:0,0:0:0:0:
256,72,26684,2,0,B|256:16,1,50,4|0,0:0|0:0,0:0:0:0:
176,140,26860,1,0,0:0:0:0:
147,159,26948,2,0,B|73:201|4:162,1,150,12|4,0:0|0:0,0:0:0:0:
208,304,27389,6,0,B|256:324|304:304,1,100,0|2,0:0|0:0,0:0:0:0:
420,192,27742,1,8,0:0:0:0:
432,160,27831,2,0,B|456:108|424:64,1,100
300,144,28095,2,0,B|252:156,2,50,0|0|2,0:0|0:0|0:0,0:0:0:0:
112,64,28448,2,0,B|68:28,1,50
96,108,28625,6,0,B|56:160|88:224,1,100,8|0,0:0|0:0,0:0:0:0:
256,324,28978,1,2,0:0:0:0:
388,296,29154,1,8,0:0:0:0:
414,273,29242,2,0,B|452:236|452:184,1,100,0|2,0:0|0:0,0:0:0:0:
404,88,29507,2,0,B|436:48,1,50,8|8,0:0|0:0,0:0:0:0:
320,28,29684,1,2,0:0:0:0:
148,140,29860,2,0,B|94:114,1,50,8|2,0:0|0:0,0:0:0:0:
119,208,30037,6,0,B|83:256|103:320,2,100,8|0|2,0:0|0:0|0:0,0:0:0:0:
256,324,30566,2,0,B|324:364|408:328,1,150,8|0,0:0|0:0,0:0:0:0:
340,256,30919,2,0,B|292:240,2,50,0|0|2,0:0|0:0|0:0,0:0:0:0:
148,140,31272,2,0,B|100:124,1,50
24,88,31448,6,0,B|76:16|188:48,1,150,8|0,0:0|0:0,0:0:0:0:
260,96,31801,2,0,B|308:128|364:108,1,100,2|8,0:0|0:0,0:0:0:0:
448,76,32066,1,0,0:0:0:0:
460,100,32154,2,0,B|487:154,1,50,0|2,0:0|0:0,0:0:0:0:
400,216,32331,2,0,B|427:270,1,50,8|0,0:0|0:0,0:0:0:0:
272,272,32507,1,2,0:0:0:0:
239,284,32595,1,8,0:0:0:0:
203,288,32684,1,8,0:0:0:0:
168,286,32772,1,2,0:0:0:0:
134,275,32860,6,0,B|48:248|40:152,1,150,8|0,0:0|0:0,0:0:0:0:
168,132,33213,2,0,B|224:136|264:92,1,100,2|8,0:0|0:0,0:0:0:0:
312,36,33478,1,0,0:0:0:0:
409,145,33654,1,0,0:0:0:0:
410,179,33742,1,0,0:0:0:0:
401,213,33831,1,0,0:0:0:0:
378,239,33919,1,2,0:0:0:0:
252,192,34095,2,0,B|196:216,1,50
152,156,34272,6,0,B|96:168|80:232,2,100,8|0|2,0:0|0:0|0:0,0:0:0:0:
320,128,34801,1,0,0:0:0:0:
356,124,34889,2,0,B|412:116|436:52,1,100,8|2,0:0|0:0,0:0:0:0:
480,168,35154,1,8,0:0:0:0:
487,202,35243,1,8,0:0:0:0:
477,235,35331,1,2,0:0:0:0:
348,332,35507,2,0,B|308:368,1,50,8|2,0:0|0:0,0:0:0:0:
256,304,35684,5,8,0:0:0:0:
136,264,35860,1,0,0:0:0:0:
136,120,36037,1,2,0:0:0:0:
256,80,36213,2,0,B|330:40|401:83,1,150,8|8,0:0|0:0,0:0:0:0:
464,132,36566,1,8,0:0:0:0:
344,192,36742,1,2,0:0:0:0:
464,252,36919,1,0,0:0:0:0:
344,192,37095,6,0,B|268:156|196:192,1,150,8|0,0:0|0:0,0:0:0:0:
136,264,37448,1,2,0:0:0:0:
256,80,37625,2,2,B|340:72|399:112,1,150,8|2,0:0|0:0,0:0:0:0:
376,264,37978,2,0,B|376:336,1,50,0|8,0:0|0:0,0:0:0:0:
256,292,38154,2,0,B|256:342,1,50,2|8,0:0|0:0,0:0:0:0:
136,320,38331,2,0,B|136:392,1,50,8|2,0:0|0:0,0:0:0:0:
48,252,38507,6,0,B|4:184|52:104,1,150,12|0,0:0|0:0,0:0:0:0:
156,68,38860,2,0,B|192:116|160:164,1,100,2|8,0:0|0:0,0:0:0:0:
256,292,39126,2,0,B|232:240|264:196,1,100
307,122,39389,1,0,0:0:0:0:
326,92,39478,1,0,0:0:0:0:
345,62,39566,1,2,0:0:0:0:
464,192,39743,2,0,B|504:232,1,50
440,276,39920,6,0,B|400:308|344:296,1,100,8|0,0:0|0:0,0:0:0:0:
152,248,40273,1,2,0:0:0:0:
176,128,40448,1,8,0:0:0:0:
200,104,40537,2,0,B|236:64|292:64,1,100,0|2,0:0|0:0,0:0:0:0:
424,92,40802,2,0,B|476:120,1,50
464,192,40979,1,2,0:0:0:0:
344,264,41154,1,0,0:0:0:0:
312,280,41242,1,2,0:0:0:0:
280,296,41331,6,0,B|228:320|180:300,1,100,8|0,0:0|0:0,0:0:0:0:
116,156,41684,1,2,0:0:0:0:
200,104,41861,2,0,B|268:64|352:100,1,150,8|0,0:0|0:0,0:0:0:0:
432,156,42214,2,0,B|472:196,2,50,0|0|2,0:0|0:0|0:0,0:0:0:0:
276,296,42567,2,0,B|216:320,1,50
112,324,42742,6,0,B|32:284|56:192,1,150,8|0,0:0|0:0,0:0:0:0:
88,60,43095,1,2,0:0:0:0:
200,104,43272,2,0,B|272:144|344:112,1,150,8|2,0:0|0:0,0:0:0:0:
432,156,43626,2,0,B|480:192,1,50
409,258,43801,1,2,0:0:0:0:
387,285,43889,1,0,0:0:0:0:
364,312,43978,1,0,0:0:0:0:
342,339,44066,1,2,0:0:0:0:
319,357,44155,6,0,B|235:380|171:324,1,150,8|0,0:0|0:0,0:0:0:0:
284,240,44507,2,0,B|336:228|358:175,1,100,2|8,0:0|0:0,0:0:0:0:
414,101,44773,1,0,0:0:0:0:
293,34,44949,1,0,0:0:0:0:
259,24,45037,1,0,0:0:0:0:
223,24,45126,1,0,0:0:0:0:
189,32,45214,1,2,0:0:0:0:
97,109,45390,2,0,B|41:147,1,50
78,208,45567,6,0,B|67:259|14:290,2,100,8|0|2,0:0|0:0|0:0,0:0:0:0:
256,136,46096,1,8,0:0:0:0:
288,124,46184,2,0,B|336:104|388:128,1,100,0|2,0:0|0:0,0:0:0:0:
452,224,46449,1,0,0:0:0:0:
464,256,46538,1,0,0:0:0:0:
464,292,46626,1,2,0:0:0:0:
264,316,46802,2,0,B|220:364,1,50,0|2,0:0|0:0,0:0:0:0:
188,264,46978,6,0,B|124:244|124:176,1,100,8|0,0:0|0:0,0:0:0:0:
128,32,47331,1,2,0:0:0:0:
240,80,47508,2,0,B|314:120|385:77,1,150,8|0,0:0|0:0,0:0:0:0:
476,116,47861,1,0,0:0:0:0:
476,268,48037,1,2,0:0:0:0:
344,192,48214,1,0,0:0:0:0:
240,80,48390,6,0,B|164:44|92:80,1,150,8|0,0:0|0:0,0:0:0:0:
12,144,48743,1,2,0:0:0:0:
96,280,48919,2,2,B|152:344|204:280|232:328,1,150,8|2,0:0|0:0,0:0:0:0:
336,304,49273,2,0,B|400:288,1,50,8|8,0:0|0:0,0:0:0:0:
256,216,49448,2,0,B|192:200,1,50,2|8,0:0|0:0,0:0:0:0:
336,128,49625,2,0,B|400:112,1,50,8|10,0:0|0:0,0:0:0:0:
256,40,49801,5,4,0:0:0:0:
116,176,50154,2,0,B|88:212|40:208,2,83.3333320915699,0|8|0,0:0|0:0|0:0,0:0:0:0:
160,276,50507,2,0,B|196:304|192:352,2,83.3333320915699,8|0|8,0:0|0:0|0:0,0:0:0:0:
256,216,50860,2,0,B|284:180|332:184,2,83.3333320915699,0|8|0,0:0|0:0|0:0,0:0:0:0:
208,112,51213,2,0,B|172:84|176:36,2,83.3333320915699,8|0|8,0:0|0:0|0:0,0:0:0:0:
304,112,51566,2,0,B|340:84|336:36,2,83.3333320915699,0|8|0,0:0|0:0|0:0,0:0:0:0:
416,132,51919,6,0,B|452:152,4,33.3333333333333,8|8|8|8|8,0:0|0:0|0:0|0:0|0:0,0:0:0:0:
472,240,52272,2,8,B|448:272,4,33.3333333333333,10|10|10|10|10,0:0|0:0|0:0|0:0|0:0,0:0:0:0:
316,316,52625,2,0,B|256:332,2,50,8|8|8,0:0|0:0|0:0,0:0:0:0:
252,256,52890,6,0,B|184:168|68:200,1,200,4|4,0:0|0:0,0:0:0:0:
64,108,53331,2,0,B|56:52,1,50
160,72,53507,2,0,B|160:22,1,50
256,96,53684,2,0,B|256:146,1,50
352,72,53860,2,0,B|352:22,1,50
448,108,54037,6,0,B|468:184|404:228,1,133.333333333333,12|0,0:0|0:0,0:0:0:0:
312,232,54389,6,0,B|296:276|316:312,2,83.3333320915699,2|10|0,0:0|0:0|0:0,0:0:0:0:
200,232,54742,2,8,B|216:276|196:312,2,83.3333320915699,10|0|10,0:0|0:0|0:0,0:0:0:0:
256,168,55095,2,0,B|256:40,1,124.999998137355,2|0,0:0|0:0,0:0:0:0:
144,52,55389,6,0,B|96:32|28:72|28:144,1,166.666666666667,4|8,0:0|0:0,0:0:0:0:
28,250,55801,2,0,B|48:320|124:340,1,133.333333333333,8|8,0:0|0:0,0:0:0:0:
192,232,56154,2,0,B|256:200|320:232,1,133.333333333333,8|0,0:0|0:0,0:0:0:0:
368,332,56507,2,0,B|440:360|516:304|484:208,1,200,8|0,0:0|0:0,0:0:0:0:
256,40,57213,6,0,B|176:24|124:104,2,133.333333333333,4|0|0,0:0|0:0|0:0,0:0:0:0:
300,56,57801,1,8,0:0:0:0:
340,80,57919,2,0,B|408:108|480:72,1,133.333333333333,8|0,0:0|0:0,0:0:0:0:
432,172,58272,6,0,B|400:208|407:248,2,83.3333320915699,2|0|0,0:0|0:0|0:0,0:0:0:0:
316,212,58625,2,0,B|293:254|252:261,2,83.3333320915699,2|0|0,0:0|0:0|0:0,0:0:0:0:
228,172,58978,2,0,B|196:136|203:95,2,83.3333320915699,2|0|0,0:0|0:0|0:0,0:0:0:0:
140,208,59331,2,0,B|172:244|164:284,2,83.3333320915699,2|0|0,0:0|0:0|0:0,0:0:0:0:
64,152,59684,5,2,0:0:0:0:
41,111,59801,1,0,0:0:0:0:
51,65,59919,1,0,0:0:0:0:
91,41,60037,1,2,0:0:0:0:
137,42,60154,1,0,0:0:0:0:
168,76,60272,1,0,0:0:0:0:
208,97,60389,6,0,B|284:117|348:86,1,133.333333333333,2|2,0:0|0:0,0:0:0:0:
424,96,60742,2,0,B|467:109|488:157,2,83.3333320915699,2|2|0,0:0|0:0|0:0,0:0:0:0:
384,200,61095,6,0,B|408:256|372:320,1,100,8|0,0:0|0:0,0:0:0:0:
304,352,61360,1,2,0:0:0:0:
128,200,61537,2,0,B|104:144|140:80,1,100,8|0,0:0|0:0,0:0:0:0:
208,48,61802,1,2,0:0:0:0:
256,192,61978,6,0,B|248:248|192:272,1,100,8|0,0:0|0:0,0:0:0:0:
124,316,62242,1,2,0:0:0:0:
256,192,62419,2,0,B|264:136|320:112,1,100,8|0,0:0|0:0,0:0:0:0:
388,68,62683,1,2,0:0:0:0:
456,180,62860,6,0,B|476:224,4,33.3333333333333,0|0|2|2|2,0:0|0:0|0:0|0:0|0:0,0:0:0:0:
384,248,63213,6,0,B|404:296,1,50
300,272,63389,2,0,B|308:324,1,50,0|0,0:0|0:0,0:0:0:0:
212,272,63566,2,0,B|204:324,1,50,0|0,0:0|0:0,0:0:0:0:
128,248,63742,2,0,B|108:296,1,50
56,196,63919,6,0,B|12:172,1,50
76,120,64095,2,0,B|32:96,1,50
96,44,64272,1,10,0:0:0:0:
256,56,64507,6,0,B|345:60,2,83.3333320915699,2|0|0,0:0|0:0|0:0,0:0:0:0:
200,124,64860,2,0,B|111:128,2,83.3333320915699,2|0|0,0:0|0:0|0:0,0:0:0:0:
256,192,65213,2,0,B|345:196,2,83.3333320915699,2|0|0,0:0|0:0|0:0,0:0:0:0:
200,260,65566,1,2,0:0:0:0:
304,284,65684,6,0,B|368:316|436:284,1,133.333333333333,4|0,0:0|0:0,0:0:0:0:
456,192,66037,2,0,B|488:128|456:60,2,133.333333333333,8|8|8,0:0|0:0|0:0,0:0:0:0:
356,128,66625,1,8,0:0:0:0:
312,96,66742,6,0,B|244:48,1,66.6666666666667,6|0,0:0|0:0,0:0:0:0:
172,120,66978,2,0,B|92:92,1,66.6666666666667,2|0,0:0|0:0,0:0:0:0:
80,192,67213,2,0,B|-4:192,1,66.6666666666667,2|0,0:0|0:0,0:0:0:0:
172,264,67448,2,0,B|109:286,1,66.6666666666667,2|0,0:0|0:0,0:0:0:0:
312,288,67684,2,0,B|257:326,1,66.6666666666667,2|0,0:0|0:0,0:0:0:0:
448,268,67919,2,0,B|428:336,1,66.6666666666667,2|0,0:0|0:0,0:0:0:0:
452,188,68154,5,6,0:0:0:0:
452,141,68272,1,0,0:0:0:0:
428,100,68389,1,0,0:0:0:0:
393,68,68507,1,2,0:0:0:0:
346,62,68625,1,0,0:0:0:0:
303,80,68742,1,0,0:0:0:0:
256,87,68860,5,2,0:0:0:0:
209,80,68978,1,0,0:0:0:0:
166,62,69095,1,0,0:0:0:0:
119,68,69213,1,2,0:0:0:0:
84,100,69331,1,0,0:0:0:0:
60,141,69448,1,0,0:0:0:0:
60,188,69566,6,0,B|60:260|140:300,1,133.333333333333,4|0,0:0|0:0,0:0:0:0:
224,336,69919,2,0,B|256:356|308:352,2,66.6666666666667,0|0|0,0:0|0:0|0:0,0:0:0:0:
332,272,70272,2,0,B|404:248|464:296,2,133.333333333333,8|2|2,0:0|0:0|0:0,0:0:0:0:
136,176,70978,6,0,B|72:120,1,66.6666666666667,8|0,0:0|0:0,0:0:0:0:
204,100,71213,2,0,B|180:36,1,66.6666666666667,0|8,0:0|0:0,0:0:0:0:
308,100,71448,2,0,B|332:36,1,66.6666666666667,0|8,0:0|0:0,0:0:0:0:
376,176,71684,2,0,B|440:224|420:312,2,133.333333333333,8|2|10,0:0|0:0|0:0,0:0:0:0:
192,264,72389,6,0,B|135:314|56:276,1,133.333333333333,8|0,0:0|0:0,0:0:0:0:
107,188,72742,1,8,0:0:0:0:
134,149,72860,1,0,0:0:0:0:
140,102,72978,1,0,0:0:0:0:
130,56,73095,1,8,0:0:0:0:
256,140,73331,1,2,0:0:0:0:
382,56,73566,1,2,0:0:0:0:
432,196,73801,6,0,B|456:272,2,66.6666666666667,8|0|0,0:0|0:0|0:0,0:0:0:0:
352,288,74154,2,0,B|305:352,2,66.6666666666667,8|0|0,0:0|0:0|0:0,0:0:0:0:
230,279,74507,2,0,B|77:283,2,133.333333333333,8|2|2,0:0|0:0|0:0,0:0:0:0:
352,128,75213,6,0,B|324:52|236:40,1,133.333333333333,8|0,0:0|0:0,0:0:0:0:
208,40,75566,1,8,0:0:0:0:
160,48,75684,1,0,0:0:0:0:
116,68,75801,1,0,0:0:0:0:
84,100,75919,2,0,B|40:160|56:232,2,133.333333333333,8|2|2,0:0|0:0|0:0,0:0:0:0:
352,128,76625,6,0,B|404:88,1,66.6666666666667,8|0,0:0|0:0,0:0:0:0:
320,220,76860,2,0,B|384:206,1,66.6666666666667,0|8,0:0|0:0,0:0:0:0:
250,288,77095,2,0,B|313:304,1,66.6666666666667,0|8,0:0|0:0,0:0:0:0:
155,318,77331,2,0,B|72:320|36:252,1,133.333333333333,8|2,0:0|0:0,0:0:0:0:
88,72,77801,1,2,0:0:0:0:
224,140,78037,6,0,B|288:168|352:128,1,133.333333333333,8|0,0:0|0:0,0:0:0:0:
448,80,78389,2,0,B|392:40,1,66.6666666666667,8|0,0:0|0:0,0:0:0:0:
444,188,78625,2,0,B|498:226,1,66.6666666666667,0|8,0:0|0:0,0:0:0:0:
336,344,78978,1,2,0:0:0:0:
176,344,79213,1,2,0:0:0:0:
256,192,79448,6,0,B|272:116|352:112,1,133.333333333333,4|0,0:0|0:0,0:0:0:0:
256,192,79801,2,0,B|240:268|160:272,1,133.333333333333,4|0,0:0|0:0,0:0:0:0:
156,176,80154,1,4,0:0:0:0:
356,208,80419,2,8,B|412:216,4,37.4999988824129,2|2|2|2|2,0:0|0:0|0:0|0:0|0:0,0:0:0:0:
392,140,80860,6,0,B|420:92,3,50,0|0|0|0,0:0|0:0|0:0|0:0,0:0:0:0:
344,64,81213,2,0,B|280:44,3,50,2|0|0|0,0:0|0:0|0:0|0:0,0:0:0:0:
196,32,81566,5,0,0:0:0:0:
161,27,81654,1,0,0:0:0:0:
126,28,81742,1,0,0:0:0:0:
93,40,81831,1,0,0:0:0:0:
68,65,81919,1,2,0:0:0:0:
58,98,82007,1,0,0:0:0:0:
64,132,82095,1,0,0:0:0:0:
81,162,82184,1,0,0:0:0:0:
101,190,82272,6,0,B|122:246|88:292,1,100
167,327,82537,1,0,0:0:0:0:
196,345,82625,1,2,0:0:0:0:
229,354,82713,1,0,0:0:0:0:
263,356,82801,1,0,0:0:0:0:
297,351,82889,1,0,0:0:0:0:
330,340,82978,6,0,B|374:312,1,50
270,256,83154,2,0,B|226:228,1,50
330,172,83331,2,0,B|374:144,1,50,2|0,0:0|0:0,0:0:0:0:
270,88,83507,2,0,B|226:60,1,50
386,48,83684,5,0,0:0:0:0:
420,46,83772,1,0,0:0:0:0:
452,58,83860,1,0,0:0:0:0:
477,81,83948,1,0,0:0:0:0:
489,114,84037,1,2,0:0:0:0:
492,148,84125,1,0,0:0:0:0:
479,180,84213,1,0,0:0:0:0:
458,207,84301,1,0,0:0:0:0:
432,232,84389,6,0,B|376:284,1,50
312,232,84566,2,0,B|238:251,1,50
206,175,84742,2,0,B|131:157,1,50,2|0,0:0|0:0,0:0:0:0:
139,74,84919,2,0,B|81:23,1,50
40,128,85095,6,0,B|0:184,3,50
76,248,85448,2,0,B|116:304,3,50,2|0|0|0,0:0|0:0|0:0|0:0,0:0:0:0:
232,308,85801,5,0,0:0:0:0:
266,304,85889,1,0,0:0:0:0:
300,309,85978,1,0,0:0:0:0:
334,304,86066,1,0,0:0:0:0:
364,288,86154,1,2,0:0:0:0:
398,282,86242,1,0,0:0:0:0:
417,252,86331,1,0,0:0:0:0:
448,237,86419,1,0,0:0:0:0:
464,204,86507,6,0,B|480:156,1,50
368,108,86684,2,0,B|344:156,1,50,0|0,0:0|0:0,0:0:0:0:
256,64,86860,2,0,B|256:14,1,50,2|0,0:0|0:0,0:0:0:0:
144,108,87037,2,0,B|168:156,1,50,0|0,0:0|0:0,0:0:0:0:
39,177,87213,5,0,0:0:0:0:
11,198,87301,1,0,0:0:0:0:
0,231,87389,1,0,0:0:0:0:
2,266,87478,1,0,0:0:0:0:
22,294,87566,1,2,0:0:0:0:
53,309,87654,1,0,0:0:0:0:
87,310,87742,1,0,0:0:0:0:
121,301,87831,1,0,0:0:0:0:
153,287,87919,6,0,B|194:342,1,50
280,252,88095,2,0,B|321:307,1,50,0|0,0:0|0:0,0:0:0:0:
388,188,88272,2,0,B|358:147,1,50,2|0,0:0|0:0,0:0:0:0:
444,80,88448,2,0,B|414:39,1,50
480,144,88625,5,0,0:0:0:0:
495,175,88713,1,0,0:0:0:0:
504,208,88801,1,0,0:0:0:0:
506,242,88889,1,0,0:0:0:0:
496,275,88978,1,2,0:0:0:0:
477,304,89066,1,0,0:0:0:0:
456,331,89154,1,0,0:0:0:0:
426,349,89242,1,0,0:0:0:0:
392,358,89331,6,0,B|329:373,1,50
284,296,89507,2,0,B|219:287,1,50
204,200,89683,2,0,B|147:168,1,50,2|0,0:0|0:0,0:0:0:0:
165,81,89860,2,0,B|123:31,1,50,0|0,0:0|0:0,0:0:0:0:
72,88,90037,5,0,0:0:0:0:
39,101,90125,1,0,0:0:0:0:
15,126,90213,1,0,0:0:0:0:
3,158,90301,1,0,0:0:0:0:
0,192,90389,1,2,0:0:0:0:
3,226,90478,1,0,0:0:0:0:
15,258,90566,1,2,0:0:0:0:
39,283,90654,1,2,0:0:0:0:
72,296,90742,6,0,B|144:332|228:296,1,150,4|4,0:0|0:0,0:0:0:0:
300,204,91095,2,0,B|248:172|188:208,1,100,8|0,0:0|0:0,0:0:0:0:
404,312,91448,2,0,B|448:344,1,50,8|0,0:0|0:0,0:0:0:0:
460,240,91625,2,0,B|496:200|480:136,1,100,2|2,0:0|0:0,0:0:0:0:
400,104,91889,2,0,B|292:72,1,100,8|8,0:0|0:0,0:0:0:0:
200,44,92154,6,0,B|200:128|108:156,1,150,8|8,0:0|0:0,0:0:0:0:
104,56,92507,1,2,0:0:0:0:
248,160,92684,1,0,0:0:0:0:
276,184,92772,2,0,B|355:244,1,100,4|8,0:0|0:0,0:0:0:0:
384,268,93037,1,2,0:0:0:0:
236,324,93213,1,2,0:0:0:0:
200,328,93301,2,0,B|144:336|104:296,1,100,8|8,0:0|0:0,0:0:0:0:
116,216,93566,6,0,B|140:124|44:76,1,150,8|8,0:0|0:0,0:0:0:0:
148,40,93919,2,0,B|196:72|252:52,1,100,2|8,0:0|0:0,0:0:0:0:
340,40,94184,2,0,B|394:22|443:57,1,100,4|8,0:0|0:0,0:0:0:0:
440,152,94448,1,2,0:0:0:0:
420,296,94625,1,2,0:0:0:0:
388,316,94713,2,0,B|344:352|284:324,1,100,8|8,0:0|0:0,0:0:0:0:
324,224,94978,6,0,B|328:140|240:104,1,150,8|8,0:0|0:0,0:0:0:0:
152,176,95331,2,0,B|108:208|48:184,1,100,2|8,0:0|0:0,0:0:0:0:
56,296,95625,2,0,B|107:275|151:307,1,100,4|8,0:0|0:0,0:0:0:0:
292,332,95919,6,8,B|332:352|384:336,2,83.3333320915699,8|8|8,0:0|0:0|0:0,0:0:0:0:
324,224,96272,2,8,B|344:184|328:132,2,83.3333320915699,8|8|8,0:0|0:0|0:0,0:0:0:0:
216,192,96625,2,0,B|176:172|124:188,1,83.3333320915699,8|2,0:0|0:0,0:0:0:0:
40,200,96860,2,8,B|-4:212,2,41.666666045785,8|0|2,0:0|0:0|0:0,0:0:0:0:
72,104,97095,2,8,B|56:44,2,41.666666045785,8|0|8,0:0|0:0|0:0,0:0:0:0:
176,64,97331,2,0,B|268:8|368:68,1,200,8|8,0:0|0:0,0:0:0:0:
436,132,97801,6,0,B|476:168,2,33.3333333333333,8|0|2,0:0|0:0|0:0,0:0:0:0:
376,212,98037,1,8,0:0:0:0:
292,272,98154,2,0,B|264:292|228:300,1,66.6666666666667,8|2,0:0|0:0,0:0:0:0:
112,228,98389,2,0,B|92:200|84:164,1,66.6666666666667,2|2,0:0|0:0,0:0:0:0:
176,64,98625,2,0,B|204:44|240:36,1,66.6666666666667,2|2,0:0|0:0,0:0:0:0:
488,224,98978,1,8,0:0:0:0:
432,288,99095,6,8,B|388:344|312:348,1,133.333333333333
376,212,99448,2,0,B|392:144|336:92,1,133.333333333333,8|8,0:0|0:0,0:0:0:0:
100,56,99919,1,8,0:0:0:0:
52,128,100037,2,0,B|36:156,4,33.3333333333333,8|0|8|0|8,0:0|0:0|0:0|0:0|0:0,0:0:0:0:
196,344,100507,1,8,0:0:0:0:
284,336,100625,6,0,B|368:324,1,66.6666666666667,2|2,0:0|0:0,0:0:0:0:
376,212,100860,2,0,B|420:139,1,66.6666666666667,2|2,0:0|0:0,0:0:0:0:
340,61,101095,1,8,0:0:0:0:
100,204,101331,2,0,B|76:228|32:232,2,66.6666666666667,2|0|0,0:0|0:0|0:0,0:0:0:0:
172,144,101684,1,8,0:0:0:0:
244,88,101801,2,8,B|220:44,2,33.3333333333333,8|8|2,0:0|0:0|0:0,0:0:0:0:
340,61,102037,6,0,B|424:48,1,66.6666666666667,2|2,0:0|0:0,0:0:0:0:
460,144,102272,2,0,B|480:216,1,66.6666666666667,8|8,0:0|0:0,0:0:0:0:
288,332,102625,1,8,0:0:0:0:
208,284,102742,6,8,B|143:251|79:283,2,133.333333333333
256,192,103448,12,0,104860,0:0:0:0:
