osu file format v12

[General]
AudioFilename: Ergosphere.mp3
AudioLeadIn: 1809
PreviewTime: 13037
Countdown: 0
SampleSet: Soft
StackLeniency: 0.3
Mode: 0
LetterboxInBreaks: 0

[Editor]
Bookmarks: 50154,51213,54037,55272,57213,58272
DistanceSpacing: 0.7
BeatDivisor: 6
GridSize: 4

[Metadata]
Title:Ergosphere
TitleUnicode:Ergosphere
Artist:TOMOSUKE
ArtistUnicode:TOMOSUKE
Creator:Charles445
Version:Another
Source:Pop'n Music 16 PARTY
Tags:collapse jazz Mr Color
BeatmapID:164107
BeatmapSetID:53547

[Difficulty]
HPDrainRate:6
CircleSize:4
OverallDifficulty:7
ApproachRate:8
SliderMultiplier:1.7
SliderTickRate:1

[Events]
//Background and Video events
0,0,"ergobg.jpg",0,0
//Break Periods
//Storyboard Layer 0 (Background)
//Storyboard Layer 1 (Fail)
//Storyboard Layer 2 (Pass)
//Storyboard Layer 3 (Foreground)
//Storyboard Sound Samples
//Background Colour Transformations
3,100,163,162,255

[TimingPoints]
-3845,352.941176470588,4,2,1,80,1,0
831,-100,4,2,2,100,0,0
963,-100,4,2,2,90,0,0
1051,-100,4,2,2,70,0,0
1139,-100,4,2,2,80,0,0
1213,-100,4,2,2,80,0,0
1404,-100,4,2,2,65,0,0
1581,-100,4,2,2,80,0,0
1757,-100,4,2,2,100,0,0
13007,-100,4,2,1,100,0,0
13184,-100,4,2,1,100,0,0
24478,-100,4,2,2,100,0,0
27301,-100,4,2,1,100,0,0
37537,-100,4,2,1,60,0,0
37934,-100,4,2,1,75,0,0
38110,-100,4,2,1,85,0,0
38287,-100,4,2,1,95,0,0
38463,-100,4,2,1,100,0,0
48831,-100,4,2,1,60,0,0
49228,-100,4,2,1,75,0,0
49404,-100,4,2,1,85,0,0
49581,-100,4,2,1,95,0,0
49757,-100,4,2,2,100,0,0
49978,-80,4,2,2,100,0,0
51875,-100,4,2,1,100,0,0
52228,-100,4,2,1,60,0,0
52581,-100,4,2,1,100,0,0
54213,-80,4,2,2,100,0,0
55184,-100,4,2,1,100,0,0
57095,-100,4,2,2,100,0,0
57272,-100,4,2,1,100,0,0
58228,-80,4,2,2,100,0,0
59639,-100,4,2,2,100,0,0
60684,-80,4,2,2,100,0,0
61037,-100,4,2,2,100,0,0
64360,-80,4,2,2,100,0,0
65625,-100,4,2,2,100,0,0
68095,-80,4,2,2,100,0,0
69507,-100,4,2,2,100,0,0
69610,-100,4,2,1,100,0,0
76507,-80,4,2,1,100,0,0
77272,-100,4,2,1,100,0,0
80331,-133.333333333333,4,2,1,70,0,0
80816,-100,4,2,1,100,0,0
95860,-80,4,2,1,100,0,0
97272,-100,4,2,1,80,0,0
97742,-80,4,2,1,100,0,0
99037,-100,4,2,1,100,0,0
99978,-80,4,2,1,100,0,0
101037,-100,4,2,1,100,0,0
101742,-80,4,2,1,100,0,0
102684,-100,4,2,1,100,0,0
103389,-100,4,2,1,15,0,0

[Colours]
Combo1 : 128,224,31
Combo2 : 255,128,0
Combo3 : 153,255,0
Combo4 : 255,102,0

[HitObjects]
100,136,390,6,4,B|180:188|260:136,1,170
344,80,919,5,8,0:0:0:0:
404,156,1095,2,8,B|440:208,3,42.5
440,216,1448,2,8,B|461:282,3,42.5
456,288,1801,6,0,B|432:356|328:344,1,127.5,12|8,0:0|0:0,0:0:0:0:
320,328,2154,2,0,B|284:284|216:304,1,85,2|0,0:0|0:0,0:0:0:0:
76,308,2507,2,0,B|112:352|180:332,1,85,2|0,0:0|0:0,0:0:0:0:
164,216,2860,6,0,B|192:144|132:88,2,127.5,10|8|0,0:0|0:0|0:0,0:0:0:0:
256,192,3566,1,2,0:0:0:0:
348,168,3742,1,0,0:0:0:0:
440,192,3919,6,0,B|488:208|504:256,1,85,10|0,0:0|0:0,0:0:0:0:
424,328,4272,1,2,0:0:0:0:
392,332,4360,2,0,B|300:348,1,85
276,352,4625,6,0,B|204:360|160:308,2,127.5,12|8|0,0:0|0:0|0:0,0:0:0:0:
240,264,5331,1,2,0:0:0:0:
204,180,5507,1,0,0:0:0:0:
164,96,5684,6,0,B|100:56|32:88,1,127.5,10|8,0:0|0:0,0:0:0:0:
16,100,6037,1,2,0:0:0:0:
96,172,6213,1,0,0:0:0:0:
204,180,6389,2,0,B|248:196|288:180,1,85,2|0,0:0|0:0,0:0:0:0:
424,92,6742,6,0,B|380:76|340:92,1,85,10|0,0:0|0:0,0:0:0:0:
392,188,7095,1,2,0:0:0:0:
408,216,7184,2,0,B|432:264|408:316,1,85,8|0,0:0|0:0,0:0:0:0:
392,320,7448,6,0,B|336:360|264:336,1,127.5,14|8,0:0|0:0,0:0:0:0:
240,324,7801,2,0,B|152:288,1,85,2|0,0:0|0:0,0:0:0:0:
64,168,8154,2,0,B|142:200,1,85,2|0,0:0|0:0,0:0:0:0:
308,180,8507,6,0,B|170:123,1,127.5,10|8,0:0|0:0,0:0:0:0:
160,116,8860,1,2,0:0:0:0:
256,52,9037,1,0,0:0:0:0:
352,116,9213,2,0,B|392:148,3,42.5,2|0|0|0,0:0|0:0|0:0|0:0,0:0:0:0:
406,163,9566,5,10,0:0:0:0:
425,185,9654,1,0,0:0:0:0:
439,210,9742,1,0,0:0:0:0:
446,239,9831,1,0,0:0:0:0:
443,268,9919,1,2,0:0:0:0:
431,295,10007,1,0,0:0:0:0:
412,317,10095,1,0,0:0:0:0:
385,330,10184,1,0,0:0:0:0:
356,338,10272,6,0,B|304:351,3,42.5,14|0|0|8,0:0|0:0|0:0|0:0,0:0:0:0:
284,351,10625,1,2,0:0:0:0:
254,348,10713,1,0,0:0:0:0:
227,335,10801,1,0,0:0:0:0:
209,310,10889,1,0,0:0:0:0:
202,280,10978,1,2,0:0:0:0:
209,251,11066,1,0,0:0:0:0:
223,225,11154,1,0,0:0:0:0:
245,206,11242,1,0,0:0:0:0:
268,187,11331,6,0,B|303:158,3,42.5,10|0|0|8,0:0|0:0|0:0|0:0,0:0:0:0:
324,141,11684,1,2,0:0:0:0:
337,114,11772,1,0,0:0:0:0:
337,84,11860,1,0,0:0:0:0:
320,59,11948,1,0,0:0:0:0:
294,43,12037,1,2,0:0:0:0:
264,39,12125,1,0,0:0:0:0:
237,52,12213,1,0,0:0:0:0:
218,75,12301,1,0,0:0:0:0:
203,101,12389,6,0,B|171:154,3,42.5,10|0|0|8,0:0|0:0|0:0|0:0,0:0:0:0:
163,161,12742,1,0,0:0:0:0:
142,182,12831,2,0,B|86:225|5:197,1,127.5,0|4,0:0|0:0,0:0:0:0:
37,294,13272,5,0,0:0:0:0:
122,331,13448,1,2,0:0:0:0:
203,284,13625,2,0,B|256:232|333:257,1,127.5,8|8,0:0|0:0,0:0:0:0:
349,257,13978,2,0,B|401:261|428:228,1,85,8|2,0:0|0:0,0:0:0:0:
455,141,14331,1,0,0:0:0:0:
384,80,14507,6,0,B|352:44|304:48,2,85,8|0|2,0:0|0:0|0:0,0:0:0:0:
312,140,15037,2,0,B|242:170|184:132,1,127.5,8|8,0:0|0:0,0:0:0:0:
162,121,15389,1,2,0:0:0:0:
136,105,15478,1,0,0:0:0:0:
107,97,15566,1,2,0:0:0:0:
77,101,15654,1,2,0:0:0:0:
52,117,15742,1,8,0:0:0:0:
37,143,15831,1,8,0:0:0:0:
32,172,15919,6,0,B|20:220|48:252,1,85,4|0,0:0|0:0,0:0:0:0:
128,304,16272,1,2,0:0:0:0:
212,340,16449,2,0,B|296:376|376:340,2,170,8|8|2,0:0|0:0|0:0,0:0:0:0:
272,268,17331,6,0,B|312:244|312:196,1,85,8|0,0:0|0:0,0:0:0:0:
312,104,17684,1,2,0:0:0:0:
400,132,17860,2,0,B|463:161|466:233,1,127.5,8|8,0:0|0:0,0:0:0:0:
468,264,18213,1,2,0:0:0:0:
376,340,18389,1,2,0:0:0:0:
348,351,18478,1,2,0:0:0:0:
319,359,18566,1,8,0:0:0:0:
289,362,18654,1,8,0:0:0:0:
259,362,18742,6,0,B|208:361|177:332,1,85,4|0,0:0|0:0,0:0:0:0:
124,260,19095,1,2,0:0:0:0:
208,220,19272,2,0,B|260:172|232:96,1,127.5,8|8,0:0|0:0,0:0:0:0:
220,72,19625,1,8,0:0:0:0:
312,60,19801,2,0,B|416:52,1,85,2|0,0:0|0:0,0:0:0:0:
440,136,20154,6,0,B|464:184|436:220,2,85,8|0|2,0:0|0:0|0:0,0:0:0:0:
322,188,20684,2,0,B|287:251|330:308,1,127.5,8|8,0:0|0:0,0:0:0:0:
342,334,21037,1,2,0:0:0:0:
313,340,21125,1,0,0:0:0:0:
283,345,21213,1,2,0:0:0:0:
254,346,21301,1,2,0:0:0:0:
224,343,21389,1,8,0:0:0:0:
195,332,21478,1,8,0:0:0:0:
169,316,21566,6,0,B|133:289|136:239,1,85,4|0,0:0|0:0,0:0:0:0:
148,148,21919,1,2,0:0:0:0:
228,196,22096,2,0,B|316:234|392:191,1,170,8|8,0:0|0:0,0:0:0:0:
468,140,22625,1,2,0:0:0:0:
380,104,22801,1,0,0:0:0:0:
296,64,22978,6,0,B|208:16|128:68,1,170,8|2,0:0|0:0,0:0:0:0:
152,156,23507,2,0,B|152:224|92:264,1,127.5,8|8,0:0|0:0,0:0:0:0:
68,280,23860,1,2,0:0:0:0:
152,328,24037,1,2,0:0:0:0:
179,337,24125,1,2,0:0:0:0:
208,342,24213,1,8,0:0:0:0:
237,340,24301,1,8,0:0:0:0:
266,333,24389,1,8,0:0:0:0:
352,280,24566,5,0,0:0:0:0:
372,256,24654,1,0,0:0:0:0:
392,232,24742,1,0,0:0:0:0:
412,208,24831,1,0,0:0:0:0:
432,184,24919,1,0,0:0:0:0:
452,160,25007,1,0,0:0:0:0:
472,136,25095,6,0,B|483:116|475:95,3,42.5
460,68,25448,1,0,0:0:0:0:
432,55,25537,1,0,0:0:0:0:
402,51,25625,1,0,0:0:0:0:
372,53,25713,1,0,0:0:0:0:
344,60,25801,6,0,B|236:96,1,85,2|0,0:0|0:0,0:0:0:0:
128,160,26154,2,0,B|236:196,1,85,2|0,0:0|0:0,0:0:0:0:
344,240,26507,1,8,0:0:0:0:
368,260,26595,1,0,0:0:0:0:
376,292,26684,1,4,0:0:0:0:
368,324,26772,1,0,0:0:0:0:
344,344,26860,1,0,0:0:0:0:
320,356,26948,2,0,B|260:392|200:356,1,127.5,12|4,0:0|0:0,0:0:0:0:
132,288,27389,5,0,0:0:0:0:
196,212,27566,2,0,B|236:176|224:128,1,85,2|8,0:0|0:0,0:0:0:0:
232,108,27831,2,0,B|252:64|304:60,1,85
327,64,28095,1,0,0:0:0:0:
355,73,28184,1,0,0:0:0:0:
378,90,28272,1,2,0:0:0:0:
440,176,28448,1,0,0:0:0:0:
456,200,28537,1,0,0:0:0:0:
468,228,28625,6,0,B|492:276|468:328,2,85,8|0|2,0:0|0:0|0:0,0:0:0:0:
384,284,29154,1,8,0:0:0:0:
356,296,29242,2,0,B|312:320|264:296,1,85,0|2,0:0|0:0,0:0:0:0:
245,291,29506,1,8,0:0:0:0:
219,276,29595,1,8,0:0:0:0:
197,256,29683,1,2,0:0:0:0:
264,180,29860,1,8,0:0:0:0:
288,160,29948,1,2,0:0:0:0:
312,140,30037,6,0,B|391:74,2,85,8|0|2,0:0|0:0|0:0,0:0:0:0:
232,80,30566,2,0,B|168:40|100:88,1,127.5,8|0,0:0|0:0,0:0:0:0:
84,100,30919,1,0,0:0:0:0:
120,192,31095,1,2,0:0:0:0:
84,284,31272,1,0,0:0:0:0:
168,320,31448,6,0,B|236:352|296:312,1,127.5,8|0,0:0|0:0,0:0:0:0:
316,300,31801,1,2,0:0:0:0:
285,204,31978,2,0,B|253:134|317:84,1,127.5,8|2,0:0|0:0,0:0:0:0:
337,72,32331,1,0,0:0:0:0:
436,132,32507,1,2,0:0:0:0:
452,160,32595,1,8,0:0:0:0:
460,192,32684,1,8,0:0:0:0:
452,224,32772,1,2,0:0:0:0:
436,252,32860,5,8,0:0:0:0:
368,312,33037,1,0,0:0:0:0:
284,280,33213,2,0,B|248:252|204:264,1,85,2|8,0:0|0:0,0:0:0:0:
180,276,33478,2,0,B|144:304|100:292,1,85
71,282,33742,1,0,0:0:0:0:
45,266,33831,1,0,0:0:0:0:
31,239,33919,1,2,0:0:0:0:
32,136,34095,1,0,0:0:0:0:
52,144,34184,1,0,0:0:0:0:
72,152,34272,6,0,B|116:172|156:152,1,85,8|0,0:0|0:0,0:0:0:0:
256,96,34625,2,0,B|294:70|337:83,1,85,2|8,0:0|0:0,0:0:0:0:
364,92,34889,1,0,0:0:0:0:
324,192,35066,1,2,0:0:0:0:
313,219,35154,1,8,0:0:0:0:
313,248,35242,1,8,0:0:0:0:
325,275,35331,1,2,0:0:0:0:
412,320,35507,1,8,0:0:0:0:
444,316,35595,1,2,0:0:0:0:
472,304,35684,5,8,0:0:0:0:
416,224,35860,1,0,0:0:0:0:
472,144,36037,1,2,0:0:0:0:
416,64,36213,2,0,B|336:4|240:56,2,170,0|8|8,0:0|0:0|0:0,0:0:0:0:
344,132,37095,6,0,B|280:168|208:148,1,127.5,8|0,0:0|0:0,0:0:0:0:
192,144,37448,1,2,0:0:0:0:
64,204,37625,2,2,B|96:272|168:272,1,127.5,0|2,0:0|0:0,0:0:0:0:
192,260,37978,1,8,0:0:0:0:
220,272,38066,1,8,0:0:0:0:
248,260,38154,1,2,0:0:0:0:
276,272,38242,1,8,0:0:0:0:
304,260,38331,1,8,0:0:0:0:
332,272,38419,1,2,0:0:0:0:
360,260,38507,5,4,0:0:0:0:
432,192,38684,1,0,0:0:0:0:
360,124,38860,2,0,B|332:88|288:88,1,85,2|8,0:0|0:0,0:0:0:0:
260,88,39125,2,0,B|214:92|184:59,1,85
163,37,39389,1,0,0:0:0:0:
134,26,39478,1,0,0:0:0:0:
104,30,39566,1,2,0:0:0:0:
48,116,39742,1,0,0:0:0:0:
40,144,39831,1,0,0:0:0:0:
35,173,39919,6,0,B|19:216|51:255,2,85,8|0|2,0:0|0:0|0:0,0:0:0:0:
124,204,40448,1,8,0:0:0:0:
150,218,40537,2,0,B|191:240|238:222,1,85,0|2,0:0|0:0,0:0:0:0:
259,212,40801,1,8,0:0:0:0:
283,195,40889,1,8,0:0:0:0:
298,169,40978,1,2,0:0:0:0:
335,92,41154,1,8,0:0:0:0:
360,76,41242,1,2,0:0:0:0:
389,68,41331,6,0,B|437:59|474:98,1,85,8|0,0:0|0:0,0:0:0:0:
416,192,41684,1,2,0:0:0:0:
467,292,41860,2,0,B|421:341|348:327,1,127.5,8|0,0:0|0:0,0:0:0:0:
324,320,42213,2,0,B|284:296|241:316,1,85,0|2,0:0|0:0,0:0:0:0:
112,248,42566,6,0,B|152:272|194:251,1,85,0|8,0:0|0:0,0:0:0:0:
324,188,42919,2,0,B|284:164|241:184,1,85,0|2,0:0|0:0,0:0:0:0:
112,116,43272,2,0,B|152:140|194:119,1,85,8|0,0:0|0:0,0:0:0:0:
209,94,43537,1,2,0:0:0:0:
224,68,43625,1,8,0:0:0:0:
244,46,43713,1,8,0:0:0:0:
270,35,43801,1,2,0:0:0:0:
299,31,43889,1,8,0:0:0:0:
328,38,43978,1,8,0:0:0:0:
352,54,44066,1,2,0:0:0:0:
372,74,44154,6,0,B|446:151,1,85,8|0,0:0|0:0,0:0:0:0:
430,248,44507,2,0,B|372:310,1,85,2|8,0:0|0:0,0:0:0:0:
352,332,44772,1,0,0:0:0:0:
282,266,44948,1,0,0:0:0:0:
266,240,45037,1,8,0:0:0:0:
260,210,45125,1,0,0:0:0:0:
268,179,45213,1,2,0:0:0:0:
209,98,45389,1,0,0:0:0:0:
184,114,45478,1,0,0:0:0:0:
155,121,45566,6,0,B|107:134|72:108,1,85,8|0,0:0|0:0,0:0:0:0:
91,202,45919,2,0,B|122:232|111:294,1,85,2|8,0:0|0:0,0:0:0:0:
124,308,46184,2,0,B|154:339|216:328,1,85,0|2,0:0|0:0,0:0:0:0:
231,323,46448,1,8,0:0:0:0:
260,327,46537,1,8,0:0:0:0:
288,319,46625,1,2,0:0:0:0:
388,313,46801,1,8,0:0:0:0:
414,304,46889,1,2,0:0:0:0:
436,284,46978,6,0,B|476:252|460:196,2,85,8|0|2,0:0|0:0|0:0,0:0:0:0:
364,216,47507,2,0,B|176:138,2,170,8|8|8,0:0|0:0|0:0,0:0:0:0:
320,120,48389,6,0,B|194:68,1,127.5,8|0,0:0|0:0,0:0:0:0:
175,58,48742,1,2,0:0:0:0:
104,136,48919,2,2,B|60:188|80:264,1,127.5,0|2,0:0|0:0,0:0:0:0:
93,281,49272,1,8,0:0:0:0:
114,300,49360,1,8,0:0:0:0:
141,309,49448,1,2,0:0:0:0:
170,312,49537,1,8,0:0:0:0:
199,305,49625,1,8,0:0:0:0:
226,293,49713,1,2,0:0:0:0:
247,272,49801,5,4,0:0:0:0:
320,148,50154,2,0,B|332:112|304:76,2,70.8333322778344,8|0|8,0:0|0:0|0:0,0:0:0:0:
248,128,50507,2,0,B|217:105|174:120,2,70.8333322778344,0|8|0,0:0|0:0|0:0,0:0:0:0:
206,190,50860,2,0,B|175:212|176:257,2,70.8333322778344,8|0|8,0:0|0:0|0:0,0:0:0:0:
252,248,51213,2,0,B|263:284|307:296,2,70.8333322778344,0|8|0,0:0|0:0|0:0,0:0:0:0:
322,223,51566,2,0,B|359:223|385:185,2,70.8333322778344,8|0|8,0:0|0:0|0:0,0:0:0:0:
320,148,51919,6,8,B|320:112,4,28.3333333333333,8|8|8|8|8,0:0|0:0|0:0|0:0|0:0,0:0:0:0:
396,120,52272,2,8,B|396:84,4,28.3333333333333,10|10|10|10|10,0:0|0:0|0:0|0:0|0:0,0:0:0:0:
472,92,52625,2,0,B|472:44,2,42.5,8|8|8,0:0|0:0|0:0,0:0:0:0:
472,128,52890,6,0,B|472:217|386:267,1,170,4|4,0:0|0:0,0:0:0:0:
364,280,53331,2,0,B|304:304,3,42.5
296,300,53684,2,0,B|236:300,3,42.5
224,300,54037,6,0,B|164:296|128:240,1,113.333333333333,12|8,0:0|0:0,0:0:0:0:
112,204,54389,6,0,B|100:168|116:136,2,70.8333322778344,2|10|0,0:0|0:0|0:0,0:0:0:0:
184,172,54742,2,0,B|220:184|252:168,2,70.8333322778344,10|0|10,0:0|0:0|0:0,0:0:0:0:
216,96,55095,2,0,B|266:64|324:96,1,106.249998416752,2|8,0:0|0:0,0:0:0:0:
348,116,55389,6,0,B|412:156|488:120,1,141.666666666667,12|8,0:0|0:0,0:0:0:0:
492,160,55801,2,0,B|500:224|456:264,1,113.333333333333,8|8,0:0|0:0,0:0:0:0:
420,248,56154,2,0,B|362:220|311:252,1,113.333333333333,8|8,0:0|0:0,0:0:0:0:
278,272,56507,2,0,B|199:319|116:276,1,170,8|0,0:0|0:0,0:0:0:0:
216,136,57213,6,0,B|149:130|137:59,2,113.333333333333,4|0|0,0:0|0:0|0:0,0:0:0:0:
256,143,57801,1,8,0:0:0:0:
296,136,57919,2,0,B|363:130|375:59,1,113.333333333333,8|0,0:0|0:0,0:0:0:0:
416,72,58272,6,0,B|488:88,2,70.8333322778344,2|0|0,0:0|0:0|0:0,0:0:0:0:
423,136,58625,2,0,B|477:185,2,70.8333322778344,2|0|0,0:0|0:0|0:0,0:0:0:0:
397,193,58978,2,0,B|419:262,2,70.8333322778344,2|0|0,0:0|0:0|0:0,0:0:0:0:
345,229,59331,2,0,B|329:300,2,70.8333322778344,2|0|0,0:0|0:0|0:0,0:0:0:0:
293,238,59684,1,2,0:0:0:0:
248,245,59801,1,0,0:0:0:0:
205,242,59919,1,0,0:0:0:0:
170,222,60037,1,2,0:0:0:0:
143,192,60155,1,0,0:0:0:0:
133,153,60272,1,0,0:0:0:0:
131,113,60389,6,0,B|138:51|189:22,2,113.333333333333,2|2|2,0:0|0:0|0:0,0:0:0:0:
268,116,61095,6,0,B|336:124|384:68,1,127.5,0|2,0:0|0:0,0:0:0:0:
332,204,61537,2,0,B|324:272|380:320,1,127.5,0|2,0:0|0:0,0:0:0:0:
244,268,61978,2,0,B|176:260|128:316,1,127.5,0|2,0:0|0:0,0:0:0:0:
180,180,62420,2,0,B|188:112|132:64,1,127.5,0|2,0:0|0:0,0:0:0:0:
268,116,62860,6,0,B|272:80,4,28.3333333333333,0|0|2|2|2,0:0|0:0|0:0|0:0|0:0,0:0:0:0:
312,128,63213,6,0,B|378:149,3,42.5
386,155,63566,2,0,B|441:196,3,42.5
449,208,63919,2,0,B|491:258,3,42.5
491,276,64272,1,2,0:0:0:0:
388,320,64507,6,0,B|359:346|324:340,2,70.8333322778344,2|0|0,0:0|0:0|0:0,0:0:0:0:
336,268,64860,2,0,B|297:276|270:253,2,70.8333322778344,2|0|0,0:0|0:0|0:0,0:0:0:0:
316,196,65213,2,0,B|278:183|266:150,2,70.8333322778344,2|0|0,0:0|0:0|0:0,0:0:0:0:
336,124,65566,1,2,0:0:0:0:
344,48,65684,6,0,B|296:12|236:36,1,113.333333333333,6|0,0:0|0:0,0:0:0:0:
192,48,66037,2,8,B|136:72|83:39,2,113.333333333333
208,88,66625,1,8,0:0:0:0:
212,128,66742,5,6,0:0:0:0:
200,164,66860,1,0,0:0:0:0:
176,196,66978,1,2,0:0:0:0:
144,216,67095,1,0,0:0:0:0:
104,228,67213,1,2,0:0:0:0:
64,232,67331,1,0,0:0:0:0:
84,264,67448,5,2,0:0:0:0:
112,292,67566,1,0,0:0:0:0:
148,308,67684,1,2,0:0:0:0:
188,312,67801,1,0,0:0:0:0:
228,304,67919,1,2,0:0:0:0:
260,280,68037,1,0,0:0:0:0:
272,244,68154,6,0,B|280:172,2,70.8333322778344,6|0|0,0:0|0:0|0:0,0:0:0:0:
332,288,68507,2,0,B|324:358,2,70.8333322778344,2|0|0,0:0|0:0|0:0,0:0:0:0:
396,252,68860,2,0,B|404:180,2,70.8333322778344,2|0|0,0:0|0:0|0:0,0:0:0:0:
456,296,69213,2,0,B|448:366,2,70.8333322778344,2|0|0,0:0|0:0|0:0,0:0:0:0:
480,228,69566,6,0,B|512:176|488:120,1,113.333333333333,4|0,0:0|0:0,0:0:0:0:
464,87,69919,1,0,0:0:0:0:
428,69,70037,1,0,0:0:0:0:
388,64,70154,1,0,0:0:0:0:
349,72,70272,2,0,B|300:109|302:169,2,113.333333333333,0|2|2,0:0|0:0|0:0,0:0:0:0:
402,161,70978,5,8,0:0:0:0:
416,197,71095,1,0,0:0:0:0:
420,236,71213,1,0,0:0:0:0:
415,275,71331,1,8,0:0:0:0:
393,308,71448,1,0,0:0:0:0:
360,330,71566,1,0,0:0:0:0:
321,340,71684,2,0,B|260:354|202:304,2,113.333333333333,8|2|2,0:0|0:0|0:0,0:0:0:0:
270,230,72389,6,0,B|209:199|158:230,1,113.333333333333,8|0,0:0|0:0,0:0:0:0:
125,246,72742,1,8,0:0:0:0:
87,258,72860,1,0,0:0:0:0:
47,251,72978,1,0,0:0:0:0:
15,227,73095,2,0,B|-18:176|12:106,2,113.333333333333,8|2|2,0:0|0:0|0:0,0:0:0:0:
112,128,73801,5,8,0:0:0:0:
144,108,73919,1,0,0:0:0:0:
184,104,74037,1,0,0:0:0:0:
220,88,74154,1,8,0:0:0:0:
260,88,74272,1,0,0:0:0:0:
296,72,74389,1,0,0:0:0:0:
336,72,74507,2,0,B|392:68|392:68|444:44,2,113.333333333333,8|2|2,0:0|0:0|0:0,0:0:0:0:
440,168,75213,6,0,B|484:216|452:288,1,113.333333333333,8|0,0:0|0:0,0:0:0:0:
438,308,75566,1,8,0:0:0:0:
402,325,75684,1,0,0:0:0:0:
362,329,75801,1,0,0:0:0:0:
324,315,75919,2,0,B|267:294|214:319,2,113.333333333333,8|2|2,0:0|0:0|0:0,0:0:0:0:
357,221,76625,6,0,B|374:142,2,70.8333322778344,8|0|0,0:0|0:0|0:0,0:0:0:0:
288,188,76978,2,0,B|289:107,2,70.8333322778344,8|0|0,0:0|0:0|0:0,0:0:0:0:
213,168,77331,2,0,B|192:49,2,113.333333333333,8|2|2,0:0|0:0|0:0,0:0:0:0:
136,260,78037,6,0,B|124:324|178:356,1,113.333333333333,8|0,0:0|0:0,0:0:0:0:
216,372,78389,1,8,0:0:0:0:
256,376,78507,1,0,0:0:0:0:
296,372,78625,1,0,0:0:0:0:
333,356,78743,2,0,B|388:324|376:260,2,113.333333333333,8|2|2,0:0|0:0|0:0,0:0:0:0:
256,192,79449,6,0,B|212:132|279:92|252:28,2,170,4|4|4,0:0|0:0|0:0,0:0:0:0:
348,112,80419,2,0,B|369:84,4,31.874999050051,2|2|2|2|2,0:0|0:0|0:0|0:0|0:0,0:0:0:0:
381,129,80860,6,0,B|433:153,3,42.5
442,166,81213,2,0,B|470:206,3,42.5,2|0|0|0,0:0|0:0|0:0|0:0,0:0:0:0:
479,227,81566,5,0,0:0:0:0:
486,255,81654,1,0,0:0:0:0:
483,284,81742,1,0,0:0:0:0:
470,311,81831,1,0,0:0:0:0:
448,331,81919,1,2,0:0:0:0:
419,340,82007,1,0,0:0:0:0:
389,340,82095,1,0,0:0:0:0:
360,329,82184,1,0,0:0:0:0:
335,311,82272,5,0,0:0:0:0:
282,216,82448,1,0,0:0:0:0:
268,189,82537,1,0,0:0:0:0:
253,163,82625,2,0,B|230:122,3,42.5,2|0|0|0,0:0|0:0|0:0|0:0,0:0:0:0:
214,101,82978,5,0,0:0:0:0:
191,81,83066,1,0,0:0:0:0:
161,77,83154,1,0,0:0:0:0:
131,80,83242,1,0,0:0:0:0:
102,90,83331,2,0,B|57:109,3,42.5,2|0|0|0,0:0|0:0|0:0|0:0,0:0:0:0:
38,124,83684,6,0,B|15:169,3,42.5
25,192,84037,1,2,0:0:0:0:
35,219,84125,1,0,0:0:0:0:
45,246,84213,1,0,0:0:0:0:
55,273,84301,1,0,0:0:0:0:
67,299,84389,6,0,B|96:368,3,42.5
113,334,84742,1,2,0:0:0:0:
142,327,84831,1,0,0:0:0:0:
170,320,84919,1,0,0:0:0:0:
198,313,85007,1,0,0:0:0:0:
226,305,85095,6,0,B|280:312,3,42.5
304,304,85448,2,0,B|344:288,3,42.5,2|0|0|0,0:0|0:0|0:0|0:0,0:0:0:0:
364,264,85801,1,0,0:0:0:0:
383,242,85889,1,0,0:0:0:0:
388,214,85978,1,0,0:0:0:0:
408,192,86066,1,0,0:0:0:0:
414,164,86154,1,2,0:0:0:0:
434,142,86242,1,0,0:0:0:0:
439,114,86331,1,0,0:0:0:0:
459,92,86419,1,0,0:0:0:0:
465,64,86507,6,0,B|432:36,3,42.5
403,28,86860,1,2,0:0:0:0:
373,24,86948,1,0,0:0:0:0:
343,25,87037,1,0,0:0:0:0:
313,30,87125,1,0,0:0:0:0:
286,42,87213,2,0,B|247:61,3,42.5
219,69,87566,1,2,0:0:0:0:
189,72,87654,1,0,0:0:0:0:
159,71,87742,1,0,0:0:0:0:
129,68,87831,1,0,0:0:0:0:
99,65,87919,6,0,B|51:55,3,42.5
47,84,88272,1,2,0:0:0:0:
40,113,88360,1,0,0:0:0:0:
43,142,88448,1,0,0:0:0:0:
53,169,88537,1,0,0:0:0:0:
65,196,88625,2,0,B|99:238,3,42.5
119,240,88978,1,2,0:0:0:0:
148,244,89066,1,0,0:0:0:0:
177,239,89154,1,0,0:0:0:0:
205,229,89242,1,0,0:0:0:0:
228,210,89331,6,0,B|260:174,3,42.5
283,191,89684,2,0,B|319:223,3,42.5,2|0|0|0,0:0|0:0|0:0|0:0,0:0:0:0:
338,200,90037,2,0,B|370:164,3,42.5
391,183,90389,1,2,0:0:0:0:
414,201,90478,1,0,0:0:0:0:
432,223,90566,1,2,0:0:0:0:
439,251,90654,1,2,0:0:0:0:
439,280,90742,6,0,B|424:346|347:355,1,127.5,4|4,0:0|0:0,0:0:0:0:
316,360,91095,1,2,0:0:0:0:
212,344,91272,1,8,0:0:0:0:
128,288,91448,2,0,B|96:260,2,42.5,8|8|2,0:0|0:0|0:0,0:0:0:0:
236,252,91801,1,2,0:0:0:0:
260,236,91889,2,0,B|304:212|308:160,1,85,8|8,0:0|0:0,0:0:0:0:
308,140,92154,6,0,B|302:63|361:27,1,127.5,8|8,0:0|0:0,0:0:0:0:
388,20,92507,1,2,0:0:0:0:
456,100,92684,1,8,0:0:0:0:
472,124,92772,2,0,B|504:160|492:208,1,85,4|8,0:0|0:0,0:0:0:0:
488,232,93037,1,2,0:0:0:0:
416,304,93213,1,2,0:0:0:0:
392,320,93301,1,8,0:0:0:0:
300,272,93478,1,8,0:0:0:0:
276,256,93566,6,0,B|154:173,1,127.5,8|8,0:0|0:0,0:0:0:0:
148,164,93919,2,0,B|92:120|108:48,2,127.5,2|4|2,0:0|0:0|0:0,0:0:0:0:
200,76,94625,1,2,0:0:0:0:
228,60,94713,2,0,B|268:40|316:60,1,85,8|8,0:0|0:0,0:0:0:0:
332,76,94978,6,0,B|376:128|448:120,1,127.5,8|8,0:0|0:0,0:0:0:0:
476,116,95331,1,2,0:0:0:0:
468,216,95507,1,8,0:0:0:0:
460,252,95625,2,0,B|448:296|396:312,1,85,4|0,0:0|0:0,0:0:0:0:
332,340,95919,6,0,B|300:360|264:356,2,70.8333322778344,8|8|8,0:0|0:0|0:0,0:0:0:0:
280,280,96272,2,0,B|242:282|212:262,2,70.8333322778344,8|8|8,0:0|0:0|0:0,0:0:0:0:
264,204,96625,2,0,B|240:174|248:136,1,70.8333322778344,8|2,0:0|0:0,0:0:0:0:
268,68,96860,2,0,B|260:28,2,35.4166661389172,8|8|2,0:0|0:0|0:0,0:0:0:0:
340,56,97095,2,0,B|332:16,2,35.4166661389172,8|8|8,0:0|0:0|0:0,0:0:0:0:
408,80,97331,2,0,B|492:132|472:224,1,170,8|8,0:0|0:0,0:0:0:0:
456,296,97801,6,0,B|440:336,2,35.4166661389172,8|8|2,0:0|0:0|0:0,0:0:0:0:
400,247,98037,1,8,0:0:0:0:
336,208,98154,2,0,B|272:158,2,70.8333322778344,8|2|2,0:0|0:0|0:0,0:0:0:0:
272,256,98507,2,0,B|213:301,2,70.8333322778344,2|2|2,0:0|0:0|0:0,0:0:0:0:
120,212,98978,1,8,0:0:0:0:
64,168,99095,6,0,B|12:124|24:56,1,113.333333333333,8|8,0:0|0:0,0:0:0:0:
92,92,99448,2,0,B|156:100|188:45,1,113.333333333333,8|8,0:0|0:0,0:0:0:0:
292,92,99919,1,8,0:0:0:0:
356,128,100037,2,0,B|388:148,4,35.4166661389172,8|8|8|8|8,0:0|0:0|0:0|0:0|0:0,0:0:0:0:
392,264,100507,1,8,0:0:0:0:
348,320,100625,6,0,B|328:352|280:368,1,70.8333322778344,2|2,0:0|0:0,0:0:0:0:
218,363,100860,2,0,B|184:352|164:320,1,70.8333322778344,2|2,0:0|0:0,0:0:0:0:
136,256,101095,2,0,B|108:196|136:144,1,113.333333333333,8|2,0:0|0:0,0:0:0:0:
168,84,101448,2,0,B|207:31|266:31,1,113.333333333333,8|8,0:0|0:0,0:0:0:0:
336,32,101801,2,0,B|384:32,2,35.4166661389172,8|8|2,0:0|0:0|0:0,0:0:0:0:
352,104,102037,2,0,B|424:104,1,70.8333322778344,8|2,0:0|0:0,0:0:0:0:
368,176,102272,2,0,B|447:176,1,70.8333322778344,8|8,0:0|0:0,0:0:0:0:
376,312,102625,1,8,0:0:0:0:
312,348,102742,6,0,B|256:368|200:348,2,113.333333333333,8|8|8,0:0|0:0|0:0,0:0:0:0:
256,192,103448,12,0,104860,0:0:0:0:
