osu file format v12

[General]
AudioFilename: keiyakusha.mp3
AudioLeadIn: 0
PreviewTime: -1
Countdown: 0
SampleSet: Normal
StackLeniency: 0.7
Mode: 0
LetterboxInBreaks: 1
WidescreenStoryboard: 1

[Editor]
Bookmarks: 114255
DistanceSpacing: 1
BeatDivisor: 4
GridSize: 8

[Metadata]
Title:SHINE ON YOU(short.ver)
TitleUnicode:SHINE ON YOU(short.ver)
Artist:TOMOKI x
ArtistUnicode:TOMOKI x
Creator:Tada
Version:RuNa
Source:Negai no Kakera to Hakugin no Keiyakusha
Tags:SHINE ON YOU
BeatmapID:301644
BeatmapSetID:117012

[Difficulty]
HPDrainRate:8
CircleSize:4
OverallDifficulty:7
ApproachRate:9
SliderMultiplier:1.9
SliderTickRate:1

[Events]
//Background and Video events
0,0,"AIrIwZQ.jpg",0,0
//Break Periods
2,80356,86533
//Storyboard Layer 0 (Background)
//Storyboard Layer 1 (Fail)
//Storyboard Layer 2 (Pass)
//Storyboard Layer 3 (Foreground)
//Storyboard Sound Samples
//Background Colour Transformations
3,100,163,162,255

[TimingPoints]
12482,348.837209302326,4,1,0,40,1,0
54342,-100,4,1,0,50,0,1
56609,-100,4,1,0,30,0,1
57299,-100,4,1,0,50,0,1
87133,-100,4,1,0,50,0,0
88179,-133.333333333333,4,1,0,30,0,0
89226,-100,4,1,0,50,0,0
93761,-200,4,1,0,30,0,0
94807,-100,4,1,0,50,0,0
114516,-200,4,1,0,30,0,0
118877,-100,4,1,0,5,0,0

[HitObjects]
296,88,4109,1,2,0:0:0:0:
456,56,4284,1,0,0:0:0:0:
496,208,4458,1,0,0:0:0:0:
328,232,4633,1,0,0:0:0:0:
336,112,4807,1,2,0:0:0:0:
496,128,4981,1,0,0:0:0:0:
472,280,5156,1,0,0:0:0:0:
304,272,5330,1,0,0:0:0:0:
176,288,5505,5,2,0:0:0:0:
176,288,5592,1,0,0:0:0:0:
176,288,5679,2,0,P|112:216|112:184,1,95
152,96,6028,1,0,0:0:0:0:
304,304,6202,1,2,0:0:0:0:
448,216,6377,1,0,0:0:0:0:
304,48,6551,1,0,0:0:0:0:
304,168,6726,5,0,0:0:0:0:
304,168,6900,2,0,B|256:232|216:224|192:216,1,95,2|0,0:0|0:0,0:0:0:0:
160,240,7249,2,0,P|128:288|136:344,1,95
168,336,7511,1,0,0:0:0:0:
200,336,7598,2,0,P|272:320|296:296,1,95,2|0,0:0|0:0,0:0:0:0:
328,312,7859,1,0,0:0:0:0:
360,312,7947,2,0,P|408:280|432:240,1,95
440,224,8208,1,0,0:0:0:0:
440,200,8295,1,2,0:0:0:0:
256,96,8470,2,0,B|298:88|298:88|298:88|322:80|362:120|370:80|410:112|410:72|490:88,2,237.5
64,240,9516,6,0,L|128:232,1,47.5
128,272,9691,2,0,P|168:304|232:304,1,95,2|0,0:0|0:0,0:0:0:0:
472,288,10040,1,0,0:0:0:0:
376,168,10214,1,0,0:0:0:0:
296,288,10388,1,2,0:0:0:0:
432,240,10563,1,0,0:0:0:0:
352,120,10737,1,0,0:0:0:0:
264,240,10912,1,0,0:0:0:0:
400,200,11086,1,2,0:0:0:0:
304,88,11261,1,0,0:0:0:0:
200,200,11435,1,0,0:0:0:0:
392,160,11609,5,2,0:0:0:0:
280,48,11784,1,2,0:0:0:0:
160,160,11958,1,0,0:0:0:0:
80,80,12133,2,0,P|56:136|64:192,1,95
160,160,12481,2,0,P|160:216|120:280,1,95,2|0,0:0|0:0,0:0:0:0:
280,304,12830,5,0,0:0:0:0:
480,256,13005,1,0,0:0:0:0:
480,256,13179,1,2,0:0:0:0:
248,304,13354,1,0,0:0:0:0:
416,136,13528,1,0,0:0:0:0:
416,136,13702,1,0,0:0:0:0:
248,304,13877,1,2,0:0:0:0:
304,80,14051,1,0,0:0:0:0:
304,80,14138,1,0,0:0:0:0:
304,80,14226,1,0,0:0:0:0:
128,112,14400,6,0,P|88:168|80:192,1,95,0|2,0:0|0:0,0:0:0:0:
144,280,14749,1,0,0:0:0:0:
144,280,14836,1,0,0:0:0:0:
144,280,14923,2,0,P|208:280|248:272,1,95
328,272,15272,5,2,0:0:0:0:
400,72,15447,1,0,0:0:0:0:
480,272,15621,1,0,0:0:0:0:
272,152,15795,1,0,0:0:0:0:
504,144,15970,1,2,0:0:0:0:
328,272,16144,1,0,0:0:0:0:
192,280,16319,5,0,0:0:0:0:
192,280,16406,1,0,0:0:0:0:
192,280,16493,2,0,P|128:248|96:208,1,95,0|2,0:0|0:0,0:0:0:0:
128,104,16842,2,0,L|80:80,3,47.5
128,104,17191,2,0,B|208:88|216:96|232:64|288:64|264:128|224:80|312:96,1,190
309,95,17714,1,0,0:0:0:0:
424,240,17888,1,0,0:0:0:0:
309,95,18063,1,2,0:0:0:0:
416,328,18237,1,0,0:0:0:0:
309,95,18412,5,0,0:0:0:0:
128,272,18586,1,0,0:0:0:0:
128,272,18673,1,0,0:0:0:0:
128,272,18761,1,2,0:0:0:0:
64,136,18935,2,0,B|136:96|168:88|192:144|208:88|240:56,1,190
368,80,19458,1,2,0:0:0:0:
408,96,19545,1,0,0:0:0:0:
424,136,19633,1,0,0:0:0:0:
360,280,19807,5,0,0:0:0:0:
192,72,19982,1,0,0:0:0:0:
360,280,20156,1,2,0:0:0:0:
192,72,20330,1,0,0:0:0:0:
192,72,20418,1,0,0:0:0:0:
192,72,20505,2,0,P|144:112|120:160,1,95
176,264,20854,5,2,0:0:0:0:
464,80,21028,1,0,0:0:0:0:
176,264,21202,1,0,0:0:0:0:
464,80,21377,1,0,0:0:0:0:
464,80,21464,1,0,0:0:0:0:
464,80,21551,2,0,P|488:144|488:192,1,95,2|0,0:0|0:0,0:0:0:0:
464,344,21900,2,0,B|384:304|352:360|264:328,1,190,0|2,0:0|0:0,0:0:0:0:
128,128,22598,5,0,0:0:0:0:
277,332,22772,1,0,0:0:0:0:
277,332,22859,1,0,0:0:0:0:
277,332,22947,1,2,0:0:0:0:
96,280,23121,1,0,0:0:0:0:
312,152,23295,1,0,0:0:0:0:
312,152,23383,1,0,0:0:0:0:
312,152,23470,1,0,0:0:0:0:
8,48,23644,6,0,B|72:96|152:72|176:120|184:136|208:128|208:128,1,190,2|0,0:0|0:0,0:0:0:0:
184,120,24168,1,0,0:0:0:0:
402,271,24342,1,2,0:0:0:0:
184,120,24516,1,0,0:0:0:0:
346,255,24691,1,0,0:0:0:0:
184,117,24865,1,0,0:0:0:0:
298,239,25040,1,2,0:0:0:0:
192,304,25214,5,0,0:0:0:0:
192,304,25301,1,0,0:0:0:0:
192,304,25388,1,0,0:0:0:0:
128,192,25563,2,0,P|136:104|168:80,1,95,0|2,0:0|0:0,0:0:0:0:
264,72,25912,1,0,0:0:0:0:
320,72,25999,1,0,0:0:0:0:
360,104,26086,1,0,0:0:0:0:
440,200,26261,6,0,P|448:256|424:296,1,95,0|2,0:0|0:0,0:0:0:0:
312,304,26609,1,0,0:0:0:0:
184,264,26784,1,0,0:0:0:0:
104,184,26958,1,0,0:0:0:0:
152,64,27133,1,2,0:0:0:0:
272,48,27307,1,0,0:0:0:0:
376,272,27482,1,0,0:0:0:0:
272,48,27656,1,0,0:0:0:0:
168,272,27830,1,2,0:0:0:0:
416,144,28005,1,0,0:0:0:0:
112,144,28179,1,0,0:0:0:0:
120,264,28354,6,0,P|184:296|224:288,1,95,0|2,0:0|0:0,0:0:0:0:
376,272,28702,2,0,P|312:232|264:232,1,95
184,176,29051,1,0,0:0:0:0:
144,144,29138,1,0,0:0:0:0:
128,96,29226,1,2,0:0:0:0:
264,72,29400,1,0,0:0:0:0:
304,104,29487,1,0,0:0:0:0:
320,144,29575,1,0,0:0:0:0:
376,224,29749,5,0,0:0:0:0:
376,224,29923,2,0,P|432:232|480:264,1,95
336,320,30272,2,0,P|272:304|240:280,1,95
80,160,30621,1,2,0:0:0:0:
224,56,30795,1,0,0:0:0:0:
328,192,30970,1,0,0:0:0:0:
184,280,31144,1,0,0:0:0:0:
128,160,31319,1,2,0:0:0:0:
264,56,31493,1,0,0:0:0:0:
368,192,31668,1,0,0:0:0:0:
232,296,31842,1,0,0:0:0:0:
408,336,32016,6,0,P|464:320|504:272,1,95,2|0,0:0|0:0,0:0:0:0:
464,160,32365,2,0,P|424:120|360:96,1,95
264,56,32714,1,2,0:0:0:0:
144,88,32888,1,0,0:0:0:0:
88,200,33063,6,0,P|168:240|208:224,1,95
192,152,33412,2,0,P|256:184|288:232,1,95,2|0,0:0|0:0,0:0:0:0:
384,304,33761,1,0,0:0:0:0:
192,152,33935,1,0,0:0:0:0:
368,144,34109,1,2,0:0:0:0:
208,296,34284,1,0,0:0:0:0:
280,112,34458,1,0,0:0:0:0:
448,128,34633,1,0,0:0:0:0:
440,312,34807,1,2,0:0:0:0:
288,296,34982,1,0,0:0:0:0:
152,288,35156,5,0,0:0:0:0:
112,256,35243,1,0,0:0:0:0:
112,208,35330,1,0,0:0:0:0:
112,64,35505,2,0,B|176:104|208:80|232:56|272:80|304:88|304:88,1,190,2|0,0:0|0:0,0:0:0:0:
448,160,36028,2,0,B|456:176|440:160|384:144|371:165|344:192|256:160,1,190
267,163,36464,1,0,0:0:0:0:
267,163,36551,1,0,0:0:0:0:
128,312,36726,5,0,0:0:0:0:
448,160,36900,1,2,0:0:0:0:
128,312,37075,1,0,0:0:0:0:
128,312,37162,1,0,0:0:0:0:
128,312,37249,2,0,P|120:232|144:192,1,95
128,192,37511,1,0,0:0:0:0:
136,168,37598,1,2,0:0:0:0:
368,72,37772,5,0,0:0:0:0:
464,200,37947,1,0,0:0:0:0:
352,320,38121,1,0,0:0:0:0:
248,216,38295,1,2,0:0:0:0:
320,72,38470,1,0,0:0:0:0:
432,208,38644,1,0,0:0:0:0:
296,304,38819,1,0,0:0:0:0:
200,200,38993,1,2,0:0:0:0:
280,64,39168,1,0,0:0:0:0:
392,192,39342,1,0,0:0:0:0:
256,296,39516,1,0,0:0:0:0:
160,184,39691,1,2,0:0:0:0:
16,216,39865,5,0,0:0:0:0:
32,256,39952,1,0,0:0:0:0:
64,280,40040,1,0,0:0:0:0:
304,304,40214,2,0,P|256:256|200:232,1,95,0|2,0:0|0:0,0:0:0:0:
152,56,40563,2,0,L|88:88,3,47.5
152,56,40912,2,0,L|224:48,1,47.5
216,72,41086,2,0,B|272:32|312:96|328:72|336:32|384:32|416:48,1,190,2|0,0:0|0:0,0:0:0:0:
472,128,41609,1,0,0:0:0:0:
472,128,41697,1,0,0:0:0:0:
472,128,41784,1,2,0:0:0:0:
384,192,41958,2,0,P|360:248|376:296,1,95
240,312,42307,5,0,0:0:0:0:
152,112,42482,1,2,0:0:0:0:
240,312,42656,1,0,0:0:0:0:
152,112,42830,1,0,0:0:0:0:
280,96,43005,2,0,P|336:56|376:48,2,95,0|2|0,0:0|0:0|0:0,0:0:0:0:
352,200,43528,1,0,0:0:0:0:
352,200,43615,1,0,0:0:0:0:
352,200,43702,1,0,0:0:0:0:
352,200,43790,1,0,0:0:0:0:
352,200,43877,2,0,B|408:232|448:248|432:296|512:320|512:320,1,190,2|0,0:0|0:0,0:0:0:0:
128,144,44400,5,0,0:0:0:0:
296,312,44575,1,2,0:0:0:0:
112,320,44749,1,0,0:0:0:0:
240,216,44923,1,0,0:0:0:0:
240,216,45011,1,0,0:0:0:0:
240,216,45098,2,0,B|304:168|288:104|352:120|392:88,1,190
248,80,45621,1,0,0:0:0:0:
144,112,45795,1,0,0:0:0:0:
112,224,45970,1,2,0:0:0:0:
112,224,46057,1,0,0:0:0:0:
112,224,46144,1,0,0:0:0:0:
200,312,46319,6,0,B|272:320|288:288|328:336|368:352|464:296|488:304,1,285
416,88,47016,1,2,0:0:0:0:
328,208,47191,1,0,0:0:0:0:
480,304,47365,1,2,0:0:0:0:
376,96,47540,1,0,0:0:0:0:
296,224,47714,1,0,0:0:0:0:
440,320,47888,1,0,0:0:0:0:
352,200,48063,2,0,P|304:184|224:216,1,95
264,288,48412,2,0,P|200:288|152:256,1,95
32,112,48761,6,0,P|88:72|144:72,1,95,2|0,0:0|0:0,0:0:0:0:
176,160,49109,2,0,P|232:152|280:120,1,95
472,80,49458,1,2,0:0:0:0:
408,288,49633,1,0,0:0:0:0:
312,80,49807,1,0,0:0:0:0:
464,136,49982,1,0,0:0:0:0:
352,288,50156,1,2,0:0:0:0:
264,96,50330,1,0,0:0:0:0:
448,184,50505,1,0,0:0:0:0:
312,312,50679,1,0,0:0:0:0:
264,96,50854,6,0,P|328:96|384:136,1,95,2|0,0:0|0:0,0:0:0:0:
232,288,51202,2,0,P|184:280|136:248,1,95
264,96,51551,1,2,0:0:0:0:
144,256,51726,1,0,0:0:0:0:
344,80,51900,2,0,P|400:96|440:128,1,95
504,288,52249,6,0,B|432:256|384:248|368:296|320:272|312:264,1,190,2|0,0:0|0:0,0:0:0:0:
319,268,52685,1,0,0:0:0:0:
319,268,52772,1,0,0:0:0:0:
24,200,52947,1,2,0:0:0:0:
216,192,53121,1,0,0:0:0:0:
112,16,53295,1,0,0:0:0:0:
64,200,53470,1,0,0:0:0:0:
256,192,53644,1,2,0:0:0:0:
144,16,53819,1,0,0:0:0:0:
160,112,53993,1,0,0:0:0:0:
216,192,54168,1,0,0:0:0:0:
272,264,54342,6,0,P|336:248|384:208,1,95,2|0,0:0|0:0,0:0:0:0:
240,64,54691,2,0,P|192:72|136:104,1,95
328,248,55040,6,0,P|384:224|416:160,1,95,2|0,0:0|0:0,0:0:0:0:
192,80,55388,2,0,P|144:104|112:160,1,95
404,198,55737,1,2,0:0:0:0:
119,136,55912,1,0,0:0:0:0:
416,104,56086,5,0,0:0:0:0:
416,104,56173,1,0,0:0:0:0:
416,104,56261,1,0,0:0:0:0:
488,272,56435,1,2,0:0:0:0:
488,272,56522,1,0,0:0:0:0:
488,272,56609,2,0,B|432:296|384:264|352:320|320:288|320:344|280:304|264:336|208:320,1,285,0|2,0:0|0:0,0:0:0:0:
56,216,57307,1,0,0:0:0:0:
208,320,57482,1,0,0:0:0:0:
144,120,57656,1,0,0:0:0:0:
206,320,57830,1,2,0:0:0:0:
264,184,58005,1,0,0:0:0:0:
304,152,58092,1,0,0:0:0:0:
344,120,58179,1,0,0:0:0:0:
488,72,58354,6,0,P|464:136|432:184,1,95,0|2,0:0|0:0,0:0:0:0:
368,328,58702,1,0,0:0:0:0:
488,72,58877,1,0,0:0:0:0:
416,200,59051,1,0,0:0:0:0:
416,200,59138,1,0,0:0:0:0:
416,200,59226,2,0,B|344:176|296:144|256:184|232:160,1,190,2|0,0:0|0:0,0:0:0:0:
64,72,59749,1,0,0:0:0:0:
104,312,59923,1,2,0:0:0:0:
64,72,60098,5,0,0:0:0:0:
64,72,60185,1,0,0:0:0:0:
64,72,60272,2,0,B|96:128|80:144|48:176|104:160|104:184|88:264,1,190,0|2,0:0|0:0,0:0:0:0:
272,288,60795,1,0,0:0:0:0:
416,192,60970,1,0,0:0:0:0:
248,112,61144,1,0,0:0:0:0:
312,272,61319,1,2,0:0:0:0:
432,104,61493,1,0,0:0:0:0:
176,88,61668,2,0,P|96:120|80:152,1,95,2|0,0:0|0:0,0:0:0:0:
192,240,62016,2,0,B|128:192|104:208|64:248|0:184,2,190,0|0|2,0:0|0:0|0:0,0:0:0:0:
384,312,62888,6,0,L|432:272,1,47.5
416,248,63063,2,0,P|456:200|456:144,1,95
408,72,63412,1,2,0:0:0:0:
408,72,63499,1,0,0:0:0:0:
408,72,63586,2,0,B|408:104|376:64|368:104|320:72|304:128|288:112,1,95
120,112,63935,1,0,0:0:0:0:
120,112,64022,1,0,0:0:0:0:
120,112,64109,1,2,0:0:0:0:
120,112,64197,2,0,B|152:176|128:208|128:240|160:256,1,142.5
448,320,64633,5,0,0:0:0:0:
152,248,64807,1,2,0:0:0:0:
408,272,64982,1,0,0:0:0:0:
152,248,65156,1,0,0:0:0:0:
368,224,65330,1,0,0:0:0:0:
152,248,65505,1,2,0:0:0:0:
304,72,65679,2,0,P|328:104|320:128,1,47.5
368,104,65854,2,0,P|392:168|384:224,1,95
256,296,66202,1,2,0:0:0:0:
392,192,66377,1,0,0:0:0:0:
96,240,66551,6,0,L|56:288,3,47.5
96,232,66900,2,0,B|112:152|144:128|176:160|208:112|200:72|232:80,1,190,2|0,0:0|0:0,0:0:0:0:
210,88,67423,1,0,0:0:0:0:
472,192,67598,1,2,0:0:0:0:
208,88,67772,1,0,0:0:0:0:
400,248,67947,1,0,0:0:0:0:
320,280,68121,1,0,0:0:0:0:
320,64,68295,5,2,0:0:0:0:
320,64,68383,1,0,0:0:0:0:
320,64,68470,2,0,B|384:104|416:56|448:56|440:96|512:56|488:56|504:96,1,190
256,264,68993,1,2,0:0:0:0:
499,81,69168,1,0,0:0:0:0:
256,264,69342,1,0,0:0:0:0:
384,256,69516,1,0,0:0:0:0:
384,256,69604,1,0,0:0:0:0:
384,256,69691,2,0,B|312:248|336:192|288:176|248:200|200:144|208:152,1,190,2|0,0:0|0:0,0:0:0:0:
32,72,70214,5,0,0:0:0:0:
222,162,70388,1,2,0:0:0:0:
40,304,70563,1,0,0:0:0:0:
40,304,70650,1,0,0:0:0:0:
40,304,70737,1,0,0:0:0:0:
232,328,70912,1,0,0:0:0:0:
232,328,71086,2,0,P|296:320|344:296,1,95,2|0,0:0|0:0,0:0:0:0:
416,240,71435,1,0,0:0:0:0:
432,192,71522,1,0,0:0:0:0:
416,152,71609,1,0,0:0:0:0:
248,48,71784,6,0,P|272:112|328:128,1,95,2|0,0:0|0:0,0:0:0:0:
312,216,72133,1,0,0:0:0:0:
312,216,72307,2,0,P|264:224|192:200,1,95,0|2,0:0|0:0,0:0:0:0:
48,64,72656,1,0,0:0:0:0:
216,216,72830,1,0,0:0:0:0:
8,216,73005,1,0,0:0:0:0:
216,216,73179,1,0,0:0:0:0:
104,328,73354,1,2,0:0:0:0:
304,320,73528,5,0,0:0:0:0:
352,312,73615,1,0,0:0:0:0:
392,288,73702,1,0,0:0:0:0:
456,208,73877,1,2,0:0:0:0:
464,160,73964,1,0,0:0:0:0:
448,112,74051,1,0,0:0:0:0:
344,48,74226,2,0,L|280:56,3,47.5
296,56,74575,2,0,L|232:96,1,47.5,2|0,0:0|0:0,0:0:0:0:
240,112,74749,2,0,B|200:88|176:120|152:88|184:72|160:112|104:72|96:80|48:128|64:112,1,190
63,111,75185,1,0,0:0:0:0:
63,111,75272,1,2,0:0:0:0:
144,272,75447,5,0,0:0:0:0:
344,296,75621,1,0,0:0:0:0:
160,336,75795,1,0,0:0:0:0:
344,224,75970,1,2,0:0:0:0:
152,200,76144,1,0,0:0:0:0:
256,192,76668,12,0,80156,0:0:0:0:
192,80,87133,5,2,0:0:0:0:
464,184,87307,1,0,0:0:0:0:
448,320,87482,2,0,B|368:320|320:264|288:336|240:320,1,190,0|2,0:0|0:0,0:0:0:0:
262,321,87918,1,0,0:0:0:0:
262,321,88005,1,0,0:0:0:0:
200,176,88179,2,0,B|168:152|144:176|120:208|104:176|80:200|16:176,2,178.12500679493
400,72,89226,2,0,L|432:120,1,47.5,2|0,0:0|0:0,0:0:0:0:
464,88,89400,2,0,L|496:152,1,47.5
448,152,89575,2,0,P|408:224|392:240,1,95
328,336,89923,6,0,P|280:336|224:320,1,95,2|0,0:0|0:0,0:0:0:0:
112,288,90272,2,0,P|168:256|224:248,1,95
448,160,90621,1,2,0:0:0:0:
200,248,90795,1,0,0:0:0:0:
200,248,90883,1,0,0:0:0:0:
200,248,90970,2,0,B|232:192|208:136|272:128|288:80|272:80,1,190,0|2,0:0|0:0,0:0:0:0:
392,96,91493,1,0,0:0:0:0:
424,136,91580,1,0,0:0:0:0:
432,184,91668,1,0,0:0:0:0:
384,328,91842,5,0,0:0:0:0:
384,328,92016,1,2,0:0:0:0:
384,328,92191,2,0,B|320:288|264:304|256:336|232:336|200:336,1,190
128,88,92714,1,0,0:0:0:0:
200,336,92888,1,0,0:0:0:0:
128,88,93063,1,0,0:0:0:0:
128,88,93150,1,0,0:0:0:0:
128,88,93237,2,0,B|208:112|248:48|328:80|320:96,1,190
480,168,93761,2,0,B|477:174|405:150|357:214|237:166,1,237.5
64,216,94807,5,2,0:0:0:0:
64,216,94894,1,0,0:0:0:0:
64,216,94982,2,0,B|144:248|136:304|184:312|256:328,1,190
416,264,95505,1,2,0:0:0:0:
440,224,95592,1,0,0:0:0:0:
432,176,95679,1,0,0:0:0:0:
488,64,95854,2,0,B|440:40|416:104|338:55|368:80,1,95
104,208,96202,1,2,0:0:0:0:
395,72,96377,1,0,0:0:0:0:
104,208,96551,1,0,0:0:0:0:
104,208,96638,1,0,0:0:0:0:
104,208,96726,6,0,P|160:232|216:240,1,95,0|2,0:0|0:0,0:0:0:0:
208,152,97075,2,0,P|264:160|312:192,1,95
296,280,97423,1,0,0:0:0:0:
472,96,97598,1,2,0:0:0:0:
344,80,97772,1,0,0:0:0:0:
344,80,97859,1,0,0:0:0:0:
344,80,97947,2,0,B|272:96|232:72|208:120|152:112,1,190,0|2,0:0|0:0,0:0:0:0:
120,208,98470,1,0,0:0:0:0:
120,208,98557,1,0,0:0:0:0:
120,208,98644,1,0,0:0:0:0:
80,312,98819,2,0,B|152:352|192:264|208:344|280:312|280:312|264:312|264:312,1,190
368,272,99342,5,0,0:0:0:0:
472,112,99516,1,0,0:0:0:0:
328,80,99691,1,2,0:0:0:0:
424,272,99865,1,0,0:0:0:0:
432,72,100040,1,0,0:0:0:0:
272,48,100214,1,0,0:0:0:0:
240,232,100388,1,2,0:0:0:0:
104,136,100563,5,0,0:0:0:0:
136,96,100650,1,0,0:0:0:0:
184,88,100737,1,0,0:0:0:0:
160,280,101086,1,2,0:0:0:0:
344,320,101261,1,0,0:0:0:0:
416,128,101435,1,0,0:0:0:0:
216,88,101609,1,0,0:0:0:0:
208,264,101784,1,2,0:0:0:0:
392,304,101958,1,0,0:0:0:0:
456,104,102133,1,0,0:0:0:0:
256,64,102307,1,0,0:0:0:0:
232,296,102482,5,2,0:0:0:0:
440,328,102656,1,0,0:0:0:0:
376,112,102830,1,0,0:0:0:0:
280,288,103005,1,0,0:0:0:0:
208,80,103179,1,2,0:0:0:0:
96,192,103354,2,0,P|152:232|208:248,1,95
168,320,103702,2,0,B|240:312|264:280|264:208|344:232,1,190,0|0,0:0|0:0,0:0:0:0:
480,192,104226,6,0,P|488:112|480:72,1,95
408,32,104575,2,0,P|408:88|400:136,1,95,2|0,0:0|0:0,0:0:0:0:
296,312,104923,1,0,0:0:0:0:
402,126,105098,1,0,0:0:0:0:
296,312,105272,1,2,0:0:0:0:
296,312,105359,1,0,0:0:0:0:
296,312,105447,2,0,B|256:240|208:256|208:224|176:160|176:160|200:168,1,190
248,72,105970,1,2,0:0:0:0:
296,64,106057,1,0,0:0:0:0:
344,72,106144,1,0,0:0:0:0:
464,128,106319,5,0,0:0:0:0:
296,312,106493,1,0,0:0:0:0:
296,312,106668,1,2,0:0:0:0:
464,128,106842,1,0,0:0:0:0:
240,176,107016,1,0,0:0:0:0:
240,176,107191,1,0,0:0:0:0:
464,128,107365,1,2,0:0:0:0:
192,240,107540,1,0,0:0:0:0:
88,80,107714,2,0,P|144:64|192:72,1,95
200,160,108063,2,0,P|256:168|320:144,1,95,2|0,0:0|0:0,0:0:0:0:
448,152,108412,1,0,0:0:0:0:
448,152,108586,1,0,0:0:0:0:
480,280,108761,6,0,P|400:320|376:320,1,95,2|0,0:0|0:0,0:0:0:0:
176,312,109109,2,0,P|240:272|288:256,1,95
376,200,109458,2,0,P|320:168|256:160,1,95,2|0,0:0|0:0,0:0:0:0:
152,184,109807,1,0,0:0:0:0:
152,184,109894,1,0,0:0:0:0:
152,184,109982,1,0,0:0:0:0:
152,184,110069,1,0,0:0:0:0:
152,184,110156,2,0,P|184:112|216:80,1,95,2|0,0:0|0:0,0:0:0:0:
320,112,110505,6,0,B|376:80|424:96|480:72|504:56,2,190,0|0|2,0:0|0:0|0:0,0:0:0:0:
360,216,111377,1,0,0:0:0:0:
360,216,111551,1,2,0:0:0:0:
496,320,111726,2,0,B|424:344|336:344|360:312|304:288|232:320|232:288|200:296,1,285,0|2,0:0|0:0,0:0:0:0:
112,184,112423,1,0,0:0:0:0:
352,96,112598,1,0,0:0:0:0:
112,184,112772,1,0,0:0:0:0:
216,88,112947,5,0,0:0:0:0:
224,120,113034,1,0,0:0:0:0:
240,144,113121,1,0,0:0:0:0:
208,240,113295,2,0,P|248:288|304:288,1,95
400,280,113644,2,0,P|432:232|448:168,1,95,2|0,0:0|0:0,0:0:0:0:
443,196,113906,1,0,0:0:0:0:
443,196,113993,1,0,0:0:0:0:
496,64,114168,6,0,P|440:56|392:72,1,95,0|2,0:0|0:0,0:0:0:0:
352,160,114516,2,0,B|336:168|296:128|248:168|200:128|152:160|112:184|72:152|72:152|72:160,1,285
88,312,115737,1,2,0:0:0:0:
88,312,115825,1,0,0:0:0:0:
88,312,115912,1,0,0:0:0:0:
184,312,116086,2,0,B|240:304|304:272|336:320|416:280|424:320,1,237.5
416,152,117133,5,2,0:0:0:0:
248,96,117307,1,0,0:0:0:0:
96,216,117482,2,0,P|152:256|240:256,1,142.5
256,192,118179,12,0,120970,0:0:0:0:
