osu file format v9

[General]
AudioFilename: Soko ni Arumono.mp3
AudioLeadIn: 0
PreviewTime: 93180
Countdown: 0
SampleSet: Normal
StackLeniency: 0.4
Mode: 0
LetterboxInBreaks: 0

[Editor]
Bookmarks: 27663,93870,115939,140767,162663,184904,208353,218008,229042,242836,286973
DistanceSpacing: 1.2
BeatDivisor: 4
GridSize: 4

[Metadata]
Title:Soko ni Aru Mono
Artist:TOKINE
Creator:xierbaliti
Version:Lunatic
Source:Musou Kakyou
Tags:kaouji op opening Touhou Anime Project

[Difficulty]
HPDrainRate:5
CircleSize:4
OverallDifficulty:7
ApproachRate:8
SliderMultiplier:1.6
SliderTickRate:1

[Events]
//Background and Video events
0,0,"bg.jpg"
//Break Periods
2,116049,124755
2,127084,137169
2,207084,217169
2,227084,228203
//Storyboard Layer 0 (Background)
Sprite,Background,Centre,"SB\black.jpg",320,240 S,0,2836,,0.8 F,0,2836,4215,0,1 F,0,4215,,1 F,0,4215,295160,1 F,0,295160,296540,1,0
Sprite,Background,Centre,"SB\BG\72778afb1c71d47c024f564a.jpg",320,240 M,0,28264,,149,139 F,0,28264,29643,0,1 F,0,29643,33781,1 F,0,33781,35160,1,0
Sprite,Background,Centre,"SB\BG\30b5ba8947cc70ab0e24444b.jpg",320,240 M,0,36540,,150,140 F,0,36540,37919,0,1 F,0,37919,42057,1 F,0,42057,43436,1,0
Sprite,Background,Centre,"SB\BG\57b3f8db796b2d7ed1164e4c.jpg",320,240 M,0,44815,,152,141 F,0,44815,46195,0,1 F,0,46195,50333,1 F,0,50333,51712,1,0
Sprite,Background,Centre,"SB\BG\838373fb688d123a4e4aea49.jpg",320,240 M,0,53091,,151,139 F,0,53091,54471,0,1 F,0,54471,58609,1 F,0,58609,59988,1,0
Sprite,Background,Centre,"SB\BG\1f92d4ce7b4daa21b700c854.jpg",320,240 M,0,61367,,148,140 F,0,61367,62747,0,1 F,0,62747,66884,1 F,0,66884,68264,1,0
Sprite,Background,Centre,"SB\BG\462a5922419773ebd6cae24f.jpg",320,240 M,0,69643,,150,140 F,0,69643,71022,0,1 F,0,71022,75160,1 F,0,75160,76540,1,0
Sprite,Background,Centre,"SB\BG\7f944b137cbc1dc8f6039e49.jpg",320,240 M,0,77919,,150,141 F,0,77919,79298,0,1 F,0,79298,83436,1 F,0,83436,84815,1,0
Sprite,Background,Centre,"SB\BG\b55fa3d0d69cee97a1ec9c55.jpg",320,240 M,0,86195,,151,142 F,0,86195,87574,0,1 F,0,87574,91712,1 F,0,91712,93091,1,0 F,0,93091,,0
Sprite,Background,Centre,"SB\BG\57b3f8db79602d7ed1164e4b.jpg",320,240 M,0,94471,,151,140 F,0,94471,95850,0,1 F,0,95850,99988,1 F,0,99988,101367,1,0
Sprite,Background,Centre,"SB\BG\4857c60825a56028e824884b.jpg",320,240 M,0,102747,,151,141 F,0,102747,104126,0.06018854,1 F,0,104126,108264,1 F,0,108264,109643,1,0 F,0,109643,,0
Sprite,Background,Centre,"SB\BG\2e61471837daa5ac4bedbc56.jpg",320,240 F,0,111022,112402,0.06086956,1 M,0,111111,,152,143 F,0,112402,,1 F,0,112402,116540,1,0.9952363 F,0,116540,117919,0.9952363,0
Sprite,Background,Centre,"SB\BG\da8cf0adac7709114a36d64e.jpg",320,240 M,0,119298,,150,140 F,0,119298,120678,0.06086956,1 F,0,120678,124815,1 F,0,124815,126195,1,0 F,0,126195,,0
Sprite,Background,Centre,"SB\BG\b340cdd7cfbee8c5a044df4b.jpg",320,240 M,0,127574,,151,140 F,0,127574,128953,0,1 F,0,128953,133091,1 F,0,133091,134471,1,0 F,0,134471,,0
Sprite,Background,Centre,"SB\BG\b87edc951fed7d107af4804c.jpg",320,240 M,0,135850,,151,141 F,0,135850,137229,0.06018854,1 F,0,137229,141367,1 F,0,141367,142747,1,0 F,0,142747,,0
Sprite,Background,Centre,"SB\BG\3f5c7999b89e33106f068c55.jpg",320,240 M,0,144126,,150,141 F,0,144126,145505,0.06018854,0.9430224 F,0,145505,149643,0.9430224,0.9850797 F,0,149643,151022,0.9850797,0 F,0,151022,,0
Sprite,Background,Centre,"SB\BG\877718f994b51f41242df255.jpg",320,240 M,0,152402,,151,141 F,0,152402,153781,0,1 F,0,153781,157919,1 F,0,157919,159298,1,0 F,0,159298,,0
Sprite,Background,Centre,"SB\BG\dc03c3086c5475c963d98656.jpg",320,240 M,0,160678,,151,142 F,0,160678,162057,0,1 F,0,162057,166195,1 F,0,166195,167574,1,0
Sprite,Background,Centre,"SB\BG\4857c60825ad6028e8248843.jpg",320,240 M,0,168953,,149,143 F,0,168953,170333,0,1 F,0,170333,174471,1,0.9949275 F,0,174471,175850,0.9949275,0
Sprite,Background,Centre,"SB\BG\c86f4b824e943588f703a64c.jpg",320,240 M,0,177229,,152,140 F,0,177229,178609,0,1 F,0,178609,182747,1 F,0,182747,184126,1,0
Sprite,Background,Centre,"SB\BG\f747790e08742bff37d1224e.jpg",320,240 M,0,185505,,150,141 F,0,185505,186884,0,1 F,0,186884,191022,1 F,0,191022,192402,1,0
Sprite,Background,Centre,"SB\BG\65637151078df900377abe43.jpg",320,240 M,0,193781,,151,142 F,0,193781,195160,0,1 F,0,195160,199298,1 F,0,199298,200678,1,0
Sprite,Background,Centre,"SB\BG\214e6ec394ae754db219a856.jpg",320,240 M,0,202057,,150,139 F,0,202057,203436,0,1 F,0,203436,207574,1 F,0,207574,208953,1,0
Sprite,Background,Centre,"SB\BG\0bbc90da4c5646c3b7fd484b.jpg",320,240 M,0,210333,,152,142 F,0,210333,211712,0,1 F,0,211712,215850,1 F,0,215850,217229,1,0
Sprite,Background,Centre,"SB\BG\7f0ff8124e8dcf49f919b84d.jpg",320,240 M,0,218609,,149,140 F,0,218609,219988,0,1 F,0,219988,224126,1 F,0,224126,225505,1,0
Sprite,Background,Centre,"SB\BG\d95c83a704a5b78dd043584c.jpg",320,240 M,0,226884,,149,140 F,0,226884,,0
Sprite,Background,Centre,"SB\BG\d95c83a704a5b78dd043584c.jpg",320,240 M,0,226884,,149,140 F,0,226884,228264,0,1 F,0,228264,232402,1 F,0,232402,233781,1,0
Sprite,Background,Centre,"SB\BG\aaa14c106e774619203f2e54.jpg",320,240 M,0,235160,,150,140 F,0,235160,236540,0,1 F,0,236540,240678,1 F,0,240678,242057,1,0
Sprite,Background,Centre,"SB\BG\8745e7977e77427554fb964f.jpg",320,240 M,0,243436,,152,141 F,0,243436,244815,0,1 F,0,244815,248953,1 F,0,248953,250333,1,0
Sprite,Background,Centre,"SB\BG\f355152a6fad4b83023bf64f.jpg",320,240 M,0,251712,,152,140 F,0,251712,253091,0,1 F,0,253091,257229,1 F,0,257229,258609,1,0
Sprite,Background,Centre,"SB\BG\2d8a7311ca8dcf66cb80c454.jpg",320,240 M,0,259988,,149,143 F,0,259988,261367,0,1 F,0,261367,265505,1 F,0,265505,266884,1,0
Sprite,Background,Centre,"SB\BG\51aee67f95b9781029388a4c.jpg",320,240 M,0,268264,,148,141 F,0,268264,269643,0,1 F,0,269643,273781,1 F,0,273781,275160,1,0
Sprite,Background,Centre,"SB\BG\7f944b137cb21dc8f6039e43.jpg",320,240 M,0,276540,,150,140 F,0,276540,277919,0,1 F,0,277919,282057,1 F,0,282057,283436,1,0
Sprite,Background,Centre,"SB\BG\fe40de30e6bfc781a8018e49.jpg",320,240 M,0,284815,,151,139 F,0,284815,286195,0,1 F,0,286195,290333,1 F,0,290333,291712,1,0
//Storyboard Layer 1 (Fail)
//Storyboard Layer 2 (Pass)
//Storyboard Layer 3 (Foreground)
Sprite,Foreground,Centre,"SB\L-1.png",320,240 M,0,2747,26884,449,576 F,0,2747,26884,0 M,0,26884,27229,449,576,449,550 F,0,26884,27229,0,1 M,0,27229,33436,449,550 F,0,27229,293091,1 M,0,33436,34126,449,550,449,532 M,0,34126,38264,449,532 M,0,38264,38953,449,532,449,511 M,0,38953,48953,449,511 M,0,48953,49643,449,511,449,494 M,0,49643,55160,449,494 M,0,55160,55850,449,494,449,477 M,0,55850,60333,449,477 M,0,60333,61022,449,477,449,457 M,0,61022,71022,449,457 M,0,71022,71712,449,457,449,441 M,0,71712,73781,449,441 M,0,73781,74471,449,441,449,421 M,0,74471,76540,449,421 M,0,76540,77229,449,421,449,403 M,0,77229,82057,449,403 M,0,82057,82747,449,403,449,385 M,0,82747,84815,449,385 M,0,84815,85505,449,385,449,368 M,0,85505,87574,449,368 M,0,87574,88264,449,368,449,350 M,0,88264,92747,449,350 M,0,92747,93436,449,350,449,332 M,0,93436,98264,449,332 M,0,98264,98953,449,332,449,315 M,0,98953,105505,449,315 M,0,105505,106195,449,315,449,296 M,0,106195,139988,449,296 M,0,139988,140678,449,296,449,278 M,0,140678,146195,449,278 M,0,146195,146884,449,278,449,260 M,0,146884,151022,449,260 M,0,151022,151712,449,260,449,242 M,0,151712,162402,449,242 M,0,162402,163091,449,242,449,224 M,0,163091,164815,449,224 M,0,164815,165505,449,224,449,207 M,0,165505,167574,449,207 M,0,167574,168264,449,207,449,188 M,0,168264,173091,449,188 M,0,173091,173781,449,188,449,170 M,0,173781,175850,449,170 M,0,175850,176540,449,170,449,152 M,0,176540,178609,449,152 M,0,178609,179298,449,152,449,132 M,0,179298,183781,449,132 M,0,183781,184471,449,132,449,117 M,0,184471,188953,449,117 M,0,188953,189643,449,117,449,97 M,0,189643,196540,449,97 M,0,196540,197229,449,97,449,80 M,0,197229,241712,449,80 M,0,241712,242402,449,80,449,61 M,0,242402,247229,449,61 M,0,247229,247919,449,61,449,44 M,0,247919,254471,449,44 M,0,254471,255160,449,44,449,24 M,0,255160,263781,449,24 M,0,263781,264471,449,24,449,8 M,0,264471,269298,449,8 M,0,269298,269988,449,8,449,-10 M,0,269988,276540,449,-10 M,0,276540,277229,449,-10,449,-30 M,0,277229,293091,449,-30 M,0,293091,294471,449,-30,449,-54 F,0,293091,294471,1,0
Sprite,Foreground,Centre,"SB\BG2.png",320,240 F,0,6540,292402,1 F,0,292402,293781,1,0
Sprite,Foreground,Centre,"bg2.jpg",320,240 M,0,11186,292239,319,250 S,0,31629,,0.5679996
Sprite,Foreground,Centre,"SB\staff.png",320,240 M,0,12488,,151,142 S,0,12488,,0.6799998 F,0,12491,13180,0,1 F,0,13180,22836,1,0.9854862 F,0,22836,23525,0.9854862,0
Sprite,Foreground,Centre,"SB\BG3.png",320,240 F,0,115850,116540,0,0.816 F,0,116540,139988,0.816 M,0,116540,207229,430,258,454,258 F,0,139988,140678,0.816,0 F,0,140678,207229,0,0.007721748 F,0,207229,207919,0.007721748,0.816 M,0,207229,241712,454,258 F,0,207919,241712,0.8156 F,0,241712,242402,0.8156,0
//Storyboard Sound Samples
//Background Colour Transformations
3,100,163,162,255

[TimingPoints]
2747,344.827586206897,4,1,1,30,1,0
27747,-100,4,1,1,20,0,0
28005,-100,4,2,1,50,0,0
28178,-100,4,2,1,30,0,0
28695,-100,4,1,1,20,0,0
29040,-100,4,2,1,30,0,0
29557,-100,4,2,1,20,0,0
29815,-100,4,2,1,30,0,0
30247,-100,4,2,2,50,0,0
30419,-100,4,2,1,30,0,0
31540,-100,4,1,1,20,0,0
31884,-100,4,2,1,30,0,0
32229,-100,4,2,1,20,0,0
33005,-100,4,1,1,20,0,0
33179,-100,4,2,1,20,0,0
33522,-100,4,2,1,30,0,0
33695,-100,4,2,1,20,0,0
35333,-100,4,2,1,10,0,0
35764,-100,4,2,2,50,0,0
36022,-100,4,2,1,20,0,0
36281,-100,4,2,1,30,0,0
36453,-100,4,2,1,20,0,0
37057,-100,4,2,2,50,0,0
37315,-100,4,2,1,20,0,0
37660,-100,4,2,1,30,0,0
37833,-100,4,2,1,20,0,0
38436,-100,4,1,1,30,0,0
38781,-100,4,2,1,20,0,0
39040,-100,4,2,1,30,0,0
39212,-100,4,2,1,20,0,0
39729,-100,4,2,1,30,0,0
39902,-100,4,2,1,15,0,0
40074,-100,4,2,1,20,0,0
41281,-100,4,2,2,50,0,0
41453,-100,4,2,1,20,0,0
44384,-100,4,2,1,15,0,0
44729,-100,4,2,1,20,0,0
46109,-100,4,2,2,50,0,0
46281,-100,4,2,1,20,0,0
48178,-100,4,2,2,50,0,0
48350,-100,4,2,1,20,0,0
50505,-100,4,2,1,10,0,0
50936,-100,4,2,1,15,0,0
51281,-100,4,2,1,20,0,0
55074,-100,4,2,2,50,0,0
55247,-100,4,2,1,20,0,0
58005,-100,4,2,2,40,0,0
58522,-100,4,2,1,20,0,0
59040,-100,4,2,1,10,0,0
59212,-100,4,2,1,20,0,0
60247,-100,4,2,1,10,0,0
60419,-100,4,2,1,15,0,0
60591,-100,4,2,1,30,0,0
60850,-100,4,2,1,20,0,0
61109,-100,4,2,1,30,0,0
61281,-100,4,2,1,20,0,0
61626,-100,4,2,1,10,0,0
61971,-100,4,2,1,20,0,0
62488,-100,4,2,1,30,0,0
62660,-100,4,2,1,20,0,0
62833,-100,4,2,1,10,0,0
63350,-100,4,2,2,50,0,0
63522,-100,4,2,1,20,0,0
63867,-100,4,2,1,30,0,0
64040,-100,4,2,1,20,0,0
64557,-100,4,2,1,30,0,0
64729,-100,4,2,1,20,0,0
65247,-100,4,2,1,30,0,0
65419,-100,4,2,1,20,0,0
65764,-100,4,2,1,15,0,0
65936,-100,4,2,1,20,0,0
66281,-100,4,2,1,15,0,0
66712,-100,4,2,1,20,0,0
67143,-100,4,2,1,15,0,0
67488,-100,4,2,1,20,0,0
68091,-100,4,2,2,50,0,0
68436,-100,4,2,1,20,0,0
70074,-100,4,2,1,14,0,0
70247,-100,4,2,1,20,0,0
71281,-100,4,2,1,15,0,0
71626,-100,4,1,1,25,0,0
71798,-100,4,2,1,20,0,0
72315,-100,4,1,1,20,0,0
72488,-100,4,2,1,20,0,0
74040,-100,4,2,1,14,0,0
74384,-100,4,2,1,20,0,0
74729,-100,4,2,1,14,0,0
75074,-100,4,2,1,20,0,0
75591,-100,4,2,1,30,0,0
75764,-100,4,2,1,20,0,0
76712,-100,4,2,1,30,0,0
77143,-100,4,2,1,20,0,0
77488,-100,4,2,1,30,0,0
77833,-100,4,2,1,20,0,0
78178,-100,4,2,1,30,0,0
78522,-100,4,2,1,20,0,0
78867,-100,4,2,1,30,0,0
79212,-100,4,2,1,20,0,0
79557,-100,4,2,1,30,0,0
79902,-100,4,2,1,20,0,0
80247,-100,4,2,1,14,0,0
80591,-100,4,2,1,20,0,0
80936,-100,4,2,1,30,0,0
81281,-100,4,2,1,20,0,0
81626,-100,4,2,1,14,0,0
81971,-100,4,2,1,20,0,0
82660,-100,4,1,1,20,0,0
82833,-100,4,2,1,20,0,0
83005,-100,4,2,1,30,0,0
83350,-100,4,2,1,20,0,0
83695,-100,4,2,1,30,0,0
83867,-100,4,2,1,20,0,0
84040,-100,4,2,1,20,0,0
84384,-100,4,2,1,30,0,0
84729,-100,4,2,1,20,0,0
85074,-100,4,2,1,30,0,0
85247,-100,4,2,1,20,0,0
85764,-100,4,2,1,30,0,0
85936,-100,4,2,1,20,0,0
86453,-100,4,2,1,30,0,0
86626,-100,4,2,1,20,0,0
87143,-100,4,2,1,20,0,0
87833,-100,4,2,1,30,0,0
88005,-100,4,2,1,15,0,0
88178,-100,4,2,1,20,0,0
88522,-100,4,2,1,30,0,0
88695,-100,4,2,1,15,0,0
88867,-100,4,2,1,20,0,0
89212,-100,4,2,1,30,0,0
89384,-100,4,2,1,15,0,0
89557,-100,4,2,1,20,0,0
89902,-100,4,2,1,30,0,0
90074,-100,4,2,1,15,0,0
90247,-100,4,2,1,20,0,0
90591,-100,4,2,1,30,0,0
92315,-100,4,2,1,20,0,0
93005,-100,4,2,1,25,0,0
93695,-100,4,1,1,30,0,0
93781,-100,4,1,1,30,0,1
93867,-100,4,2,1,25,0,0
94040,-100,4,2,1,35,0,0
94384,-100,4,2,1,25,0,0
94557,-100,4,2,1,35,0,0
94729,-100,4,2,1,25,0,0
95419,-100,4,2,1,16,0,0
95764,-100,4,2,1,20,0,0
95936,-100,4,2,1,25,0,0
96109,-100,4,2,1,15,0,0
96281,-100,4,2,1,24,0,0
96455,-100,4,2,2,34,0,0
96626,-100,4,2,1,24,0,0
97833,-100,4,2,1,20,0,0
98178,-100,4,2,1,15,0,0
98522,-100,4,2,1,20,0,0
99040,-100,4,2,1,15,0,0
99212,-100,4,2,1,20,0,0
99729,-100,4,2,1,30,0,0
99902,-100,4,2,1,20,0,0
100419,-100,4,2,1,30,0,0
100591,-100,4,2,1,20,0,0
101626,-100,4,2,1,30,0,0
101971,-100,4,2,1,20,0,0
102143,-100,4,2,1,15,0,0
102315,-100,4,2,1,25,0,0
102660,-100,4,2,1,20,0,0
102919,-100,4,2,1,30,0,0
103350,-100,4,2,2,50,0,0
103522,-100,4,2,1,20,0,0
103695,-100,4,1,1,15,0,0
104040,-100,4,2,1,20,0,0
104384,-100,4,1,1,14,0,0
104729,-100,4,2,1,20,0,0
105678,-100,4,2,1,30,0,0
106109,-100,4,2,1,20,0,0
107057,-100,4,2,1,30,0,0
107488,-100,4,2,1,20,0,0
107833,-100,4,1,1,14,0,0
108178,-100,4,2,1,20,0,0
108522,-100,4,2,1,30,0,0
108867,-100,4,2,1,20,0,0
109212,-100,4,2,1,30,0,0
109557,-100,4,2,1,20,0,0
109902,-100,4,2,2,50,0,0
110074,-100,4,2,1,20,0,0
110936,-100,4,2,2,50,0,0
111109,-100,4,2,1,20,0,0
111281,-100,4,1,1,14,0,0
111626,-100,4,2,1,20,0,0
111971,-100,4,1,1,14,0,0
112315,-100,4,2,2,50,0,0
112488,-100,4,2,1,20,0,0
112660,-100,4,1,1,14,0,0
112833,-100,4,2,1,20,0,0
114729,-100,4,1,1,14,0,0
115074,-100,4,2,1,14,0,0
115247,-100,4,2,1,20,0,0
115591,-100,4,2,1,25,0,0
115764,-100,4,1,1,25,0,0
115850,-100,4,1,1,24,0,0
125160,-100,4,1,1,20,0,0
137919,-100,4,2,1,0,0,0
139484,-100,4,2,1,10,0,0
139557,-100,4,1,1,10,0,0
139729,-100,4,2,1,20,0,0
139902,-100,4,1,1,15,0,0
140074,-100,4,1,1,20,0,0
140936,-100,4,2,1,20,0,0
141626,-100,4,2,1,14,0,0
141798,-100,4,2,1,20,0,0
142315,-100,4,1,1,14,0,0
142660,-100,4,2,1,20,0,0
143005,-100,4,1,1,14,0,0
143178,-100,4,2,1,20,0,0
143350,-100,4,2,2,50,0,0
143522,-100,4,2,1,20,0,0
143695,-100,4,1,1,14,0,0
144040,-100,4,2,1,20,0,0
145247,-100,4,2,1,14,0,0
145419,-100,4,2,1,20,0,0
145764,-100,4,2,2,30,0,0
146109,-100,4,2,2,50,0,0
146367,-100,4,2,1,30,0,0
146712,-100,4,2,1,20,0,0
148867,-100,4,2,2,50,0,0
149040,-100,4,2,1,20,0,0
151281,-100,4,2,1,14,0,0
151626,-100,4,2,1,20,0,0
152660,-100,4,2,1,14,0,0
153005,-100,4,2,1,20,0,0
153522,-100,4,2,1,14,0,0
153695,-100,4,2,1,20,0,0
154212,-100,4,2,1,14,0,0
154384,-100,4,2,2,50,0,0
154729,-100,4,2,1,14,0,0
154902,-100,4,2,1,10,0,0
155074,-100,4,2,1,20,0,0
155419,-100,4,2,1,14,0,0
155764,-100,4,2,1,20,0,0
156971,-100,4,2,1,14,0,0
157143,-100,4,2,1,20,0,0
159212,-100,4,2,2,50,0,0
159384,-100,4,2,1,20,0,0
161626,-100,4,2,1,14,0,0
161971,-100,4,2,1,20,0,0
162315,-100,4,2,1,30,0,0
162488,-100,4,2,1,25,0,0
162660,-100,4,1,1,30,0,0
162833,-100,4,2,1,30,0,0
168005,-100,4,2,1,19,0,0
168178,-100,4,2,1,30,0,0
170074,-100,4,2,1,18,0,0
170247,-100,4,2,1,30,0,0
173695,-100,4,1,1,30,0,0
173867,-100,4,2,1,30,0,0
175591,-100,4,2,1,20,0,0
175764,-100,4,2,1,30,0,0
176109,-100,4,2,2,50,0,0
176367,-100,4,2,1,30,0,0
176971,-100,4,2,1,18,0,0
177143,-100,4,2,1,30,0,0
177660,-100,4,2,1,18,0,0
177833,-100,4,2,1,30,0,0
180247,-100,4,2,1,18,0,0
180591,-100,4,2,1,30,0,0
184557,-100,4,2,1,40,0,0
184729,-100,4,2,1,70,0,0
184815,-100,4,1,1,30,0,1
184988,-100,4,1,1,30,0,0
185333,-100,4,2,1,30,0,0
189298,-100,4,2,1,25,0,0
189902,-100,4,2,1,14,0,0
190074,-100,4,2,1,25,0,0
191453,-100,4,2,1,40,0,0
191798,-100,4,2,1,15,0,0
192143,-100,4,2,1,30,0,0
192488,-100,4,2,1,30,0,0
192833,-100,4,2,1,15,0,0
193695,-100,4,2,1,30,0,0
194040,-100,4,2,1,15,0,0
194384,-100,4,2,1,30,0,0
198522,-100,4,1,1,30,0,0
198695,-100,4,2,1,30,0,0
200936,-100,4,2,1,15,0,0
201109,-100,4,2,1,30,0,0
217574,-200,4,1,1,20,0,0
230936,-200,4,2,2,50,0,0
231109,-200,4,1,1,20,0,0
234040,-200,4,2,1,50,0,0
234298,-200,4,2,2,70,0,0
234815,-200,4,1,1,20,0,0
240764,-200,4,2,1,40,0,0
240936,-200,4,2,2,60,0,0
241195,-200,4,1,1,20,0,0
241453,-200,4,2,1,60,0,0
241626,-200,4,2,2,60,0,0
241884,-200,4,1,1,20,0,0
242143,-200,4,1,1,20,0,0
242315,-200,4,2,2,60,0,0
242660,-200,4,1,1,20,0,0
242747,-100,4,1,1,40,0,1
242919,-100,4,1,1,20,0,0
243350,-100,4,2,1,30,0,0
243867,-100,4,2,1,20,0,0
244040,-100,4,2,1,30,0,0
244557,-100,4,2,1,20,0,0
244729,-100,4,2,1,30,0,0
245247,-100,4,2,2,40,0,0
245419,-100,4,2,1,30,0,0
247660,-100,4,2,1,20,0,0
247833,-100,4,2,1,30,0,0
253867,-100,4,2,1,20,0,0
254040,-100,4,2,1,30,0,0
254212,-100,4,2,1,20,0,0
254384,-100,4,2,1,30,0,0
254729,-100,4,2,1,20,0,0
254988,-100,4,2,1,30,0,0
255591,-100,4,2,1,20,0,0
255764,-100,4,2,1,30,0,0
256281,-100,4,2,1,20,0,0
256453,-100,4,2,1,30,0,0
257660,-100,4,2,1,20,0,0
257833,-100,4,2,1,30,0,0
258867,-100,4,2,2,40,0,0
259212,-100,4,2,1,30,0,0
263695,-100,4,2,1,20,0,0
263867,-100,4,2,1,30,0,0
264729,-100,4,1,1,30,0,0
264815,-100,4,1,1,30,0,1
264988,-100,4,2,1,30,0,1
267488,-100,4,1,1,20,0,1
267660,-100,4,2,1,14,0,1
267833,-100,4,2,1,30,0,1
268867,-100,4,2,1,25,0,1
269902,-100,4,2,2,40,0,1
270247,-100,4,2,1,30,0,1
273005,-100,4,2,2,60,0,1
273178,-100,4,2,1,30,0,1
276712,-100,4,2,1,40,0,1
278867,-100,4,2,1,19,0,1
279040,-100,4,2,1,30,0,1
279384,-100,4,2,1,19,0,1
279557,-100,4,2,1,30,0,1
280247,-100,4,2,2,40,0,1
280591,-100,4,2,1,30,0,1
280936,-100,4,2,2,40,0,1
281109,-100,4,2,1,19,0,1
281281,-100,4,2,1,40,0,1
282488,-100,4,2,2,40,0,1
282660,-100,4,2,1,40,0,1
283867,-100,4,2,2,40,0,1
284040,-100,4,2,1,40,0,1
284988,-100,4,2,1,30,0,1
285764,-100,4,2,1,17,0,1
285936,-100,4,2,1,30,0,1
286453,-100,4,2,1,17,0,1
286626,-100,4,2,2,40,0,1
286798,-100,4,1,1,30,0,1
287057,-100,4,1,1,0,0,0

[Colours]
Combo1 : 0,128,255
Combo2 : 255,128,255
Combo3 : 128,0,255
Combo4 : 255,128,128

[HitObjects]
434,144,27574,6,0,B|365:78|274:72,1,160,4|0
216,48,28091,1,0
136,72,28264,2,0,B|89:84|27:73,2,80,8|0|2
144,152,28781,1,0
120,224,28953,6,0,B|192:260|296:226,1,160,0|2
256,152,29471,1,0
328,112,29643,2,0,B|250:137|202:216,1,160,8|2
256,272,30160,1,0
336,248,30333,2,0,B|317:306|331:373,2,120,2|0|0
416,264,31022,2,0,B|327:262|246:204,1,160,0|2
64,192,31712,6,0,B|240:192,1,160,4|0
448,192,32402,2,0,B|264:192,1,160,8|2
240,128,32919,1,2
180,164,33091,1,4
179,234,33264,1,2
239,268,33436,1,0
301,235,33609,1,0
301,165,33781,6,0,B|351:93|439:61,2,160,8|0|2
142,226,34815,2,0,B|92:297|4:330,2,160,8|0|2
216,248,35678,1,8
280,200,35850,2,0,B|348:226|455:200,1,160,2|0
472,128,36367,1,0
438,204,36540,6,0,B|425:258|441:314,1,80
465,356,36884,1,0
472,128,37229,2,0,B|464:97|478:39,2,80,2|0|0
392,144,37747,1,0
392,144,37919,2,0,B|317:162|226:146,1,160,8|0
168,96,38436,1,0
88,88,38609,5,4
104,323,38953,2,0,B|180:305|286:314,1,160,2|0
344,336,39471,1,0
424,320,39643,1,0
248,50,39988,2,0,B|289:124|247:234,1,160,8|2
192,256,40505,1,0
112,272,40678,2,0,B|101:226|29:194,1,80
0,160,41022,5,0
160,176,41195,1,0
168,336,41367,2,0,B|254:309|345:314,1,160
456,88,42057,6,0,B|364:102|322:204,1,160,8|2
264,224,42574,1,0
256,144,42747,2,0,B|161:134|118:44,1,160,8|0
384,56,43436,2,0,B|296:72|241:170,1,160,8|2
184,176,43953,1,2
192,256,44126,6,0,B|273:228|387:257,1,160,8|2
424,224,44643,1,2
408,304,44815,2,0,B|504:304,2,70,8|0|0
296,64,45505,6,0,B|251:39|200:48,2,80,8|0|2
280,144,46022,1,0
312,216,46195,2,0,B|416:215,1,80
72,288,46884,5,8
104,352,47057,1,0
176,352,47229,1,2
208,288,47402,1,2
176,224,47574,1,8
104,224,47747,1,0
136,288,47919,1,2
440,96,48264,5,2
408,32,48437,1,0
336,32,48609,1,2
304,96,48782,1,0
336,160,48954,1,8
408,160,49127,1,8
376,96,49298,6,0,B|320:16,2,80,8|8|4
376,288,49988,2,0,B|320:368,2,80,2|0|8
480,192,50678,1,8
408,224,50850,1,8
328,200,51022,2,0,B|288:255|205:245,2,120,8|2|0
336,120,51712,2,0,B|296:99|272:32,1,80,8|0
232,120,52057,2,0,B|204:84|139:88,1,80,2|0
128,160,52402,6,0,B|82:134|11:145,2,120,8|0|2
152,232,53091,2,0,B|191:226|247:178,1,80,8|0
232,280,53436,2,0,B|270:263|327:271,1,80,2|0
384,304,53781,5,8
454,130,54126,2,0,B|406:42|318:18,2,160,0|8|2
416,200,54988,1,2
336,216,55160,1,2
136,288,55505,6,0,B|106:322|56:338,2,80,0|0|8
136,96,56195,2,0,B|110:65|64:48,2,80,0|0|8
32,192,56884,1,0
112,200,57057,1,0
192,184,57229,5,8
352,288,57574,1,0
360,96,57919,1,8
360,96,58091,1,2
152,296,58436,5,2
152,296,58609,2,0,B|240:328|304:232,1,160,8|0
264,176,59126,1,8
344,168,59298,2,0,B|328:80|232:48,1,160,8|0
168,40,59815,1,0
104,96,59988,2,0,B|16:96,1,80
104,96,60333,5,8
120,240,60505,1,8
248,176,60678,2,0,B|312:120|424:128,1,160,4|0
456,184,61195,1,0
488,112,61367,1,8
488,112,61540,1,0
328,224,61885,5,8
328,304,62057,2,0,B|344:344|400:352,2,80,8|0|0
400,264,62575,1,0
400,184,62747,2,0,B|432:152|496:160,1,80,8|0
472,80,63091,1,0
352,80,63264,1,8
256,152,63437,2,0,B|192:96|72:104,1,160,2|8
224,264,64126,5,8
304,224,64298,1,0
232,176,64471,1,0
416,120,64815,5,8
430,198,64988,1,0
299,290,65333,1,0
222,306,65505,1,8
118,183,65850,1,0
127,103,66022,1,8
138,23,66195,2,8,B|215:59|301:51,1,160
104,296,66885,1,8
136,224,67057,1,0
200,272,67230,2,0,B|256:344|360:304,1,160,0|8
416,272,67747,1,0
352,224,67919,6,0,B|360:168|408:152,1,80,2|0
464,192,68264,2,0,B|488:152|464:96,1,80,2|0
400,80,68609,1,2
56,48,68954,6,0,B|64:104|128:112,1,80,8|0
168,64,69299,2,0,B|208:96|192:160,1,80
136,184,69644,2,0,B|88:208|112:288,2,80,8|0|2
256,352,70333,6,0,B|304:320|288:256,1,80,8|0
208,280,70678,2,0,B|216:232|288:216,1,80,8|0
344,224,71023,1,8
392,112,71195,5,8
256,80,71368,1,8
120,112,71540,1,8
184,224,71713,6,0,B|128:272|32:240,1,160,4|0
328,224,72402,2,0,B|384:272|480:240,1,160,0|0
256,56,73092,2,0,B|256:216,1,160,8|0
256,288,73609,1,0
212,344,73781,2,0,B|132:344,1,80,8|0
300,344,74126,2,0,B|380:344,1,80,2|0
256,288,74471,6,0,B|224:208|104:224,1,160,8|2
52,260,74988,1,0
68,180,75161,2,0,B|88:144|92:92,1,80,8|0
144,44,75506,2,0,B|156:88|210:122,1,80,2|0
236,172,75850,2,0,B|244:128|284:92,1,80,8|0
296,24,76195,2,0,B|320:62|375:83,1,80
436,80,76540,1,8
444,240,76885,5,0
364,224,77057,1,0
328,296,77230,2,0,B|256:280|168:296,1,160,8|0
112,356,77747,1,0
88,280,77919,1,0
88,280,78091,1,0
328,72,78437,5,0
248,72,78609,2,0,B|198:63|144:72,2,80,8|0|2
224,152,79126,1,0
232,232,79299,2,0,B|269:223|312:232,1,80,8|0
408,128,79644,2,0,B|360:136|320:128,1,80,2|0
208,56,79988,6,0,B|288:52|372:56,1,160,8|0
304,328,80678,2,0,B|224:331|140:328,1,160,8|0
256,72,81368,5,8
200,112,81540,1,0
256,160,81713,1,2
312,208,81885,1,2
256,248,82057,1,8
200,288,82230,1,8
256,328,82402,1,0
312,288,82575,1,2
368,248,82747,6,0,B|440:192,2,70,4|0|0
144,136,83437,2,0,B|72:192,2,70,8|0|0
160,312,84126,5,8
192,248,84299,1,0
224,184,84471,1,2
256,120,84644,1,0
288,184,84816,1,8
320,248,84989,1,0
352,312,85161,1,2
256,48,85506,6,0,B|136:152,1,160,8|2
72,80,86023,1,8
48,176,86195,5,8
152,264,86368,1,0
176,120,86540,1,0
132,188,86713,1,8
212,200,86885,6,0,B|324:224,1,80,8|0
364,188,87230,2,0,B|444:156,1,80
308,100,87575,5,8
313,235,87747,1,0
435,159,87919,1,0
353,166,88092,1,0
257,172,88264,6,0,B|180:208|86:205,1,160,8|0
48,144,88781,1,0
116,100,88954,2,0,B|216:83,1,80,8|0
272,104,89299,2,0,B|360:136,1,70,2|0
256,168,89644,6,0,B|240:256|156:283,1,160,8|0
256,172,90333,2,0,B|272:260|364:290,1,160,8|0
256,192,90850,8,4,92402
256,176,92747,5,4
256,192,93091,1,8
256,208,93436,1,8
344,128,93781,6,0,B|432:136|464:224,1,160,4|0
264,128,94471,2,0,B|208:112|152:136,1,80,8|0
96,152,94815,1,0
184,192,94988,6,0,B|200:288|304:280,1,160,2|0
371,233,95505,1,8
373,321,95678,1,8
297,180,95850,2,0,B|215:184,1,80,8|0
334,74,96195,2,0,B|430:81,2,80,0|0|2
40,137,96884,5,0
119,82,97057,2,0,B|192:96|298:78,1,160
370,54,97574,1,0
457,94,97747,1,0
485,185,97919,2,0,B|418:229|322:213,1,160,8|10
72,126,98609,6,0,B|80:182|128:208,2,80,8|0|0
56,32,99126,1,8
152,40,99298,2,0,B|224:8|320:40,1,160,8|2
312,136,99815,1,0
400,88,99988,2,0,B|496:96,2,80,8|0|2
336,160,100505,6,0,B|280:232,1,80,0|8
376,248,100850,2,0,B|440:312,2,80,0|2|0
288,288,101367,2,0,B|200:320,1,80,8|2
192,224,101712,2,0,B|96:208,1,80
168,136,102057,2,0,B|96:80,1,80,8|0
192,48,102402,2,0,B|288:16,2,80,0|0|8
448,192,103091,5,0
368,136,103264,1,0
424,56,103436,2,0,B|360:8|256:40,1,160,2|0
200,96,103953,1,0
288,128,104126,1,8
271,35,104298,1,8
168,128,104471,1,0
296,184,104643,1,0
271,35,104815,5,4
72,216,105160,1,0
328,304,105505,1,8
448,192,105850,5,0
368,240,106023,1,0
416,328,106195,2,0,B|344:376|256:344,1,160,8|0
96,56,106884,2,0,B|160:8|256:40,1,160,8|2
336,88,107402,1,0
248,128,107574,2,0,B|168:144,1,80
80,160,107919,1,0
272,248,108264,6,0,B|304:216|360:224,1,80,8|0
392,304,108609,2,0,B|440:296|464:240,1,80,2|0
408,176,108953,2,0,B|400:80,1,80,8|0
328,32,109298,2,0,B|256:96,1,80,2|0
296,176,109643,2,0,B|240:272,2,80,8|0|2
64,72,110333,5,8
32,164,110505,1,0
200,264,110850,1,0
120,208,111022,2,0,B|144:128|264:112,1,160,2|0
336,136,111540,1,0
272,208,111712,2,0,B|312:296|424:280,1,160,8|0
488,240,112229,1,0
432,160,112402,2,0,B|376:88|424:0,2,160,2|0|8
488,240,113264,1,0
424,312,113436,1,2
336,344,113609,1,2
240,344,113781,1,8
152,320,113953,1,0
80,256,114126,5,2
48,168,114298,1,0
72,72,114471,1,8
88,56,114557,1,0
104,48,114643,1,0
200,72,114815,2,0,B|264:-16,1,80,0|0
288,96,115160,2,0,B|320:184,1,80,8|8
400,120,115505,2,0,B|472:32,2,80,0|0|4
144,192,125505,6,0,B|232:168|280:104,1,160
312,36,126022,1,0
384,76,126195,2,0,B|464:108,1,80
416,172,126540,2,0,B|320:188,2,80,0|0|4
256,192,137919,12,0,139298
272,216,139471,6,0,B|168:216,1,80,2|0
232,144,139816,2,0,B|136:120,1,80,2|0
208,64,140161,2,0,B|128:0,2,80
288,72,140678,6,0,B|384:88|408:176,1,160,4|0
324,172,141195,1,0
376,232,141367,2,0,B|376:323,1,70,8|2
292,340,141712,2,0,B|229:276,1,70,8|2
56,112,142057,6,0,B|128:152|240:136,1,160,8|0
288,124,142574,1,0
456,212,142747,2,0,B|356:196|272:204,1,160,8|0
224,168,143264,1,0
204,92,143436,6,0,B|252:100|284:92,2,80,2|0|0
148,172,143953,1,0
220,228,144126,1,0
340,148,144298,1,0
204,92,144471,1,0
204,92,144643,5,2
116,60,144815,2,0,B|100:156|20:196,1,160,8|2
272,336,145505,2,0,B|193:325|112:336,1,160,8|2
252,256,146022,1,2
332,272,146195,6,0,B|427:245|404:112,1,160,2|0
296,24,146884,2,0,B|192:8|144:96,1,160,8|0
16,144,147574,2,0,B|32:248|136:256,1,160,8|0
256,328,148264,5,8
304,248,148436,1,0
208,248,148609,1,2
256,160,148781,1,2
256,160,148953,2,0,B|256:56,2,80,2|0|0
256,328,149643,5,8
192,304,149815,1,0
144,248,149988,1,0
120,184,150160,1,0
192,64,150333,5,8
256,40,150505,1,0
328,56,150678,1,0
376,104,150850,1,0
440,232,151022,5,8
408,296,151195,1,0
344,328,151367,1,8
272,328,151540,1,8
248,168,151712,6,0,B|320:128|424:136,1,160,4|0
480,156,152229,1,0
428,220,152401,1,8
348,216,152574,1,2
192,236,152918,1,0
276,280,153091,1,8
348,216,153263,1,0
160,68,153608,5,0
128,164,153781,1,8
224,148,153953,1,0
192,236,154125,1,0
88,116,154298,1,0
248,84,154470,1,2
448,256,154815,5,0
436,176,154987,1,0
268,116,155160,1,8
344,96,155332,1,0
348,184,155505,2,0,B|300:272|220:280,1,160,2|8
160,80,156194,6,0,B|88:144,1,80
44,188,156539,1,8
112,232,156712,1,2
112,232,156884,5,2
215,232,157056,1,8
215,232,157229,5,8
256,96,157401,1,2
372,184,157574,1,2
256,296,157918,6,0,B|152:296,2,80,8|0|8
336,280,158436,1,8
416,292,158608,2,0,B|448:212|448:132,1,160
436,56,159125,1,0
376,112,159298,5,2
232,120,159470,1,0
264,248,159643,1,0
304,112,159815,1,8
200,208,159987,6,0,B|168:128|56:88,1,160,8|2
28,44,160505,1,0
24,124,160677,1,0
256,256,161022,6,0,B|256:152,1,70,8|8
192,80,161367,1,8
160,168,161539,1,2
320,80,161712,1,8
352,168,161884,1,2
256,256,162056,5,8
400,192,162229,1,8
256,128,162401,1,8
112,192,162574,1,8
256,192,162746,6,0,B|352:224,1,80,4|0
408,244,163091,1,2
384,64,163436,5,8
448,192,163608,1,0
320,128,163781,1,2
464,104,163953,1,0
360,200,164125,2,0,B|272:192|224:120,1,160,8|0
176,60,164643,1,0
176,60,164815,1,8
440,192,165160,1,0
440,192,165332,2,0,B|376:128,1,80,0|8
208,88,165849,5,0
132,116,166022,1,0
208,296,166195,1,8
132,268,166368,1,0
160,192,166539,2,0,B|216:152|320:160,1,160,0|8
388,188,167056,1,0
328,244,167229,2,0,B|296:284|248:276,2,80,0|0|8
136,192,167918,5,2
120,96,168091,1,2
192,32,168263,1,8
224,224,168608,1,2
296,160,168781,1,0
384,200,168953,1,8
232,312,169298,1,2
152,360,169470,1,0
64,320,169643,5,8
224,224,169987,1,2
416,224,170332,2,0,B|328:208|272:280,1,160,8|0
236,348,170849,1,2
200,276,171022,6,0,B|104:276,1,80
40,272,171367,1,2
116,180,171539,1,2
236,180,171712,6,0,B|340:180,1,80
396,180,172056,1,2
320,84,172229,1,2
212,32,172401,6,0,B|140:72|52:64,1,160,8|0
20,136,172918,1,0
84,184,173091,2,0,B|108:272,1,80
228,112,173436,2,0,B|296:151,1,70,8|8
184,192,173781,6,0,B|232:344,1,160,4|0
304,308,174298,1,0
384,316,174470,2,0,B|485:316,2,70,8|2|0
448,32,175160,2,0,B|384:96|296:80,1,160,8|0
236,36,175677,1,0
156,52,175849,1,8
160,132,176022,1,2
116,200,176194,5,0
128,280,176367,1,2
208,280,176539,2,0,B|376:280,1,160,8|0
368,280,177056,1,2
448,280,177229,2,0,B|416:200|448:112,1,160,8|0
444,123,177746,1,2
416,48,177918,2,0,B|524:48,2,80,8|0|2
336,48,178436,1,2
336,48,178608,1,8
40,112,178953,5,0
68,188,179125,1,8
124,128,179298,2,0,B|212:88,1,80,8|0
268,60,179643,1,2
424,272,179987,2,0,B|400:176,1,80,8|0
387,116,180332,1,2
160,240,180677,2,0,B|248:272,1,80,8|0
308,296,181022,1,0
388,280,181194,1,2
332,224,181367,2,0,B|252:176|260:72,1,160,8|0
284,16,181884,1,0
204,32,182056,6,0,B|100:56,1,80,8|0
48,68,182402,1,2
48,68,182574,1,2
36,228,182746,2,0,B|124:252,1,80,8|0
190,270,183091,1,2
190,270,183263,1,2
352,272,183436,6,0,B|440:296,2,80,8|0|4
276,244,183953,1,8
152,140,184126,2,0,B|72:164,2,80,8|8|8
228,112,184643,1,8
228,112,184815,6,0,B|232:204,1,80
236,288,185160,1,0
228,112,185505,2,0,B|312:136|404:104,1,160,8|0
472,64,186022,1,0
460,160,186195,6,0,B|444:248,1,80,2|0
428,332,186540,1,2
248,272,186712,1,0
344,260,186884,2,0,B|336:152,1,80,8|0
332,84,187229,1,2
140,96,187402,1,0
228,136,187574,6,0,B|208:224|104:248,1,160,2|0
24,240,188091,1,0
24,240,188264,2,0,B|8:144,2,80
300,320,188953,6,0,B|280:220,1,80
156,88,189298,2,0,B|176:188,1,80
48,192,189643,1,8
312,128,189988,5,2
312,128,190160,1,2
216,144,190333,2,0,B|176:168|128:160,2,80,8|0|2
400,312,191022,5,8
304,304,191195,1,0
357,237,191367,1,0
400,312,191540,6,0,B|305:315|208:272,1,160,2|0
339,178,192057,1,0
400,312,192229,1,0
472,192,192402,2,0,B|520:288,1,80,8|0
448,104,192747,2,0,B|344:80,1,80,0|8
216,64,193091,5,10
120,80,193264,2,0,B|32:96,2,80,8|8|0
256,288,193781,1,8
224,208,193953,2,0,B|184:112,2,80,0|8|8
352,112,194471,6,0,B|400:32|512:40,2,160,8|0|8
272,64,195333,1,8
272,160,195505,1,2
184,112,195678,1,0
96,152,195850,6,0,B|0:184,1,80,4|0
88,248,196195,2,0,B|16:320,1,80
224,320,196540,2,0,B|304:272,1,80,8|0
256,192,196884,2,0,B|352:208,1,70
456,80,197229,6,0,B|376:136|272:64,1,160,8|0
312,184,197747,1,0
387,242,197919,2,0,B|419:154|347:98,2,160,8|0|4
311,302,198781,1,0
310,206,198953,6,0,B|229:126,1,80
211,236,199298,2,0,B|110:200,1,80,8|0
97,297,199643,2,0,B|-1:324,1,80
57,229,199988,2,0,B|-12:163,1,80,8|0
68,106,200333,2,0,B|38:18,2,80,2|2|8
156,144,200850,1,2
230,84,201022,1,8
324,66,201195,1,0
415,95,201367,6,0,B|451:114|502:120,1,80,8|0
475,213,201712,1,0
388,172,201884,1,0
467,117,202057,5,8
425,220,202229,1,0
354,132,202402,1,0
354,132,202747,5,8
231,166,202919,1,0
316,260,203091,1,0
289,134,203264,1,0
289,134,203436,5,8
240,288,203609,1,0
400,272,203781,1,0
400,272,204126,6,0,B|296:296,1,80,8|0
272,176,204471,2,0,B|168:136,2,80,2|0|8
456,112,205160,5,0
448,200,205333,1,0
392,272,205505,1,8
368,288,205591,1,0
344,296,205678,1,0
264,320,205850,1,2
176,312,206022,1,0
96,280,206195,2,0,B|72:240|32:224,1,80,8|0
112,176,206540,2,0,B|96:80,2,80,0|8|4
256,192,217919,5,4
328,88,218609,2,0,B|336:184|408:232,2,160,4|0|4
256,192,220678,5,4
184,296,221368,2,0,B|176:200|104:152,1,160
256,192,222747,5,0
256,128,223091,1,0
256,64,223436,5,4
256,192,224126,5,0
256,320,224815,5,0
256,192,225505,5,4
176,296,226195,2,0,B|256:312|336:296,1,160,4|0
256,192,228953,5,4
160,56,229643,2,0,B|64:72|72:168,1,160
256,192,231022,5,2
352,328,231712,2,0,B|448:312|440:216,2,160,0|0|4
256,192,233781,5,0
256,192,234126,2,0,B|256:244,2,40,2|0|2
180,57,235160,2,0,B|256:24|340:57,2,160
256,192,237229,5,4
332,327,237919,2,0,B|256:360|172:327,2,160
256,56,239988,6,0,B|256:136,1,80,4|0
64,192,240678,2,0,B|8:192,2,40,0|2|0
256,328,241367,2,0,B|256:376,2,40,0|0|2
448,192,242057,2,0,B|504:192,4,40,0|0|2|2|4
256,192,243091,6,0,B|256:80,1,80
192,64,243436,2,0,B|168:144|64:152,1,160,8|2
192,256,243953,6,0,B|128:208|32:224,1,160
48,344,244471,1,0
168,376,244643,1,8
192,256,244815,2,0,B|256:200|368:224,1,160,8|2
408,272,245333,1,2
368,120,245505,6,0,B|408:48|504:32,1,160,8|2
448,120,246022,2,0,B|352:88|328:0,1,160,2|0
240,32,246540,2,0,B|224:80|160:88,1,80,2|0
256,152,246884,2,0,B|208:184|152:160,1,80,8|0
96,128,247229,2,2,B|56:168|64:216,1,80
136,264,247574,5,8
136,264,247747,1,8
208,328,247919,2,0,B|256:304|272:248,1,80,0|2
288,176,248264,2,0,B|264:144|208:152,2,80,4|0|2
304,272,248781,1,2
368,216,248953,6,0,B|416:152|512:168,1,160,8|0
368,96,249471,2,0,B|280:112|192:64,1,160,0|0
88,72,249988,1,2
184,144,250160,1,0
264,56,250333,2,0,B|368:72|448:8,1,160,8|0
504,64,250850,1,2
424,120,251022,2,0,B|384:144|336:136,1,80
384,224,251367,2,0,B|440:240|456:272,2,80,0|0|8
73,87,252057,5,0
73,87,252229,1,0
73,87,252402,2,0,B|156:106|244:100,1,160,8|0
325,78,252919,1,0
302,171,253091,5,8
259,58,253264,1,8
360,121,253436,1,4
239,129,253609,1,0
304,80,253781,2,0,B|376:46|471:66,2,160,4|0|8
256,192,254815,5,0
208,304,255160,6,0,B|136:338|41:318,1,160,8|0
8,232,255678,1,2
40,144,255850,1,8
40,144,256195,1,0
128,168,256367,1,2
200,104,256540,1,8
200,104,256884,1,2
296,104,257057,1,2
352,184,257229,1,8
352,184,257574,5,0
448,168,257746,1,0
496,80,257919,2,0,B|448:64|424:16,1,80,8|0
336,48,258264,2,0,B|288:56|232:48,1,80
160,64,258609,1,8
192,288,258953,1,0
256,72,259298,6,0,B|352:48|400:120,1,160,8|2
424,200,259815,1,2
368,264,259988,2,0,B|400:352|504:336,2,160,8|0|8
316,192,260850,1,2
287,275,261022,2,0,B|197:258,1,80,2|2
139,204,261367,2,0,B|228:170,1,80,8|0
268,106,261712,2,0,B|184:96,1,80,0|2
104,144,262057,6,0,B|16:120|46:8,2,160,8|2|8
136,56,262919,1,0
200,112,263091,1,2
176,200,263264,1,2
248,248,263436,2,0,B|336:296,1,80,8|0
448,192,263781,2,0,B|360:144,1,80,8|2
312,120,264126,5,8
384,320,264298,1,0
448,192,264471,5,0
288,184,264643,1,10
328,32,264815,6,0,B|232:16|200:112,1,160,4|2
240,192,265333,1,2
144,176,265505,2,0,B|96:160|48:168,2,80,8|0|0
240,192,266022,1,0
336,176,266195,6,0,B|384:152|432:160,1,80,8|0
504,176,266540,1,2
496,272,266712,1,2
304,296,266884,6,0,B|256:288|200:296,1,80,8|0
128,304,267229,1,0
40,272,267402,1,2
72,80,267574,6,0,B|136:96|240:88,1,160,0|0
328,80,268091,1,0
424,96,268264,1,8
424,96,268436,1,0
424,96,268609,2,0,B|432:176|472:256,1,160,0|8
256,352,269298,1,2
168,312,269471,1,0
72,304,269643,6,0,B|64:256|32:224,1,80,8|0
32,136,269988,1,2
248,32,270333,2,0,B|240:112|264:192,1,160,8|2
296,280,270850,1,0
368,344,271022,2,0,B|416:352|472:336,2,80,8|0|0
272,352,271540,1,0
184,320,271712,6,0,B|144:312|88:320,1,80,8|0
16,280,272057,2,0,B|32:240|16:168,1,80
8,104,272402,1,8
248,72,272747,5,0
344,88,272919,1,2
440,64,273091,1,2
344,88,273264,5,0
352,192,273436,1,2
248,72,273609,1,0
440,64,273781,1,8
440,304,274126,6,0,B|352:288|256:296,1,160,0|8
184,272,274643,2,0,B|144:264|96:272,2,80,0|2|0
272,216,275160,1,8
160,192,275333,1,8
264,136,275505,1,0
136,112,275678,1,0
256,56,275850,2,0,B|320:40|424:48,2,160,4|0|8
32,192,276884,6,0,B|88:200|136:240,1,80
184,272,277229,1,8
280,264,277402,1,0
376,272,277574,1,2
464,240,277747,1,0
448,144,277919,2,0,B|440:104|448:56,1,80,8|0
352,40,278264,2,0,B|304:48|256:40,1,80,0|2
176,32,278609,5,8
80,56,278781,1,0
104,152,278953,2,0,B|116:198|112:232,2,80,0|0|8
200,168,279471,1,0
256,336,279643,1,2
264,240,279815,1,0
424,160,279988,1,8
360,232,280160,2,0,B|384:280|376:336,2,80,0|2|2
312,144,280678,2,0,B|256:72|144:64,1,160,8|2
80,72,281195,1,2
96,168,281367,5,8
72,256,281540,1,0
136,312,281712,1,0
208,264,281884,1,0
192,176,282057,5,8
216,88,282229,1,0
304,80,282402,1,0
344,160,282574,1,2
280,224,282747,5,8
240,304,282919,1,0
304,368,283091,1,0
384,336,283264,1,0
376,248,283436,5,8
432,176,283609,1,0
368,112,283781,1,0
288,144,283953,1,2
280,224,284126,5,8
200,264,284298,1,0
128,208,284471,1,0
144,120,284643,1,0
224,80,284815,1,8
440,192,285160,5,0
392,120,285333,1,0
312,80,285505,1,8
281,72,285591,1,0
248,73,285678,1,0
160,96,285850,1,2
160,96,286022,1,2
88,144,286195,1,8
88,144,286367,1,0
32,216,286540,2,0,B|24:264|0:296,2,80,0|0|4
256,192,286971,8,0,289643
