osu file format v9

[General]
AudioFilename: Soko ni Arumono.mp3
AudioLeadIn: 0
PreviewTime: 93180
Countdown: 0
SampleSet: Normal
StackLeniency: 0.7
Mode: 0
LetterboxInBreaks: 0

[Editor]
Bookmarks: 27663,93870,115939,140767,162663,184904,208353,218008,229042,242836,286973
DistanceSpacing: 0.8
BeatDivisor: 4
GridSize: 8

[Metadata]
Title:Soko ni Aru Mono
Artist:TOKINE
Creator:xierbaliti
Version:Easy
Source:Musou Kakyou
Tags:kaouji op opening Touhou Anime Project

[Difficulty]
HPDrainRate:2
CircleSize:3
OverallDifficulty:3
ApproachRate:3
SliderMultiplier:0.5
SliderTickRate:0.5

[Events]
//Background and Video events
0,0,"bg.jpg"
//Break Periods
//Storyboard Layer 0 (Background)
Sprite,Background,Centre,"SB\black.jpg",320,240 S,0,2836,,0.8 F,0,2836,4215,0,1 F,0,4215,,1 F,0,4215,,1 F,0,4215,,1 F,0,4215,119298,1 F,0,119298,121367,1,0
Sprite,Background,Centre,"SB\BG\72778afb1c71d47c024f564a.jpg",320,240 M,0,28264,,149,139 F,0,28264,29643,0,1 F,0,29643,33781,1 F,0,33781,35160,1,0
Sprite,Background,Centre,"SB\BG\30b5ba8947cc70ab0e24444b.jpg",320,240 M,0,36540,,150,140 F,0,36540,37919,0,1 F,0,37919,42057,1 F,0,42057,43436,1,0
Sprite,Background,Centre,"SB\BG\57b3f8db796b2d7ed1164e4c.jpg",320,240 M,0,44815,,152,141 F,0,44815,46195,0,1 F,0,46195,50333,1 F,0,50333,51712,1,0
Sprite,Background,Centre,"SB\BG\838373fb688d123a4e4aea49.jpg",320,240 M,0,53091,,151,139 F,0,53091,54471,0,1 F,0,54471,58609,1 F,0,58609,59988,1,0
Sprite,Background,Centre,"SB\BG\1f92d4ce7b4daa21b700c854.jpg",320,240 M,0,61367,,148,140 F,0,61367,62747,0,1 F,0,62747,66884,1 F,0,66884,68264,1,0
Sprite,Background,Centre,"SB\BG\462a5922419773ebd6cae24f.jpg",320,240 M,0,69643,,150,140 F,0,69643,71022,0,1 F,0,71022,75160,1 F,0,75160,76540,1,0
Sprite,Background,Centre,"SB\BG\7f944b137cbc1dc8f6039e49.jpg",320,240 M,0,77919,,150,141 F,0,77919,79298,0,1 F,0,79298,83436,1 F,0,83436,84815,1,0
Sprite,Background,Centre,"SB\BG\b55fa3d0d69cee97a1ec9c55.jpg",320,240 M,0,86195,,151,142 F,0,86195,87574,0,1 F,0,87574,91712,1 F,0,91712,93091,1,0 F,0,93091,,0
Sprite,Background,Centre,"SB\BG\57b3f8db79602d7ed1164e4b.jpg",320,240 M,0,94471,,151,140 F,0,94471,95850,0,1 F,0,95850,99988,1 F,0,99988,101367,1,0
Sprite,Background,Centre,"SB\BG\4857c60825a56028e824884b.jpg",320,240 M,0,102747,,151,141 F,0,102747,104126,0.06018854,1 F,0,104126,108264,1 F,0,108264,109643,1,0 F,0,109643,,0
Sprite,Background,Centre,"SB\BG\2e61471837daa5ac4bedbc56.jpg",320,240 F,0,111022,112402,0.06086956,1 M,0,111111,,152,143 F,0,112402,,1 F,0,112402,116540,1,0.9952363 F,0,116540,117919,0.9952363,0
Sprite,Background,Centre,"SB\BG\d95c83a704a5b78dd043584c.jpg",320,240 M,0,226884,,149,140 F,0,226884,,0
//Storyboard Layer 1 (Fail)
//Storyboard Layer 2 (Pass)
//Storyboard Layer 3 (Foreground)
Sprite,Foreground,Centre,"SB\L-1s.png",320,240 M,0,2747,26884,449,576 F,0,2747,26884,0 M,0,26884,27229,449,576,449,550 F,0,26884,27229,0,1 F,0,27229,,1 M,0,27229,33436,449,550 F,0,27229,118609,1 M,0,33436,34126,449,550,449,532 M,0,34126,38264,449,532 M,0,38264,38953,449,532,449,511 M,0,38953,48953,449,511 M,0,48953,49643,449,511,449,494 M,0,49643,55160,449,494 M,0,55160,55850,449,494,449,477 M,0,55850,60333,449,477 M,0,60333,61022,449,477,449,457 M,0,61022,71022,449,457 M,0,71022,71712,449,457,449,441 M,0,71712,73781,449,441 M,0,73781,74471,449,441,449,421 M,0,74471,76540,449,421 M,0,76540,77229,449,421,449,403 M,0,77229,82057,449,403 M,0,82057,82747,449,403,449,385 M,0,82747,84815,449,385 M,0,84815,85505,449,385,449,368 M,0,85505,87574,449,368 M,0,87574,88264,449,368,449,350 M,0,88264,92747,449,350 M,0,92747,93436,449,350,449,332 M,0,93436,98264,449,332 M,0,98264,98953,449,332,449,315 M,0,98953,105505,449,315 M,0,105505,106195,449,315,449,296 M,0,106195,119298,449,296 F,0,118609,119643,1,0 M,0,119298,,449,296
Sprite,Foreground,Centre,"SB\BG2.png",320,240 F,0,6540,118264,1 F,0,118264,119643,1,0
Sprite,Foreground,Centre,"bg2.jpg",320,240 M,0,11186,292239,319,250 S,0,31629,,0.5679996
Sprite,Foreground,Centre,"SB\staff.png",320,240 M,0,12488,,151,142 S,0,12488,,0.6799998 F,0,12491,13180,0,1 F,0,13180,22836,1,0.9854862 F,0,22836,23525,0.9854862,0
//Storyboard Sound Samples
//Background Colour Transformations
3,100,163,162,255

[TimingPoints]
2747,344.827586206897,4,1,1,30,1,0
27747,-100,4,2,1,30,0,0
28264,-100,4,2,2,20,0,0
28436,-100,4,2,1,30,0,0
31022,-100,4,2,2,20,0,0
31195,-100,4,2,1,30,0,0
36884,-100,4,2,2,60,0,0
37574,-100,4,2,1,30,0,0
40678,-100,4,2,2,20,0,0
41367,-100,4,2,2,14,0,0
42057,-100,4,2,2,20,0,0
42402,-100,4,2,1,30,0,0
48953,-100,4,2,2,14,0,0
49126,-100,4,2,1,30,0,0
57229,-100,4,2,2,14,0,0
57919,-100,4,2,0,70,0,0
58091,-100,4,2,1,14,0,0
59298,-100,4,2,0,70,0,0
59471,-100,4,2,1,14,0,0
59988,-100,4,2,2,14,0,0
61367,-100,4,2,1,30,0,0
64126,-100,4,2,2,14,0,0
64298,-100,4,2,1,30,0,0
67919,-100,4,2,2,60,0,0
68609,-100,4,2,1,30,0,0
84815,-100,4,2,2,20,0,0
84988,-100,4,2,1,30,0,0
87574,-100,4,2,2,20,0,0
87746,-100,4,2,1,30,0,0
93781,-100,4,2,1,30,0,1
105505,-100,4,2,2,20,0,1
105678,-100,4,2,1,30,0,1
115850,-100,4,2,1,0,0,0

[Colours]
Combo1 : 0,128,255
Combo2 : 255,128,255
Combo3 : 128,0,255
Combo4 : 255,128,128

[HitObjects]
80,192,27574,2,0,B|80:64|240:80,1,200,4|2
432,192,30333,2,0,B|432:320|272:304,1,200,2|8
256,192,33091,5,4
256,112,33781,1,8
256,32,34471,1,2
256,192,35850,5,2
256,272,36540,1,8
256,352,37229,1,2
256,192,38609,6,0,B|112:192,1,100,4|8
72,192,39988,2,0,B|128:104|256:80|384:112|448:224,1,400,2|2
256,344,44126,6,0,B|256:200,1,100,2|8
256,160,45505,2,0,B|256:48,2,100,0|8|4
160,288,48264,2,0,B|256:344|392:272,1,200,2|4
192,96,51022,6,0,B|64:96,2,100,8|8|2
272,96,53091,2,0,B|288:160|264:232,1,100,8|2
272,272,54471,2,0,B|200:288|144:264,2,100,8|4|2
352,272,56540,2,0,B|408:168|352:48|208:64,2,300,8|8|4
192,264,62057,6,0,B|128:248|120:168,1,100,2|8
120,120,63436,2,0,B|216:64|320:80,1,200,2|2
392,96,65505,1,2
336,152,66195,6,0,B|312:240|328:296,1,100,4|2
256,296,67574,1,8
190,251,68264,2,0,B|200:196|163:122,1,100,2|8
256,16,70333,2,0,B|256:160,1,100,2|8
256,192,71712,5,4
256,112,72402,1,2
184,152,73091,2,0,B|80:200,1,100,2|8
144,256,74471,6,0,B|264:256,1,100,2|8
328,256,75850,2,0,B|416:256,2,50,2|0|8
328,176,77229,6,0,B|328:32,1,100,2|2
248,72,78609,1,8
248,72,79298,1,8
168,72,79988,6,0,B|168:192,1,100,2|8
168,256,81367,2,0,B|80:256,2,50,8|0|8
248,256,82746,5,4
248,256,83436,1,8
248,256,84126,2,0,B|272:136|400:144,1,200,0|2
392,224,86195,5,8
392,224,86884,2,0,B|272:208|248:88,1,200,2|2
168,104,88953,5,8
96,144,89643,2,0,B|152:192|128:264,1,100,2|8
152,264,90678,2,0,B|200:224|280:240,1,100,2|2
248,192,91712,2,0,B|304:160|368:176,1,100,8|4
344,88,93091,5,8
344,88,93781,2,0,B|216:88,1,100,4|2
160,88,95160,1,2
160,88,95850,1,8
160,168,96540,6,0,B|296:168,1,100,2|4
344,168,97919,1,2
344,168,98264,1,2
344,168,98609,1,8
344,248,99298,6,0,B|344:328,2,50,2|0|8
264,248,100678,2,0,B|200:312,2,50,2|0|8
264,168,102057,2,0,B|176:168,2,50,2|0|8
344,168,103436,5,2
344,168,104126,1,2
344,168,104815,2,0,B|312:64|176:56,1,200,4|2
112,57,106884,5,8
112,57,107229,1,0
112,57,107574,2,0,B|144:128|104:176,1,100,8|8
136,192,108609,2,0,B|192:144|256:184,1,100,2|2
248,136,109643,2,0,B|320:168|392:144,1,100,8|4
328,232,111022,6,0,B|328:304,2,50,8|0|2
248,232,112402,2,0,B|120:232,1,100,8|2
148,151,113781,2,0,B|68:151,2,50,8|0|8
228,151,115160,1,2
256,192,115850,12,0,117229
