osu file format v14

[General]
AudioFilename: FLIP FLAP FLIP FLAP.mp3
AudioLeadIn: 0
PreviewTime: 68681
Countdown: 0
SampleSet: Soft
StackLeniency: 0.2
Mode: 0
LetterboxInBreaks: 0
EpilepsyWarning: 1
WidescreenStoryboard: 1

[Editor]
DistanceSpacing: 1.17
BeatDivisor: 2
GridSize: 4
TimelineZoom: 1

[Metadata]
Title:FLIP FLAP FLIP FLAP
TitleUnicode:FLIP FLAP FLIP FLAP
Artist:TO-MAS feat. Chima
ArtistUnicode:TO-MAS feat. Chima
Creator:Lanturn
Version:1.71
Source:フリップフラッパーズ
Tags:FLAPPERS ED ENDING featuring
BeatmapID:1138626
BeatmapSetID:537310

[Difficulty]
HPDrainRate:1.7
CircleSize:7
OverallDifficulty:1.7
ApproachRate:1.7
SliderMultiplier:1.17
SliderTickRate:2

[Events]
//Background and Video events
0,0,"171.jpg",0,0
//Break Periods
//Storyboard Layer 0 (Background)
//Storyboard Layer 1 (Fail)
//Storyboard Layer 2 (Pass)
//Storyboard Layer 3 (Foreground)
//Storyboard Sound Samples

[TimingPoints]
1117,512.820512820513,4,2,71,71,1,0
1117,-85.4700854700855,4,2,71,71,0,0
19578,-85.4700854700855,4,1,17,71,0,0
68809,-85.4700854700855,4,2,17,71,0,1
105732,-85.4700854700855,4,1,17,71,0,0
130347,-85.4700854700855,4,2,71,71,0,0
154963,-85.4700854700855,4,1,17,71,0,0
190860,512.820512820513,4,2,17,71,1,1
190860,-85.4700854700855,4,2,17,71,0,1
227783,-85.4700854700855,4,2,71,71,0,0
231885,-85.4700854700855,4,2,17,71,0,0
235988,-85.4700854700855,4,2,71,71,0,0
240090,-85.4700854700855,4,2,17,71,0,0
242142,-85.4700854700855,4,2,17,17,0,0
244193,-85.4700854700855,4,2,17,71,0,0
297526,-85.4700854700855,4,2,17,17,0,0
299577,-85.4700854700855,4,2,17,71,0,0
303680,-85.4700854700855,4,2,71,71,0,0
307783,-85.4700854700855,4,2,17,17,0,0

[Colours]
Combo1 : 0,255,255
Combo2 : 255,0,0
Combo3 : 18,124,255
Combo4 : 255,128,0

[HitObjects]
184,226,1117,6,0,P|256:375|328:226,1,410.670001566582,2|0,0:0|0:0,0:0:0:0:
184,158,3168,2,0,P|256:9|328:158,1,410.670001566582,2|0,0:0|0:0,0:0:0:0:
218,273,5219,6,0,B|114:272|114:272|66:224|66:224|58:192|58:192|66:160|66:160|114:112|114:112|218:111,1,410.670001566582,2|0,0:0|0:0,0:0:0:0:
294,252,7270,2,0,B|398:251|398:251|446:203|446:203|454:171|454:171|446:139|446:139|398:91|398:91|294:90,1,410.670001566582,2|0,0:0|0:0,0:0:0:0:
136,56,9322,6,0,B|152:135|67:155|67:155|67:240|134:265,1,273.780001044388,2|0,0:0|0:0,0:0:0:0:
376,56,11373,2,0,B|360:135|445:155|445:155|445:240|378:265,1,273.780001044388,2|0,0:0|0:0,0:0:0:0:
136,56,13424,6,0,B|56:47|56:47|64:155|64:155|117:108|168:158|168:158|170:94|216:72,1,410.670001566582,2|0,0:0|0:0,0:0:0:0:
376,56,15475,2,0,B|456:47|456:47|448:155|448:155|395:108|344:158|344:158|342:94|296:72,1,410.670001566582,2|0,0:0|0:0,0:0:0:0:
256,228,17527,5,2,0:0:0:0:
256,228,19578,6,0,B|224:252|217:282|217:282|186:282|155:306,1,136.890000522194,4|0,1:2|0:0,0:0:0:0:
75,167,20604,2,0,B|106:142|113:112|113:112|144:112|175:88,1,136.890000522194
336,88,21629,2,0,B|367:112|398:112|398:112|405:142|437:167,1,136.890000522194
356,306,22655,2,0,B|325:282|294:282|294:282|287:252|256:228,1,136.890000522194
188,81,23681,6,0,B|157:121|157:121|132:150|143:184|183:185,1,136.890000522194
318,109,24706,2,0,B|349:147|349:147|374:176|363:210|328:211,1,136.890000522194
186,137,25732,2,0,B|155:175|155:175|130:204|141:238|176:239,1,136.890000522194
318,165,26758,2,0,B|348:203|348:203|373:232|362:266|327:267,1,136.890000522194
189,184,27783,6,0,P|96:259|188:336,1,273.780001044388
333,51,29834,2,0,P|425:128|333:204,1,273.780001044388
44,64,31886,6,0,B|24:144|24:144|50:192|50:192|24:240|24:240|44:320,2,273.780001044388
44,64,35988,6,0,P|104:35|164:64,1,136.890000522194,2|0,2:0|0:0,0:0:0:0:
215,216,37014,2,0,P|221:281|175:329,1,136.890000522194
335,329,38040,2,0,P|288:281|295:215,1,136.890000522194,2|0,2:0|0:0,0:0:0:0:
347,64,39065,2,0,P|407:35|468:64,1,136.890000522194
389,203,40091,6,0,B|324:224|324:224|256:224,1,136.890000522194,2|0,2:0|0:0,0:0:0:0:
123,133,41117,2,0,B|188:153|188:153|256:153,1,136.890000522194
389,244,42142,2,0,B|323:264|323:264|255:264,1,136.890000522194,2|0,2:0|0:0,0:0:0:0:
123,173,43168,2,0,B|188:193|188:193|256:193,1,136.890000522194
379,89,44193,6,0,P|479:160|406:259,1,273.780001044388,2|0,2:0|0:0,0:0:0:0:
134,89,46245,2,0,P|34:160|107:259,1,273.780001044388,2|0,2:0|0:0,0:0:0:0:
422,320,48296,6,0,B|442:240|442:240|416:192|416:192|442:144|442:144|422:64,2,273.780001044388,2|2|2,2:0|2:0|2:0,0:0:0:0:
422,320,52399,6,0,B|384:335|344:320|344:320|287:297,1,136.890000522194,2|0,2:0|0:0,0:0:0:0:
298,139,53424,2,0,P|349:99|336:36,1,136.890000522194,0|8,0:0|2:0,0:0:0:0:
175,34,54450,2,0,P|162:98|213:138,1,136.890000522194,2|0,2:0|0:0,0:0:0:0:
220,298,55475,2,0,B|167:319|167:319|127:334|89:319,1,136.890000522194,0|8,0:0|2:0,0:0:0:0:
94,159,56501,6,0,B|69:91|123:97|97:25,2,136.890000522194,2|0|0,2:0|0:0|0:0,0:0:0:0:
415,159,58552,2,0,B|440:91|386:97|412:25,2,136.890000522194,2|0|0,2:0|0:0|0:0,0:0:0:0:
152,341,60604,6,0,B|166:205|166:205|256:308|256:308|346:205|346:205|360:341,1,547.560002088776,2|2,2:0|2:0,0:0:0:0:
256,38,63681,1,0,1:0:0:0:
256,192,64706,12,0,66758,2:0:0:0:
56,64,68809,6,0,B|92:60|112:95|112:95|132:60|168:64,1,136.890000522194,6|8,0:0|0:0,0:0:0:0:
318,121,69834,2,0,B|354:117|374:152|374:152|394:117|430:121,1,136.890000522194,2|8,0:0|0:0,0:0:0:0:
408,280,70860,2,0,B|312:332|256:195|256:195|200:332|100:280,1,410.670001566582,2|8,0:0|0:0,0:0:0:0:
82,121,72911,6,0,B|118:117|138:152|138:152|158:117|194:121,1,136.890000522194,6|8,0:0|0:0,0:0:0:0:
344,64,73937,2,0,B|380:60|400:95|400:95|420:60|456:64,1,136.890000522194,2|8,0:0|0:0,0:0:0:0:
412,218,74962,2,0,B|312:270|256:133|256:133|200:270|104:218,1,410.670001566582,2|8,0:0|0:0,0:0:0:0:
224,324,77014,6,0,P|256:179|288:324,1,410.670001566582,2|8,0:0|0:0,0:0:0:0:
137,272,79065,2,0,P|256:135|375:272,1,410.670001566582,2|8,0:0|0:0,0:0:0:0:
223,322,81117,6,0,P|200:263|136:272,1,136.890000522194,2|8,0:0|0:0,0:0:0:0:
289,322,82142,2,0,P|312:263|376:272,1,136.890000522194,2|8,0:0|0:0,0:0:0:0:
453,131,83168,2,0,B|399:81|399:81|336:70,1,136.890000522194,2|8,0:0|0:0,0:0:0:0:
177,70,84193,2,0,B|114:81|114:81|60:131,1,136.890000522194,8|8,0:0|0:0,0:0:0:0:
147,265,85219,6,0,B|175:287|164:326|164:326|203:315|226:344,1,136.890000522194,6|8,0:0|0:0,0:0:0:0:
366,265,86245,2,0,B|337:287|348:326|348:326|309:315|286:344,1,136.890000522194,2|8,0:0|0:0,0:0:0:0:
127,328,87270,2,0,P|30:191|221:127,1,410.670001566582,2|8,0:0|0:0,0:0:0:0:
365,119,89322,6,0,B|336:96|347:57|347:57|308:68|285:39,1,136.890000522194,6|8,0:0|0:0,0:0:0:0:
146,119,90348,2,0,B|174:96|163:57|163:57|202:68|225:39,1,136.890000522194,2|8,0:0|0:0,0:0:0:0:
384,56,91373,2,0,P|476:209|306:269,1,410.670001566582,2|8,0:0|0:0,0:0:0:0:
196,152,93424,6,0,P|160:205|195:259,1,136.890000522194,2|8,0:0|0:0,0:0:0:0:
315,151,94450,2,0,P|351:204|316:258,1,136.890000522194,2|8,0:0|0:0,0:0:0:0:
232,121,95475,2,0,P|256:71|280:121,2,136.890000522194,2|8|0,0:0|0:0|1:0,0:0:0:0:
256,280,97014,1,8,0:0:0:0:
99,312,97527,6,0,B|91:272|63:252|63:252|63:208|83:192|83:192|63:176|63:132|63:132|91:112|99:72,1,273.780001044388,2|2,0:0|0:0,0:0:0:0:
418,72,99578,2,0,B|426:112|454:132|454:132|454:176|434:192|434:192|454:208|454:252|454:252|426:272|418:312,1,273.780001044388,2|2,0:0|0:0,0:0:0:0:
144,144,101629,6,0,B|176:220|128:272|128:272|204:232|256:276|256:276|308:232|384:272|384:272|336:220|368:144,1,547.560002088776,2|2,0:0|0:0,0:0:0:0:
256,30,104193,1,0,1:0:0:0:
256,30,104706,1,4,0:0:0:0:
140,330,105732,6,0,P|163:268|232:266,1,136.890000522194,4|8,0:2|2:0,0:0:0:0:
372,330,106758,2,0,P|350:269|285:263,1,136.890000522194,0|8,0:0|2:0,0:0:0:0:
336,111,107783,2,0,P|375:66|321:43,1,136.890000522194,0|8,0:0|2:0,0:0:0:0:
176,111,108809,2,0,P|136:66|190:43,1,136.890000522194,0|8,0:0|2:0,0:0:0:0:
73,153,109834,6,0,L|39:293,1,136.890000522194,2|8,2:0|2:0,0:0:0:0:
176,372,110860,2,0,L|176:224,1,136.890000522194,0|8,0:0|2:0,0:0:0:0:
336,236,111886,2,0,L|336:372,1,136.890000522194,2|8,2:0|2:0,0:0:0:0:
471,286,112911,2,0,L|439:153,1,136.890000522194,0|8,0:0|2:0,0:0:0:0:
320,46,113937,6,0,P|256:66|192:46,3,136.890000522194,4|8|0|8,0:0|2:0|0:0|2:0,0:0:0:0:
192,206,115988,2,0,P|256:186|320:206,3,136.890000522194,0|8|0|8,0:0|2:0|0:0|2:0,0:0:0:0:
192,302,118040,6,0,B|256:322|256:322|324:302,3,136.890000522194,2|8|0|8,2:0|2:0|0:0|2:0,0:0:0:0:
320,142,120091,2,0,B|256:122|256:122|188:142,3,136.890000522194,0|8|0|8,0:0|2:0|0:0|2:0,0:0:0:0:
256,192,122142,12,2,130347,0:0:0:0:
64,137,132399,6,0,P|68:222|200:343,3,273.780001044388,2|0|0|0,0:0|0:0|0:0|0:0,0:0:0:0:
314,45,136501,6,0,P|424:119|449:250,3,273.780001044388,2|0|0|0,0:0|0:0|0:0|0:0,0:0:0:0:
128,269,140604,6,0,B|75:218|85:144|85:144|158:106|160:36,1,273.780001044388,4|0,0:0|0:0,0:0:0:0:
384,269,142655,2,0,B|437:218|427:144|427:144|354:106|352:36,1,273.780001044388
72,192,144706,6,0,B|112:238|112:238|72:244|50:274|43:318|66:356|123:368|152:335,1,273.780001044388,2|0,0:0|0:0,0:0:0:0:
440,192,146758,2,0,B|400:238|400:238|440:244|462:274|469:318|446:356|389:368|359:335,1,273.780001044388
161,84,148809,6,0,B|121:220|229:220|169:348,1,273.780001044388,2|0,0:0|0:0,0:0:0:0:
350,84,150860,2,0,B|390:220|282:220|342:348,1,273.780001044388
72,176,152911,6,0,P|167:192|72:208,2,273.780001044388,2|0|0,0:0|0:0|0:0,0:0:0:0:
72,176,157014,6,0,B|90:114|31:56|31:56|95:110|157:64,1,273.780001044388,4|0,0:2|0:0,0:0:0:0:
440,213,159065,2,0,B|485:160|410:139|468:69,2,136.890000522194,0|0|0,0:0|2:0|0:0,0:0:0:0:
440,213,161117,6,0,B|422:275|481:333|481:333|417:279|355:325,1,273.780001044388,2|0,2:0|0:0,0:0:0:0:
72,176,163168,2,0,B|27:229|102:250|44:320,2,136.890000522194,2|0|0,2:0|0:0|1:0,0:0:0:0:
365,43,165219,6,0,B|446:7|490:80|490:80|397:81|404:159,1,273.780001044388
147,341,167270,2,0,B|81:322|81:322|26:255,2,136.890000522194
468,324,169322,6,0,B|492:220|492:220|416:244|416:244|346:192|346:192|416:140|416:140|492:164|492:164|468:60,1,547.560002088776,2|0,2:0|0:0,0:0:0:0:
467,59,173424,6,0,P|338:11|213:55,1,273.780001044388
45,325,175475,2,0,P|174:373|299:329,1,273.780001044388
95,81,177527,6,0,L|37:226,2,136.890000522194,2|0|0,2:0|0:0|0:0,0:0:0:0:
416,80,179578,2,0,L|474:225,2,136.890000522194,2|0|0,2:0|0:0|0:0,0:0:0:0:
156,268,181629,6,0,B|200:308|232:276|256:351|256:351|280:276|312:308|356:268,3,273.780001044388,2|0|0|2,2:0|0:0|0:0|2:0,0:0:0:0:
256,192,185732,12,4,189322,2:0:0:0:
208,27,190860,6,0,B|180:57|181:94|181:94|120:110,1,136.890000522194,6|8,0:0|0:0,0:0:0:0:
120,270,191885,2,0,B|180:286|180:286|179:323|207:353,1,136.890000522194,2|8,0:0|0:0,0:0:0:0:
357,296,192911,2,0,B|457:296|457:200|333:32|250:192|333:352|457:184|457:88|357:88,1,410.670001566582,2|8,0:0|0:0,0:0:0:0:
196,84,194962,6,0,B|136:113|136:113|65:112,1,136.890000522194,6|8,0:0|0:0,0:0:0:0:
65,272,195988,2,0,B|136:271|136:271|196:300,1,136.890000522194,2|8,0:0|0:0,0:0:0:0:
354,321,197013,2,0,B|377:258|436:246|436:246|399:209|430:165|430:165|384:138|402:89|402:89|344:102|297:54,1,410.670001566582,2|8,0:0|0:0,0:0:0:0:
140,28,199065,6,0,B|156:108|104:152|104:152|180:160|136:212|224:208|224:208|176:272|214:334,1,410.670001566582,2|8,0:0|0:0,0:0:0:0:
372,356,201116,2,0,B|356:276|408:232|408:232|332:224|376:172|288:176|288:176|336:112|298:50,1,410.670001566582,2|8,0:0|0:0,0:0:0:0:
142,84,203167,6,0,P|71:193|142:300,1,273.780001044388,2|2,0:0|0:0,0:0:0:0:
455,234,205218,2,0,L|315:234,1,136.890000522194,2|8,0:0|0:0,0:0:0:0:
455,150,206244,2,0,L|315:150,1,136.890000522194,8|8,0:0|0:0,0:0:0:0:
187,58,207270,6,0,P|149:112|83:114,1,136.890000522194,6|8,0:0|0:0,0:0:0:0:
83,274,208295,2,0,P|148:275|186:330,1,136.890000522194,2|8,0:0|0:0,0:0:0:0:
344,304,209321,2,0,B|328:256|344:224|344:224|400:240|400:240|479:192|400:144|400:144|344:160|344:160|328:128|344:80,1,410.670001566582,2|8,0:0|0:0,0:0:0:0:
192,30,211372,6,0,B|144:75|144:75|126:166,1,136.890000522194,6|8,0:0|0:0,0:0:0:0:
171,300,212398,2,0,B|219:255|219:255|231:185,1,136.890000522194,2|8,0:0|0:0,0:0:0:0:
342,300,213424,2,0,B|294:255|294:255|282:185,1,136.890000522194,2|8,0:0|0:0,0:0:0:0:
321,30,214449,2,0,B|369:75|369:75|387:166,1,136.890000522194,0|8,0:0|0:0,0:0:0:0:
230,193,215475,6,0,P|134:177|198:53,1,273.780001044388,2|2,0:0|0:0,0:0:0:0:
440,252,217526,2,0,P|472:188|440:104,2,136.890000522194,2|8|0,0:0|0:0|1:0,0:0:0:0:
125,316,219577,6,0,B|193:348|257:320|257:320|321:348|389:316,1,273.780001044388,2|2,0:0|0:0,0:0:0:0:
228,39,221629,6,0,B|144:75|96:159|204:231|256:161|256:161|308:231|416:159|368:75|284:39,2,547.560002088776,2|2|2,0:0|0:0|0:0,0:0:0:0:
387,20,226244,1,8,0:0:0:0:
387,20,226757,1,8,0:0:0:0:
336,336,227783,6,0,P|409:290|422:207,2,136.890000522194,2|0|0,0:0|0:0|0:0,0:0:0:0:
181,55,229834,2,0,P|108:101|95:184,2,136.890000522194,2|0|0,0:0|0:0|0:0,0:0:0:0:
181,55,231885,6,0,B|247:38|247:38|313:55,2,136.890000522194,2|0|0,0:0|0:0|0:0,0:0:0:0:
330,340,233936,2,0,B|264:357|264:357|198:340,2,136.890000522194,2|0|0,0:0|0:0|0:0,0:0:0:0:
382,24,235988,6,0,P|402:116|338:176,2,136.890000522194,2|0|0,0:0|0:0|0:0,0:0:0:0:
79,130,238039,2,0,P|59:222|123:282,2,136.890000522194,2|0|0,0:0|0:0|0:0,0:0:0:0:
382,24,240090,6,0,B|408:84|364:112|364:112|364:180|364:180|316:224|372:288,2,273.780001044388,2|0|0,0:0|0:0|0:0,0:0:0:0:
382,24,244193,6,0,B|400:112|460:100|476:184|476:184|440:212|396:200,1,273.780001044388,4|0,0:0|1:0,0:0:0:0:
130,24,246244,2,0,B|112:112|52:100|36:184|36:184|72:212|116:200,1,273.780001044388,0|0,1:0|1:0,0:0:0:0:
408,328,248295,6,0,L|272:328,1,136.890000522194,2|0,0:0|1:0,0:0:0:0:
129,254,249321,2,0,L|265:254,1,136.890000522194,0|2,1:0|0:0,0:0:0:0:
404,172,250347,2,0,L|268:172,1,136.890000522194,2|0,0:0|1:0,0:0:0:0:
126,95,251373,2,0,L|262:95,1,136.890000522194,0|2,1:0|0:0,0:0:0:0:
415,43,252398,6,0,P|448:160|341:248,1,273.780001044388,4|0,0:0|1:0,0:0:0:0:
97,43,254449,2,0,P|64:160|171:248,1,273.780001044388,0|0,1:0|1:0,0:0:0:0:
169,248,256501,6,0,L|305:248,3,136.890000522194,2|0|0|2,0:0|1:0|1:0|0:0,0:0:0:0:
298,88,258552,2,0,L|162:88,3,136.890000522194,2|0|0|2,0:0|1:0|1:0|0:0,0:0:0:0:
212,240,260603,6,0,P|232:279|159:312,1,136.890000522194,4|8,0:0|0:0,0:0:0:0:
304,236,261629,2,0,P|343:216|376:289,1,136.890000522194,0|10,1:0|0:0,0:0:0:0:
300,144,262654,2,0,P|280:105|353:72,1,136.890000522194,0|8,1:0|0:0,0:0:0:0:
208,148,263680,2,0,P|169:168|136:95,1,136.890000522194,0|10,1:0|0:0,0:0:0:0:
107,260,264706,6,0,B|107:328|107:328|179:328,3,136.890000522194,2|8|0|10,0:0|0:0|1:0|0:0,0:0:0:0:
336,330,266757,2,0,B|404:330|404:330|404:258,3,136.890000522194,2|8|0|10,0:0|0:0|1:0|0:0,0:0:0:0:
336,116,268808,6,0,L|336:264,1,136.890000522194,4|8,0:0|0:0,0:0:0:0:
192,324,269834,2,0,L|192:176,1,136.890000522194,0|10,1:0|0:0,0:0:0:0:
47,118,270860,2,0,L|47:266,1,136.890000522194,0|8,0:0|0:0,0:0:0:0:
192,187,271885,2,0,L|192:39,1,136.890000522194,0|10,1:0|0:0,0:0:0:0:
346,96,272911,6,0,B|346:164|346:164|274:164,3,136.890000522194,2|8|0|10,0:0|0:0|1:0|0:0,0:0:0:0:
132,232,274962,2,0,B|64:232|64:232|64:300,3,136.890000522194,2|8|0|10,0:0|0:0|1:0|0:0,0:0:0:0:
221,333,277013,6,0,P|288:337|345:302,1,136.890000522194,4|8,0:0|0:0,0:0:0:0:
465,195,278039,2,0,P|407:229|340:225,1,136.890000522194,0|8,1:0|0:0,0:0:0:0:
185,183,279065,2,0,P|252:187|309:152,1,136.890000522194,4|8,0:0|0:0,0:0:0:0:
429,45,280091,2,0,P|371:79|304:75,1,136.890000522194,0|8,1:0|0:0,0:0:0:0:
153,19,281116,6,0,B|98:31|122:92|59:113,1,136.890000522194,4|8,0:0|0:0,0:0:0:0:
61,273,282142,2,0,B|123:293|99:354|154:366,1,136.890000522194,0|8,1:0|0:0,0:0:0:0:
303,309,283167,2,0,P|360:282|381:213,1,136.890000522194,4|8,0:0|0:0,0:0:0:0:
303,75,284193,2,0,P|360:102|381:171,1,136.890000522194,0|8,1:0|0:0,0:0:0:0:
222,150,285218,6,0,L|82:150,3,136.890000522194,4|8|0|8,0:0|0:0|1:0|0:0,0:0:0:0:
222,234,287270,2,0,L|82:234,3,136.890000522194,4|8|0|8,0:0|0:0|1:0|0:0,0:0:0:0:
221,318,289321,6,0,B|288:334|288:334|360:306,3,136.890000522194,4|8|0|8,0:0|0:0|1:0|0:0,0:0:0:0:
292,161,291372,2,0,B|359:145|359:145|431:173,3,136.890000522194,4|8|0|8,0:0|0:0|1:0|0:0,0:0:0:0:
256,192,293424,12,8,295475,2:0:0:0:
256,192,295731,12,0,297526,0:0:0:0:
256,192,299577,12,2,303680,0:0:0:0:
256,192,303936,12,0,307783,0:0:0:0:
