osu file format v12

[General]
AudioFilename: Never Say Never(TV-Size).mp3
AudioLeadIn: 0
PreviewTime: 34889
Countdown: 0
SampleSet: Soft
StackLeniency: 0.7
Mode: 0
LetterboxInBreaks: 0
WidescreenStoryboard: 0

[Editor]
Bookmarks: 48121,49879,61598,64762
DistanceSpacing: 0.8
BeatDivisor: 4
GridSize: 4
TimelineZoom: 1

[Metadata]
Title:Never Say Never (TV Size)
TitleUnicode:Never Say Never (TV Size)
Artist:TKDz2b
ArtistUnicode:TKDz2b
Creator:thou bad
Version:Normal
Source:ダンガンロンパ 希望の学園と絶望の高校生
Tags:Danganronpa: Kibou no Gakuen to Zetsubou no Koukousei The Animation opening PSP game PlayStation Portable Megurine Luka
BeatmapID:291071
BeatmapSetID:110943

[Difficulty]
HPDrainRate:4
CircleSize:3
OverallDifficulty:4
ApproachRate:5
SliderMultiplier:1.2
SliderTickRate:1

[Events]
//Background and Video events
0,0,"BG.jpg",0,0
Video,0,"DanganRonpa.flv"
//Break Periods
//Storyboard Layer 0 (Background)
//Storyboard Layer 1 (Fail)
//Storyboard Layer 2 (Pass)
//Storyboard Layer 3 (Foreground)
//Storyboard Sound Samples
//Background Colour Transformations
3,100,163,162,255

[TimingPoints]
5358,468.75,4,2,1,70,1,0
5826,-100,4,2,2,70,0,0
6998,-100,4,2,1,70,0,0
7701,-100,4,2,2,70,0,0
8756,-100,4,2,1,70,0,0
9576,-100,4,2,2,70,0,0
10631,-100,4,2,1,70,0,0
12389,-100,4,2,2,70,0,0
12506,-100,4,2,1,70,0,0
13326,-100,4,2,2,70,0,0
14381,-100,4,2,1,70,0,0
15201,-100,4,2,2,70,0,0
16256,-100,4,2,1,70,0,0
17076,-100,4,2,2,70,0,0
18131,-100,4,2,1,70,0,0
18951,-100,4,2,2,70,0,0
20358,-100,4,2,2,60,0,0
24108,-100,4,2,1,70,0,0
24576,-100,4,2,2,70,0,0
25631,-100,4,2,1,70,0,0
26451,-100,4,2,2,70,0,0
27740,-100,4,2,1,70,0,0
28326,-100,4,2,2,70,0,0
29381,-100,4,2,1,70,0,0
30201,-100,4,2,2,70,0,0
34420,-100,4,2,1,5,0,0
35358,-100,4,2,1,70,0,1
48483,-100,4,2,2,70,0,0
50358,-100,4,2,1,70,0,1
62076,-100,4,2,2,70,0,1
63483,-100,4,2,2,70,0,0
65358,-100,4,2,1,70,0,1
77076,-100,4,2,2,70,0,1
78483,-100,4,2,1,70,0,1
78600,-100,4,2,2,70,0,1
79889,-100,4,2,3,70,0,0
80358,-100,4,2,2,70,0,0

[Colours]
Combo1 : 255,128,128
Combo2 : 255,0,128
Combo3 : 0,128,255
Combo4 : 255,128,255

[HitObjects]
120,228,5358,2,0,L|148:172,2,60,4|0|2,0:1|0:0|0:0,0:0:0:0:
80,320,6295,2,0,P|139:326|196:293,1,120,0|2,0:0|0:0,0:0:0:0:
256,229,7233,5,8,0:0:0:0:
322,159,7701,1,2,0:0:0:0:
387,88,8170,2,0,L|400:28,2,60,0|0|2,0:0|0:0|0:0,0:0:0:0:
424,176,9108,6,0,P|455:226|472:285,1,120,8|2,0:0|0:0,0:0:0:0:
464,332,9811,1,0,0:0:0:0:
416,340,10045,2,0,P|356:332|296:340,1,120,0|2,0:0|0:0,0:0:0:0:
204,360,10983,6,0,P|228:268|308:244,1,180,8|0,0:0|0:0,0:0:0:0:
349,240,11920,2,0,P|399:208|417:146,1,120,0|2,0:0|0:0,0:0:0:0:
404,56,12858,5,8,0:0:0:0:
328,112,13326,1,2,0:0:0:0:
243,66,13795,2,0,B|225:98|234:133|234:133|186:125,1,120,0|2,0:0|0:0,0:0:0:0:
100,172,14733,6,0,P|89:144|89:109,2,60,8|0|2,0:0|0:0|0:0,0:0:0:0:
40,248,15670,2,0,P|96:272|152:256,1,120,0|2,0:0|0:0,0:0:0:0:
231,203,16608,5,8,0:0:0:0:
321,235,17076,2,0,L|353:287,1,60,2|0,0:0|0:0,0:0:0:0:
355,334,17545,2,0,P|386:281|442:262,1,120,0|2,0:0|0:0,0:0:0:0:
449,167,18483,6,0,B|417:149|391:150|391:150|385:125|358:101,1,120,8|2,0:0|0:0,0:0:0:0:
313,83,19186,1,0,0:0:0:0:
265,79,19420,2,0,P|207:98|176:148,1,120,0|0,0:0|3:0,0:0:0:0:
171,242,20358,6,0,B|228:268|293:243|293:243|251:209,1,180,4|2,0:1|0:0,0:0:0:0:
177,147,21529,2,0,P|145:151|115:163,1,60,0|0,0:0|0:0,0:0:0:0:
24,166,22233,6,0,P|10:123|4:76,2,90,2|2|2,0:0|0:0|0:0,0:0:0:0:
24,218,23170,2,0,P|10:261|4:308,2,90,2|2|2,0:0|0:0|0:0,0:0:0:0:
64,192,24108,6,0,P|120:180|184:192,1,120,8|2,0:0|0:0,0:0:0:0:
236,272,25045,2,0,P|180:284|116:272,1,120,0|2,0:0|0:0,0:0:0:0:
64,192,25983,1,8,0:0:0:0:
76,96,26451,6,0,L|116:52,1,60,2|0,0:0|0:0,0:0:0:0:
160,72,26920,2,0,B|216:96|272:64|272:64|272:100|296:124,1,180,0|2,0:0|0:0,0:0:0:0:
328,156,27858,6,0,P|377:183|437:173,1,120,8|2,0:0|0:0,0:0:0:0:
396,88,28795,2,0,L|376:208,1,120,0|2,0:0|0:0,0:0:0:0:
448,272,29733,5,8,0:0:0:0:
368,324,30201,2,0,B|317:299|317:299|284:304|260:328,2,120,2|0|2,0:0|0:0|0:0,0:0:0:0:
256,192,31608,12,0,34420,0:0:0:0:
57,116,35358,6,0,P|37:172|33:236,1,120,4|2,0:1|0:0,0:0:0:0:
41,280,36061,1,0,0:0:0:0:
70,318,36295,2,0,P|126:337|182:319,1,120,0|2,0:0|0:0,0:0:0:0:
268,276,37233,2,0,P|324:257|380:275,2,120,8|2|0,0:0|0:0|0:0,0:0:0:0:
182,319,38639,2,0,P|124:306|85:262,1,120,2|8,0:0|0:0,0:0:0:0:
44,176,39576,6,0,L|88:136,1,60,2|0,0:0|0:0,0:0:0:0:
136,144,40045,2,0,P|190:120|246:140,1,120,0|2,0:0|0:0,0:0:0:0:
308,68,40983,2,0,P|362:92|418:72,2,120,8|2|0,0:0|0:0|0:0,0:0:0:0:
216,44,42389,2,0,L|176:88,1,60,2|0,0:0|0:0,0:0:0:0:
128,80,42858,6,0,P|173:118|180:184,1,120,8|2,0:0|0:0,0:0:0:0:
92,212,43795,2,0,P|150:222|189:276,1,120,0|2,0:0|0:0,0:0:0:0:
196,315,44498,1,0,0:0:0:0:
196,364,44733,2,0,P|252:340|310:326,1,120,8|2,0:0|0:0,0:0:0:0:
404,308,45670,2,0,P|460:288|488:232,2,120,0|2|8,0:0|0:0|0:0,0:0:0:0:
428,116,47545,6,0,P|452:77|454:28,2,90,0|0|0,0:0|0:0|0:0,0:0:0:0:
388,144,48483,2,0,P|332:128|268:144,1,120,0|2,0:0|0:0,0:0:0:0:
188,188,49420,1,0,0:0:0:0:
100,148,49889,2,0,P|85:120|80:88,1,60,0|0,0:0|0:0,0:0:0:0:
68,44,50358,6,0,P|59:101|19:153,1,120,4|2,0:1|0:0,0:0:0:0:
12,196,51061,2,0,L|32:256,1,60,0|0,0:0|0:0,0:0:0:0:
128,240,51764,2,0,L|120:300,1,60,2|0,0:0|0:0,0:0:0:0:
96,340,52233,2,0,L|212:308,1,120,8|2,0:0|0:0,0:0:0:0:
296,356,53170,1,0,0:0:0:0:
391,342,53639,1,2,0:0:0:0:
437,259,54108,6,0,P|441:199|405:143,2,120,8|2|0,0:0|0:0|0:0,0:0:0:0:
349,219,55514,1,2,0:0:0:0:
260,256,55983,2,0,P|255:196|285:146,2,120,8|2|0,0:0|0:0|0:0,0:0:0:0:
292,348,57389,2,0,P|260:352|228:348,1,60,2|0,0:0|0:0,0:0:0:0:
184,344,57858,6,0,B|150:340|122:352|122:352|92:300,1,120,8|2,0:0|0:0,0:0:0:0:
4,268,58795,2,0,P|-3:206|20:149,1,120,0|2,0:0|0:0,0:0:0:0:
92,96,59733,2,0,B|132:72|176:76|176:76|208:96,2,120,8|2|0,0:0|0:0|0:0,0:0:0:0:
148,172,61139,1,2,0:0:0:0:
188,260,61608,6,0,P|245:249|308:260,1,120,8|2,0:0|0:0,0:0:0:0:
349,280,62311,1,0,0:0:0:0:
444,264,62779,2,0,L|484:308,2,60,0|2|0,0:0|0:0|0:0,0:0:0:0:
452,216,63483,6,0,B|472:176|464:132|464:132|436:108,1,120,0|2,0:0|0:0,0:0:0:0:
400,80,64186,2,0,B|360:48|360:48|332:80|296:80,1,120,0|0,0:0|0:0,0:0:0:0:
252,76,64889,2,0,L|212:120,1,60,2|0,0:0|0:0,0:0:0:0:
164,108,65358,6,0,P|200:156|208:224,1,120,4|2,0:1|0:0,0:0:0:0:
185,307,66295,1,0,0:0:0:0:
96,344,66764,2,0,P|55:300|40:233,1,120,2|8,0:0|0:0,0:0:0:0:
57,148,67701,2,0,P|76:123|84:91,1,60,2|0,0:0|0:0,0:0:0:0:
100,50,68170,2,0,P|112:108|156:147,1,120,0|2,0:0|0:0,0:0:0:0:
250,167,69108,6,0,P|306:185|337:236,2,120,8|2|0,0:0|0:0|0:0,0:0:0:0:
248,262,70514,1,2,0:0:0:0:
244,357,70983,2,0,P|187:338|156:287,2,120,0|2|0,0:0|0:0|0:0,0:0:0:0:
332,316,72389,1,2,0:0:0:0:
332,220,72858,6,0,B|345:179|333:134|333:134|304:153,1,120,8|2,0:0|0:0,0:0:0:0:
216,188,73795,1,0,0:0:0:0:
132,140,74264,2,0,P|120:112|100:88,1,60,2|0,0:0|0:0,0:0:0:0:
60,60,74733,2,0,P|117:74|180:60,1,120,8|2,0:0|0:0,0:0:0:0:
268,92,75670,1,0,0:0:0:0:
356,52,76139,1,2,0:0:0:0:
404,137,76608,6,0,P|415:193|456:249,1,120,8|2,0:0|0:0,0:0:0:0:
359,275,77545,2,0,P|303:286|247:327,1,120,0|2,0:0|0:0,0:0:0:0:
222,229,78483,2,0,P|211:173|170:117,1,120,8|2,0:0|0:0,0:0:0:0:
268,92,79420,2,0,P|323:81|379:40,1,120,0|8,0:0|0:0,0:0:0:0:
404,137,80358,5,2,0:0:0:0:
465,210,80826,1,2,0:0:0:0:
486,302,81295,2,0,B|438:314|402:282|402:282|386:310,1,120,0|2,0:0|0:0,0:0:0:0:
312,368,82233,6,0,P|291:310|308:256,2,120,2|2|0,0:0|0:0|0:0,0:0:0:0:
387,307,83639,1,2,0:0:0:0:
396,212,84108,6,0,P|357:170|297:159,1,120,2|2,0:0|0:0,0:0:0:0:
220,220,85045,1,0,0:0:0:0:
308,256,85514,1,2,0:0:0:0:
232,316,85983,6,0,B|196:332|158:315|158:315|121:339,1,120,2|2,0:0|0:0,0:0:0:0:
27,314,86920,2,0,B|44:265|44:265|22:234|28:189,1,120,0|2,0:0|0:0,0:0:0:0:
