osu file format v12

[General]
AudioFilename: OP.mp3
AudioLeadIn: 1500
PreviewTime: 34908
Countdown: 0
SampleSet: Soft
StackLeniency: 0.7
Mode: 0
LetterboxInBreaks: 0
WidescreenStoryboard: 0

[Editor]
DistanceSpacing: 1.2
BeatDivisor: 4
GridSize: 4

[Metadata]
Title:Never Say Never (TV Size)
TitleUnicode:Never Say Never (TV Size)
Artist:TKDz2b
ArtistUnicode:TKDz2b
Creator:AnreFM
Version:Hard
Source:Dangan Ronpa: The Animation
Tags:opening academy of hope spike chunsoft jas mace marchitect the 49ers tribeca psp game
BeatmapID:279210
BeatmapSetID:106352

[Difficulty]
HPDrainRate:5
CircleSize:4
OverallDifficulty:6
ApproachRate:7
SliderMultiplier:1.29999990463257
SliderTickRate:2

[Events]
//Background and Video events
Video,30,"danOP.avi"
0,0,"1url.jpeg",0,0
//Break Periods
//Storyboard Layer 0 (Background)
//Storyboard Layer 1 (Fail)
//Storyboard Layer 2 (Pass)
//Storyboard Layer 3 (Foreground)
//Storyboard Sound Samples
//Background Colour Transformations
3,100,64,0,0

[TimingPoints]
-223,468.75,4,2,1,60,1,0
34464,-125,4,2,1,60,0,0
35402,-100,4,2,1,60,0,1
42902,-125,4,2,1,60,0,1
43370,-100,4,2,1,60,0,1
44777,-125,4,2,1,60,0,1
45245,-100,4,2,1,60,0,1
48527,-100,4,2,1,60,0,0
50402,-100,4,2,1,60,0,1
57902,-125,4,2,1,60,0,1
58370,-100,4,2,1,60,0,1
59777,-125,4,2,1,60,0,1
60245,-100,4,2,1,60,0,1
61652,-125,4,2,1,60,0,1
62120,-100,4,2,1,60,0,1
63527,-100,4,2,1,60,0,0
65402,-100,4,2,1,60,0,1
69152,-125,4,2,1,60,0,1
69620,-100,4,2,1,60,0,1
72902,-125,4,2,1,60,0,1
73370,-100,4,2,1,60,0,1
74777,-125,4,2,1,60,0,1
75245,-100,4,2,1,60,0,1
76652,-125,4,2,1,60,0,1
77355,-100,4,2,1,60,0,1
80402,-100,4,2,1,60,0,0

[Colours]
Combo1 : 128,0,0
Combo2 : 128,64,0
Combo3 : 0,0,64

[HitObjects]
256,192,245,12,0,4464,0:0:0:0:
96,204,5402,6,0,P|168:224|232:196,1,129.999990463257,4|2,0:0|0:0,0:0:0:0:
288,172,6105,1,0,0:0:0:0:
364,148,6339,2,0,P|396:140|444:156,2,64.9999952316285,0|0|2,0:0|0:0|0:0,0:0:0:0:
348,12,7277,5,0,0:0:0:0:
272,16,7511,1,0,0:0:0:0:
220,72,7746,2,0,P|159:92|97:74,1,129.999990463257,2|0,0:0|0:0,0:0:0:0:
20,88,8448,1,0,0:0:0:0:
32,164,8683,1,2,0:0:0:0:
132,276,9152,6,0,P|192:296|272:280,1,129.999990463257,0|2,0:0|0:0,0:0:0:0:
332,308,9855,2,0,P|334:270|324:240,1,64.9999952316285
256,208,10323,2,0,P|247:182|250:144,1,64.9999952316285,0|2,0:0|0:0,0:0:0:0:
280,72,10792,1,0,0:0:0:0:
280,72,11027,6,0,P|344:88|420:72,1,129.999990463257,0|2,0:0|0:0,0:0:0:0:
480,56,11730,2,0,L|512:20,2,32.4999976158143
460,132,12198,2,0,P|456:160|468:208,1,64.9999952316285,0|2,0:0|0:0,0:0:0:0:
316,248,12902,6,0,P|248:256|168:228,1,129.999990463257,0|2,0:0|0:0,0:0:0:0:
156,172,13605,2,0,P|120:164|80:176,1,64.9999952316285
24,132,14073,1,0,0:0:0:0:
88,88,14308,1,2,0:0:0:0:
160,60,14542,6,0,P|196:68|236:56,1,64.9999952316285
296,92,15011,2,0,P|292:128|312:168,1,64.9999952316285,0|2,0:0|0:0,0:0:0:0:
380,168,15480,1,0,0:0:0:0:
412,244,15714,1,0,0:0:0:0:
356,296,15948,1,0,0:0:0:0:
392,364,16183,1,2,0:0:0:0:
260,280,16652,6,0,P|196:264|124:284,1,129.999990463257,0|2,0:0|0:0,0:0:0:0:
76,328,17355,1,0,0:0:0:0:
60,252,17589,2,0,L|36:212,2,32.4999976158143
16,152,18058,2,0,B|64:140|96:164|96:164|144:112,1,129.999990463257,2|0,0:0|0:0,0:0:0:0:
204,136,18761,6,0,L|288:148,1,64.9999952316285,0|2,0:0|0:0,0:0:0:0:
332,192,19230,2,0,P|344:160|336:108,1,64.9999952316285
412,92,19698,2,0,P|448:100|500:92,2,64.9999952316285,0|2|0,0:0|0:0|0:0,0:0:0:0:
352,40,20402,5,4,0:0:0:0:
288,84,20636,1,0,0:0:0:0:
240,24,20870,1,2,0:0:0:0:
184,80,21105,2,0,P|152:84|108:72,1,64.9999952316285,0|0,0:0|0:0,0:0:0:0:
44,56,21573,2,0,B|36:100|56:128|56:128|32:136|12:180,1,129.999990463257,0|2,0:0|0:0,0:0:0:0:
88,204,22277,6,0,L|156:224,1,64.9999952316285
228,208,22745,2,0,P|228:244|204:292,1,64.9999952316285,2|0,0:0|0:0,0:0:0:0:
168,332,23214,1,0,0:0:0:0:
244,348,23448,2,0,P|276:348|316:368,1,64.9999952316285,0|2,0:0|0:0,0:0:0:0:
452,360,24152,6,0,P|432:292|452:212,1,129.999990463257,0|2,0:0|0:0,0:0:0:0:
420,160,24855,2,0,P|386:156|348:144,1,64.9999952316285
312,84,25323,2,0,L|324:32,2,32.4999976158143,0|0|2,0:0|0:0|0:0,0:0:0:0:
268,148,25792,1,0,0:0:0:0:
192,124,26027,6,0,B|176:168|204:200|204:200|168:252,1,129.999990463257,0|2,0:0|0:0,0:0:0:0:
112,288,26730,2,0,P|76:276|48:280,1,64.9999952316285
72,356,27198,1,0,0:0:0:0:
148,360,27433,2,0,P|184:364|240:352,2,64.9999952316285,2|0|0,0:0|0:0|0:0,0:0:0:0:
280,344,28136,6,0,P|268:288|280:208,1,129.999990463257,0|2,0:0|0:0,0:0:0:0:
228,156,28839,1,0,0:0:0:0:
288,104,29073,2,0,L|340:120,2,32.4999976158143,0|0|2,0:0|0:0|0:0,0:0:0:0:
152,168,29542,6,0,P|120:172|76:156,1,64.9999952316285
64,88,30011,2,0,P|96:84|140:100,1,64.9999952316285,0|2,0:0|0:0,0:0:0:0:
200,64,30480,1,0,0:0:0:0:
252,120,30714,1,0,0:0:0:0:
328,104,30948,1,0,0:0:0:0:
364,176,31183,1,2,0:0:0:0:
432,140,31417,2,0,P|464:136|496:148,1,64.9999952316285
456,212,31886,6,0,P|436:280|452:356,1,129.999990463257,0|2,0:0|0:0,0:0:0:0:
372,364,32589,1,0,0:0:0:0:
296,340,32823,2,0,P|260:336|228:348,1,64.9999952316285,0|2,0:0|0:0,0:0:0:0:
160,348,33292,1,0,0:0:0:0:
100,296,33527,6,0,P|128:240|128:156,1,129.999990463257,0|2,0:0|0:0,0:0:0:0:
184,116,34230,2,0,L|232:124,1,32.4999976158143
244,108,34464,2,4,P|296:124|352:108,1,103.999992370606,0|2,0:0|0:0,0:0:0:0:
416,252,35402,6,0,P|348:236|268:264,1,129.999990463257,0|8,0:0|0:0,0:0:0:0:
216,276,36105,1,0,0:0:0:0:
148,240,36339,2,0,P|152:212|144:168,1,64.9999952316285
128,100,36808,1,8,0:0:0:0:
176,32,37042,1,0,0:0:0:0:
176,32,37277,6,0,P|208:40|252:20,1,64.9999952316285
320,40,37745,1,8,0:0:0:0:
400,20,37980,2,0,P|432:12|488:24,2,64.9999952316285
432,92,38683,2,0,P|420:120|420:156,1,64.9999952316285,8|8,0:0|0:0,0:0:0:0:
460,224,39152,6,0,P|392:232|340:180,1,129.999990463257,0|8,0:0|0:0,0:0:0:0:
268,184,39855,1,0,0:0:0:0:
208,240,40089,2,0,P|180:252|120:248,2,64.9999952316285,0|0|8,0:0|0:0|0:0,0:0:0:0:
164,176,40792,1,0,0:0:0:0:
84,320,41027,6,0,P|60:264|92:184,1,129.999990463257,0|8,0:0|0:0,0:0:0:0:
40,132,41730,2,0,L|104:96,1,64.9999952316285
136,32,42198,1,0,0:0:0:0:
204,72,42433,1,8,0:0:0:0:
252,12,42667,1,8,0:0:0:0:
324,52,42902,6,0,P|360:84|420:88,1,103.999992370606,0|8,0:0|0:0,0:0:0:0:
484,124,43605,2,0,P|488:160|476:200,1,64.9999952316285
408,200,44073,2,0,P|401:227|405:263,1,64.9999952316285,0|8,0:0|0:0,0:0:0:0:
452,328,44542,1,0,0:0:0:0:
452,328,44777,6,0,P|396:312|348:320,1,103.999992370606,0|8,0:0|0:0,0:0:0:0:
284,360,45480,2,0,L|220:348,1,64.9999952316285
172,288,45948,1,0,0:0:0:0:
100,316,46183,1,8,0:0:0:0:
60,248,46417,1,8,0:0:0:0:
116,196,46652,2,0,P|152:184|200:196,1,64.9999952316285,0|2,0:0|0:0,0:0:0:0:
208,116,47120,2,0,P|234:132|260:176,1,64.9999952316285,0|2,0:0|0:0,0:0:0:0:
216,264,47589,5,0,0:0:0:0:
296,220,47823,2,0,P|332:216|368:180,2,64.9999952316285
216,264,48527,1,4,0:0:0:0:
216,264,48761,2,0,P|272:296|352:292,1,129.999990463257
396,352,49464,1,8,0:0:0:0:
416,276,49698,2,0,P|408:216|416:192,2,64.9999952316285
440,144,50402,6,0,B|398:122|356:152|356:152|308:132,1,129.999990463257,4|8,0:0|0:0,0:0:0:0:
236,120,51105,1,0,0:0:0:0:
191,48,51339,2,0,P|156:80|145:127,2,97.4999928474428
92,184,52277,6,0,B|124:220|168:208|168:208|200:272,1,129.999990463257,0|8,0:0|0:0,0:0:0:0:
236,312,52980,2,0,P|269:309|308:316,1,64.9999952316285
368,276,53448,1,0,0:0:0:0:
444,252,53683,2,0,P|437:209|444:168,1,64.9999952316285,8|8,0:0|0:0,0:0:0:0:
488,128,54152,6,0,P|420:112|364:160,1,129.999990463257,0|8,0:0|0:0,0:0:0:0:
197,199,54855,2,0,P|265:215|316:188,2,129.999990463257,0|0|8,0:0|0:0|0:0,0:0:0:0:
124,228,56027,2,0,P|116:196|128:152,1,64.9999952316285,0|0,0:0|0:0,0:0:0:0:
180,112,56495,2,0,L|256:96,1,64.9999952316285,8|0,0:0|0:0,0:0:0:0:
300,48,56964,1,0,0:0:0:0:
328,120,57198,1,0,0:0:0:0:
408,120,57433,1,8,0:0:0:0:
424,196,57667,1,8,0:0:0:0:
504,232,57902,6,0,P|448:240|408:292,1,103.999992370606,0|8,0:0|0:0,0:0:0:0:
360,328,58605,1,0,0:0:0:0:
284,328,58839,2,0,P|248:320|196:336,1,64.9999952316285
152,364,59308,2,0,P|140:324|144:288,1,64.9999952316285,8|0,0:0|0:0,0:0:0:0:
92,248,59777,6,0,P|152:260|208:236,1,103.999992370606,0|8,0:0|0:0,0:0:0:0:
248,192,60480,2,0,B|320:204,1,64.9999952316285
376,248,60948,2,0,P|388:216|384:168,2,64.9999952316285,0|8|8,0:0|0:0|0:0,0:0:0:0:
320,312,61652,5,0,0:0:0:0:
320,312,61886,1,0,0:0:0:0:
256,192,62120,12,4,63527,0:0:0:0:
136,160,63761,6,0,P|200:176|272:144,1,129.999990463257,0|2,0:0|0:0,0:0:0:0:
316,100,64464,2,0,P|332:128|336:180,1,64.9999952316285
292,224,64933,1,2,0:0:0:0:
348,276,65167,1,2,0:0:0:0:
288,328,65402,6,0,P|220:316|144:336,1,129.999990463257,4|8,0:0|0:0,0:0:0:0:
84,348,66105,1,0,0:0:0:0:
40,284,66339,2,0,P|52:236|40:176,2,97.4999928474428,0|0|8,0:0|0:0|0:0,0:0:0:0:
92,128,67277,6,0,P|129:135|184:128,1,64.9999952316285
232,112,67745,1,8,0:0:0:0:
284,52,67980,2,0,P|312:112|280:176,1,129.999990463257
224,208,68683,1,8,0:0:0:0:
272,272,68917,1,8,0:0:0:0:
196,304,69152,6,0,P|140:300|80:272,1,103.999992370606,0|8,0:0|0:0,0:0:0:0:
16,288,69855,2,0,P|24:248|52:220,1,64.9999952316285
112,200,70323,2,0,P|120:180|120:136,1,64.9999952316285,0|8,0:0|0:0,0:0:0:0:
56,104,70792,2,0,P|124:108|192:76,2,129.999990463257,0|0|8,0:0|0:0|0:0,0:0:0:0:
244,48,71964,2,0,L|316:80,1,64.9999952316285,2|2,0:0|0:0,0:0:0:0:
380,80,72433,1,2,0:0:0:0:
420,148,72667,1,2,0:0:0:0:
500,120,72902,6,0,P|500:174|464:232,1,103.999992370606,0|8,0:0|0:0,0:0:0:0:
488,296,73605,1,0,0:0:0:0:
416,268,73839,2,0,P|380:260|332:268,1,64.9999952316285
324,336,74308,2,0,P|296:338|260:330,1,64.9999952316285,8|0,0:0|0:0,0:0:0:0:
196,384,74777,6,0,P|180:328|208:268,1,103.999992370606,0|8,0:0|0:0,0:0:0:0:
240,224,75480,2,0,L|320:212,1,64.9999952316285
380,236,75948,2,0,P|380:200|360:156,2,64.9999952316285,0|8|8,0:0|0:0|0:0,0:0:0:0:
384,88,76652,6,0,B|320:80|296:132|296:132|240:124,1,155.999988555908,0|8,0:0|0:0,0:0:0:0:
192,72,77589,2,0,P|176:92|168:140,1,64.9999952316285
212,192,78058,2,0,P|203:229|187:249,1,64.9999952316285,0|8,0:0|0:0,0:0:0:0:
136,308,78527,2,0,P|112:307|80:312,2,32.4999976158143
212,324,78995,2,0,P|240:332|300:320,1,64.9999952316285,0|8,0:0|0:0,0:0:0:0:
352,324,79464,2,0,P|368:332|404:332,2,32.4999976158143
392,252,79933,1,8,0:0:0:0:
360,180,80167,1,8,0:0:0:0:
284,160,80402,5,4,0:0:0:0:
256,192,80519,12,0,84152,0:0:0:0:
