osu file format v12

[General]
AudioFilename: OP.mp3
AudioLeadIn: 1500
PreviewTime: 34908
Countdown: 0
SampleSet: Soft
StackLeniency: 0.7
Mode: 0
LetterboxInBreaks: 0
WidescreenStoryboard: 0

[Editor]
DistanceSpacing: 1
BeatDivisor: 4
GridSize: 4

[Metadata]
Title:Never Say Never (TV Size)
TitleUnicode:Never Say Never (TV Size)
Artist:TKDz2b
ArtistUnicode:TKDz2b
Creator:AnreFM
Version:Easy
Source:Dangan Ronpa: The Animation
Tags:opening academy of hope spike chunsoft jas mace marchitect the 49ers tribeca psp game
BeatmapID:279209
BeatmapSetID:106352

[Difficulty]
HPDrainRate:2
CircleSize:3
OverallDifficulty:2
ApproachRate:3
SliderMultiplier:0.99999990463257
SliderTickRate:2

[Events]
//Background and Video events
Video,30,"danOP.avi"
0,0,"1url.jpeg",0,0
//Break Periods
//Storyboard Layer 0 (Background)
//Storyboard Layer 1 (Fail)
//Storyboard Layer 2 (Pass)
//Storyboard Layer 3 (Foreground)
//Storyboard Sound Samples
//Background Colour Transformations
3,100,163,162,255

[TimingPoints]
-223,468.75,4,2,1,60,1,0
34933,-100,4,2,1,60,0,0
35402,-100,4,2,1,60,0,1
48527,-100,4,2,1,60,0,0
50402,-100,4,2,1,60,0,1
63527,-100,4,2,1,60,0,0
65402,-100,4,2,1,60,0,1
80402,-100,4,2,1,60,0,0

[Colours]
Combo1 : 128,0,0
Combo2 : 128,64,0
Combo3 : 0,0,64

[HitObjects]
256,192,245,12,0,4464,0:0:0:0:
60,180,5402,6,0,P|105:167|157:175,1,99.999990463257,4|2,0:0|0:0,0:0:0:0:
240,120,6339,2,0,P|281:135|348:116,1,99.999990463257,0|2,0:0|0:0,0:0:0:0:
408,56,7277,6,0,P|440:128|368:220,1,199.999980926514,0|2,0:0|0:0,0:0:0:0:
276,200,8683,1,2,0:0:0:0:
188,152,9152,6,0,P|144:132|92:140,2,99.999990463257,0|2|0,0:0|0:0|0:0,0:0:0:0:
128,232,10558,1,2,0:0:0:0:
64,308,11027,2,0,P|108:328|160:324,2,99.999990463257,0|2|0,0:0|0:0|0:0,0:0:0:0:
128,232,12433,1,2,0:0:0:0:
188,152,12902,6,0,P|272:96|344:160,1,199.999980926514,0|0,0:0|0:0,0:0:0:0:
400,236,14308,1,2,0:0:0:0:
484,292,14777,2,0,P|500:252|476:184,1,99.999990463257,0|2,0:0|0:0,0:0:0:0:
400,236,15714,2,0,P|392:188|416:136,2,99.999990463257,0|2|0,0:0|0:0|0:0,0:0:0:0:
312,288,17120,5,2,0:0:0:0:
236,220,17589,1,0,0:0:0:0:
140,244,18058,1,2,0:0:0:0:
76,164,18527,6,0,P|84:104|68:56,1,99.999990463257,0|2,0:0|0:0,0:0:0:0:
172,44,19464,2,0,P|195:99|232:133,1,99.999990463257,0|2,0:0|0:0,0:0:0:0:
316,160,20402,6,0,P|364:148|428:172,1,99.999990463257,4|2,0:0|0:0,0:0:0:0:
364,248,21339,1,0,0:0:0:0:
272,288,21808,1,2,0:0:0:0:
192,228,22277,6,0,B|216:144|300:160|332:72,1,199.999980926514
244,32,23683,1,2,0:0:0:0:
160,88,24152,2,0,B|186:162|270:146|294:230,1,199.999980926514
236,312,25558,1,2,0:0:0:0:
148,356,26027,6,0,P|140:304|156:256,1,99.999990463257,0|2,0:0|0:0,0:0:0:0:
56,224,26964,2,0,P|65:178|57:126,2,99.999990463257,0|2|0,0:0|0:0|0:0,0:0:0:0:
8,312,28370,1,2,0:0:0:0:
108,312,28839,6,0,P|196:280|308:324,1,199.999980926514,0|0,0:0|0:0,0:0:0:0:
384,356,30245,2,0,P|392:320|368:248,1,99.999990463257,2|0,0:0|0:0,0:0:0:0:
292,208,31183,1,2,0:0:0:0:
204,160,31652,6,0,P|250:111|372:144,1,199.999980926514
448,200,33058,1,2,0:0:0:0:
456,100,33527,2,0,P|440:56|448:0,1,99.999990463257
352,32,34464,2,0,P|358:83|342:127,1,99.999990463257,0|2,0:0|0:0,0:0:0:0:
260,188,35402,6,0,B|218:177|184:188|184:188|128:140|52:168,1,199.999980926514,4|0,0:0|0:0,0:0:0:0:
108,252,36808,1,8,0:0:0:0:
69,337,37277,2,0,B|128:360|184:312|184:312|218:323|260:312,1,199.999980926514,4|0,0:0|0:0,0:0:0:0:
340,252,38683,1,8,0:0:0:0:
428,296,39152,6,0,P|432:248|416:184,1,99.999990463257,0|8,0:0|0:0,0:0:0:0:
328,160,40089,2,0,P|323:112|340:48,1,99.999990463257,0|8,0:0|0:0,0:0:0:0:
432,44,41027,2,0,P|332:60|220:28,1,199.999980926514
140,60,42433,1,8,0:0:0:0:
56,112,42902,6,0,B|96:176|44:252|116:324,1,199.999980926514
188,352,44308,1,8,0:0:0:0:
276,304,44777,2,0,B|331:252|279:176|319:112,1,199.999980926514
388,40,46183,1,8,0:0:0:0:
476,88,46652,6,0,P|480:136|460:196,1,99.999990463257,0|8,0:0|0:0,0:0:0:0:
376,144,47589,2,0,P|361:193|365:241,2,99.999990463257,0|8|4,0:0|0:0|0:0,0:0:0:0:
296,84,48995,5,8,0:0:0:0:
216,144,49464,1,0,0:0:0:0:
140,80,49933,1,8,0:0:0:0:
52,32,50402,6,0,P|44:80|64:148,1,99.999990463257,4|8,0:0|0:0,0:0:0:0:
140,80,51339,2,0,P|150:129|142:177,2,99.999990463257,0|8|0,0:0|0:0|0:0,0:0:0:0:
56,132,52745,1,8,0:0:0:0:
84,228,53214,2,0,P|128:224|196:248,1,99.999990463257,0|8,0:0|0:0,0:0:0:0:
236,320,54152,6,0,B|288:288|284:220|284:220|330:231|376:200,1,199.999980926514,0|8,0:0|0:0,0:0:0:0:
456,160,55558,1,4,0:0:0:0:
364,116,56027,2,0,B|316:88|268:104|268:104|276:28|224:-4,1,199.999980926514
176,84,57433,1,4,0:0:0:0:
92,32,57902,6,0,P|80:84|96:140,2,99.999990463257,0|8|0,0:0|0:0|0:0,0:0:0:0:
176,84,59308,1,8,0:0:0:0:
180,184,59777,2,0,P|232:176|268:148,2,99.999990463257,0|8|0,0:0|0:0|0:0,0:0:0:0:
88,220,61183,1,8,0:0:0:0:
92,320,61652,6,0,B|160:292|236:348|296:316,1,199.999980926514
372,272,63058,1,8,0:0:0:0:
460,224,63527,6,0,B|432:156|488:88|440:24,1,199.999980926514
344,20,64933,1,8,0:0:0:0:
288,104,65402,6,0,P|241:124|188:124,1,99.999990463257,4|8,0:0|0:0,0:0:0:0:
148,212,66339,2,0,P|100:212|53:233,1,99.999990463257,0|8,0:0|0:0,0:0:0:0:
120,304,67277,2,0,P|184:336|264:288,2,149.999985694886,4|8|8,0:0|0:0|0:0,0:0:0:0:
36,248,69152,6,0,B|108:180|188:240|188:240|224:204,1,199.999980926514,0|8,0:0|0:0,0:0:0:0:
288,156,70558,1,4,0:0:0:0:
216,88,71027,2,0,B|193:65|193:65|113:125|41:57,1,199.999980926514,0|8,0:0|0:0,0:0:0:0:
8,152,72433,1,4,0:0:0:0:
60,236,72902,6,0,P|100:216|160:220,1,99.999990463257,0|8,0:0|0:0,0:0:0:0:
136,316,73839,2,0,P|188:316|232:284,1,99.999990463257,0|8,0:0|0:0,0:0:0:0:
240,192,74777,5,0,0:0:0:0:
332,228,75245,1,8,0:0:0:0:
356,132,75714,1,0,0:0:0:0:
456,148,76183,1,8,0:0:0:0:
484,244,76652,6,0,P|432:260|384:304,1,99.999990463257,0|8,0:0|0:0,0:0:0:0:
332,364,77589,2,0,P|296:336|244:320,1,99.999990463257,0|8,0:0|0:0,0:0:0:0:
156,272,78527,2,0,P|168:216|212:168,1,99.999990463257,0|8,0:0|0:0,0:0:0:0:
288,148,79464,5,0,0:0:0:0:
248,56,79933,1,8,0:0:0:0:
256,192,80402,12,0,84152,0:0:0:0:
