osu file format v12

[General]
AudioFilename: OP.mp3
AudioLeadIn: 1500
PreviewTime: 34908
Countdown: 0
SampleSet: Soft
StackLeniency: 0.7
Mode: 0
LetterboxInBreaks: 0
WidescreenStoryboard: 0

[Editor]
DistanceSpacing: 1
BeatDivisor: 4
GridSize: 4

[Metadata]
Title:Never Say Never (TV Size)
TitleUnicode:Never Say Never (TV Size)
Artist:TKDz2b
ArtistUnicode:TKDz2b
Creator:AnreFM
Version:Despair
Source:Dangan Ronpa: The Animation
Tags:opening academy of hope spike chunsoft jas mace marchitect the 49ers tribeca psp game
BeatmapID:279208
BeatmapSetID:106352

[Difficulty]
HPDrainRate:8
CircleSize:4
OverallDifficulty:7
ApproachRate:8
SliderMultiplier:1.49999990463257
SliderTickRate:2

[Events]
//Background and Video events
Video,30,"danOP.avi"
0,0,"1url.jpeg",0,0
//Break Periods
//Storyboard Layer 0 (Background)
//Storyboard Layer 1 (Fail)
//Storyboard Layer 2 (Pass)
//Storyboard Layer 3 (Foreground)
//Storyboard Sound Samples
//Background Colour Transformations
3,100,64,0,0

[TimingPoints]
-223,468.75,4,2,1,75,1,0
34464,-125,4,2,1,75,0,0
34816,-125,4,2,1,75,0,0
34933,-100,4,2,1,75,0,0
35402,-100,4,2,1,75,0,1
42902,-125,4,2,1,75,0,1
43370,-100,4,2,1,75,0,1
44777,-125,4,2,1,75,0,1
45245,-100,4,2,1,75,0,1
46652,-125,4,2,1,75,0,1
47237,-100,4,2,1,75,0,1
48527,-100,4,2,1,75,0,0
50402,-100,4,2,1,75,0,1
57902,-125,4,2,1,75,0,1
58370,-100,4,2,1,75,0,1
59777,-125,4,2,1,75,0,1
60245,-100,4,2,1,75,0,1
61652,-125,4,2,1,75,0,1
62120,-100,4,2,1,75,0,1
62355,-100,4,2,1,75,0,1
63527,-100,4,2,1,75,0,0
65402,-100,4,2,1,75,0,1
69152,-125,4,2,1,75,0,1
69620,-100,4,2,1,75,0,1
71964,-100,4,2,1,75,0,1
72902,-125,4,2,1,75,0,1
73370,-100,4,2,1,75,0,1
74777,-125,4,2,1,75,0,1
75245,-100,4,2,1,75,0,1
76652,-125,4,2,1,75,0,1
77355,-100,4,2,1,75,0,1
78058,-111.111111111111,4,2,1,75,0,1
80402,-100,4,2,1,75,0,0

[Colours]
Combo1 : 128,0,0
Combo2 : 128,64,0
Combo3 : 0,0,64

[HitObjects]
256,192,245,12,0,4464,0:0:0:0:
216,84,5402,2,0,L|124:96,2,74.9999952316285,4|0|8,0:0|0:0|0:0,0:0:0:0:
296,132,6105,2,0,L|388:120,1,74.9999952316285
408,116,6457,1,2,0:0:0:0:
444,112,6574,1,0,0:0:0:0:
508,232,6809,2,0,L|416:244,1,74.9999952316285,10|2,0:0|0:0,0:0:0:0:
360,264,7277,5,4,0:0:0:0:
300,312,7512,1,0,0:0:0:0:
272,288,7629,1,0,0:0:0:0:
240,272,7746,2,0,P|168:256|96:296,1,149.999990463257,10|2,0:0|0:0,0:0:0:0:
36,252,8449,1,0,0:0:0:0:
60,180,8684,2,0,P|97:174|131:160,1,74.9999952316284,10|2,0:0|0:0,0:0:0:0:
164,92,9152,6,0,L|248:108,1,74.9999952316284,4|0,0:0|0:0,0:0:0:0:
276,116,9504,1,0,0:0:0:0:
312,124,9621,1,10,0:0:0:0:
408,212,9855,2,0,L|324:196,1,74.9999952316284,0|0,0:0|0:0,0:0:0:0:
480,172,10324,1,0,0:0:0:0:
480,172,10559,2,0,P|484:224|476:252,1,74.9999952316285,10|2,0:0|0:0,0:0:0:0:
464,276,10910,1,0,0:0:0:0:
432,296,11027,5,4,0:0:0:0:
344,312,11261,1,0,0:0:0:0:
344,312,11378,2,0,P|304:320|256:304,1,74.9999952316285,2|0,0:0|0:0,0:0:0:0:
236,296,11730,1,8,0:0:0:0:
200,288,11847,1,2,0:0:0:0:
164,296,11964,1,0,0:0:0:0:
96,260,12198,2,0,P|88:292|100:336,1,74.9999952316285,0|8,0:0|0:0,0:0:0:0:
80,96,12902,6,0,P|152:120|228:100,1,149.999990463257,4|10,0:0|0:0,0:0:0:0:
292,72,13605,1,0,0:0:0:0:
292,72,13723,1,2,0:0:0:0:
292,72,13840,2,0,L|368:88,1,74.9999952316284,0|0,0:0|0:0,0:0:0:0:
431,124,14309,2,0,P|440:88|432:52,1,74.9999952316284,8|2,0:0|0:0,0:0:0:0:
384,184,14777,5,4,0:0:0:0:
312,204,15012,2,0,L|228:212,2,74.9999952316284,0|8|2,0:0|0:0|0:0,0:0:0:0:
160,168,15715,1,0,0:0:0:0:
132,144,15831,1,2,0:0:0:0:
112,112,15949,2,0,P|104:76|116:20,1,74.9999952316285,0|10,0:0|0:0,0:0:0:0:
252,72,16652,6,0,P|332:60|408:92,1,149.999990463257,4|10,0:0|0:0,0:0:0:0:
460,44,17355,2,0,P|468:80|460:128,1,74.9999952316285
448,152,17707,1,2,0:0:0:0:
424,180,17824,1,0,0:0:0:0:
207,193,18059,2,0,P|276:167|348:188,1,149.999990463257,8|4,0:0|0:0,0:0:0:0:
152,248,18762,6,0,P|132:200|144:160,1,74.9999952316285,0|10,0:0|0:0,0:0:0:0:
59,62,19230,2,0,P|79:110|76:132,1,74.9999952316285
60,168,19582,1,2,0:0:0:0:
36,196,19699,1,0,0:0:0:0:
160,68,19934,2,0,P|213:55|320:72,1,149.999990463257,10|4,0:0|0:0,0:0:0:0:
364,116,20637,5,0,0:0:0:0:
422,69,20871,1,10,0:0:0:0:
480,116,21105,2,0,L|488:192,1,74.9999952316285
492,228,21457,1,2,0:0:0:0:
496,268,21574,1,0,0:0:0:0:
400,216,21809,2,0,P|324:204|252:224,1,149.999990463257,10|0,0:0|0:0,0:0:0:0:
228,292,22512,5,0,0:0:0:0:
196,272,22629,1,0,0:0:0:0:
176,240,22746,2,0,P|168:200|188:156,1,74.9999952316285,10|2,0:0|0:0,0:0:0:0:
300,20,23215,2,0,P|311:52|303:92,1,74.9999952316285
283,124,23566,1,2,0:0:0:0:
251,140,23684,1,10,0:0:0:0:
208,56,23918,1,2,0:0:0:0:
136,12,24152,6,0,L|68:52,1,74.9999952316285,8|0,0:0|0:0,0:0:0:0:
40,72,24504,1,2,0:0:0:0:
8,92,24621,1,0,0:0:0:0:
20,168,24855,2,0,P|92:176|136:244,1,149.999990463257,8|0,0:0|0:0,0:0:0:0:
140,312,25559,2,0,L|228:288,1,74.9999952316285,10|0,0:0|0:0,0:0:0:0:
292,320,26027,5,0,0:0:0:0:
292,320,26145,1,2,0:0:0:0:
292,320,26262,2,0,P|296:284|276:240,1,74.9999952316285,0|10,0:0|0:0,0:0:0:0:
332,153,26730,2,0,L|260:172,1,74.9999952316285,0|0,0:0|0:0,0:0:0:0:
428,60,27199,2,0,L|336:84,2,74.9999952316285,0|10|2,0:0|0:0|0:0,0:0:0:0:
428,60,27902,1,0,0:0:0:0:
484,0,28137,5,0,0:0:0:0:
504,32,28254,1,2,0:0:0:0:
508,68,28371,2,0,P|496:100|500:156,1,74.9999952316285,10|2,0:0|0:0,0:0:0:0:
300,195,28840,2,0,P|376:168|440:188,1,149.999990463257,0|10,0:0|0:0,0:0:0:0:
248,248,29543,1,0,0:0:0:0:
180,284,29777,5,0,0:0:0:0:
144,288,29895,1,2,0:0:0:0:
108,276,30012,2,0,P|100:244|112:188,1,74.9999952316285,0|10,0:0|0:0,0:0:0:0:
160,80,30480,2,0,P|168:112|156:168,1,74.9999952316285,0|2,0:0|0:0,0:0:0:0:
196,16,30949,1,0,0:0:0:0:
232,40,31066,1,2,0:0:0:0:
248,80,31184,2,0,P|316:100|396:72,1,149.999990463257,10|4,0:0|0:0,0:0:0:0:
468,88,31887,5,0,0:0:0:0:
452,128,32004,1,2,0:0:0:0:
424,156,32121,2,0,P|388:168|320:260,1,149.999990463257,10|0,0:0|0:0,0:0:0:0:
280,312,32823,2,0,L|196:288,1,74.9999952316285,0|10,0:0|0:0,0:0:0:0:
207,291,33175,1,0,0:0:0:0:
144,332,33409,5,0,0:0:0:0:
144,332,33527,2,0,P|144:248|212:212,1,149.999990463257,0|10,0:0|0:0,0:0:0:0:
264,240,34230,1,0,0:0:0:0:
276,204,34347,1,2,0:0:0:0:
267,174,34464,2,4,P|227:131|169:128,1,119.999992370606,8|8,0:0|0:0,0:0:0:0:
292,28,35402,6,0,P|332:56|456:60,1,149.999990463257,4|10,0:0|0:0,0:0:0:0:
496,28,36105,2,0,P|504:72|484:120,1,74.9999952316285,0|0,0:0|0:0,0:0:0:0:
436,220,36573,2,0,P|427:184|436:148,1,74.9999952316285,0|8,0:0|0:0,0:0:0:0:
488,276,37042,1,0,0:0:0:0:
488,276,37277,2,0,P|416:260|332:280,1,149.999990463257,0|8,0:0|0:0,0:0:0:0:
292,332,37980,1,0,0:0:0:0:
268,300,38097,1,2,0:0:0:0:
268,264,38214,2,0,P|260:224|224:192,1,74.9999952316285,0|2,0:0|0:0,0:0:0:0:
144,96,38683,2,0,P|152:136|188:164,1,74.9999952316285,8|8,0:0|0:0,0:0:0:0:
224,96,39152,6,0,P|300:104|380:64,1,149.999990463257,0|8,0:0|0:0,0:0:0:0:
450,67,39855,2,0,P|435:33|408:8,1,74.9999952316285,0|0,0:0|0:0,0:0:0:0:
500,148,40323,2,0,P|456:148|412:180,1,74.9999952316285,0|8,0:0|0:0,0:0:0:0:
372,208,40792,1,0,0:0:0:0:
372,208,41027,2,0,P|296:224|220:200,1,149.999990463257,0|8,0:0|0:0,0:0:0:0:
180,144,41730,1,0,0:0:0:0:
156,172,41847,1,2,0:0:0:0:
144,208,41964,2,0,L|68:236,1,74.9999952316285,0|2,0:0|0:0,0:0:0:0:
36,344,42433,2,0,L|112:316,1,74.9999952316285,8|10,0:0|0:0,0:0:0:0:
180,296,42902,6,0,P|232:324|308:316,1,119.999992370606,0|8,0:0|0:0,0:0:0:0:
352,275,43605,2,0,P|365:310|364:348,1,74.9999952316285,0|0,0:0|0:0,0:0:0:0:
312,212,44073,1,0,0:0:0:0:
364,152,44308,1,10,0:0:0:0:
304,104,44542,1,8,0:0:0:0:
248,56,44777,6,0,P|196:84|128:80,1,119.999992370606,0|8,0:0|0:0,0:0:0:0:
72,120,45480,2,0,P|63:84|72:48,1,74.9999952316285,0|0,0:0|0:0,0:0:0:0:
48,192,45948,1,0,0:0:0:0:
108,236,46183,1,10,0:0:0:0:
92,308,46417,1,8,0:0:0:0:
160,340,46652,2,0,L|284:312,1,119.999992370606,0|8,0:0|0:0,0:0:0:0:
420,356,47589,6,0,P|419:280|384:208,1,149.999990463257,0|8,0:0|0:0,0:0:0:0:
388,213,48292,1,0,0:0:0:0:
392,52,48527,5,4,0:0:0:0:
332,96,48761,1,0,0:0:0:0:
304,120,48878,1,2,0:0:0:0:
272,140,48995,2,0,P|236:148|176:124,1,74.9999952316285,0|8,0:0|0:0,0:0:0:0:
32,168,49464,1,4,0:0:0:0:
152,244,49698,1,0,0:0:0:0:
184,264,49815,1,2,0:0:0:0:
220,276,49932,2,0,P|256:268|292:276,1,74.9999952316285,0|0,0:0|0:0,0:0:0:0:
336,340,50402,6,0,P|325:279|344:188,1,149.999990463257,4|8,0:0|0:0,0:0:0:0:
400,144,51105,2,0,P|368:120|316:120,1,74.9999952316285,0|0,0:0|0:0,0:0:0:0:
183,125,51573,2,0,P|224:132|256:124,1,74.9999952316285,0|8,0:0|0:0,0:0:0:0:
216,56,52042,1,2,0:0:0:0:
140,52,52277,2,0,P|112:88|112:160,2,112.499992847443,0|8|0,0:0|0:0|0:0,0:0:0:0:
60,212,53214,2,0,P|92:228|140:224,1,74.9999952316285,0|0,0:0|0:0,0:0:0:0:
262,199,53683,2,0,P|230:183|192:184,1,74.9999952316285,8|10,0:0|0:0,0:0:0:0:
312,136,54152,6,0,P|288:181|296:284,1,149.999990463257,0|8,0:0|0:0,0:0:0:0:
368,264,54855,1,0,0:0:0:0:
408,328,55089,1,0,0:0:0:0:
476,292,55323,2,0,P|484:248|476:208,1,74.9999952316285,0|8,0:0|0:0,0:0:0:0:
436,80,55792,2,0,P|428:124|436:164,1,74.9999952316285,0|0,0:0|0:0,0:0:0:0:
356,88,56261,2,0,L|272:72,1,74.9999952316285,0|8,0:0|0:0,0:0:0:0:
224,28,56730,5,0,0:0:0:0:
200,60,56847,1,2,0:0:0:0:
200,96,56964,2,0,P|168:116|120:128,1,74.9999952316285,0|2,0:0|0:0,0:0:0:0:
76,176,57433,2,0,P|60:143|61:106,1,74.9999952316285,8|10,0:0|0:0,0:0:0:0:
136,228,57902,6,0,P|196:212|260:232,1,119.999992370606,0|8,0:0|0:0,0:0:0:0:
300,284,58605,2,0,L|384:264,1,74.9999952316285,0|0,0:0|0:0,0:0:0:0:
444,288,59073,1,0,0:0:0:0:
452,252,59191,1,2,0:0:0:0:
432,220,59308,2,0,P|408:188|408:136,1,74.9999952316285,8|8,0:0|0:0,0:0:0:0:
432,80,59777,6,0,B|384:68|352:92|352:92|312:72,1,119.999992370606,0|8,0:0|0:0,0:0:0:0:
248,104,60480,1,0,0:0:0:0:
204,44,60714,1,0,0:0:0:0:
66,86,60948,2,0,P|104:92|140:84,1,74.9999952316285,0|8,0:0|0:0,0:0:0:0:
100,16,61417,1,10,0:0:0:0:
24,24,61652,6,0,P|-12:88|16:144,1,119.999992370606,0|8,0:0|0:0,0:0:0:0:
40,192,62355,1,0,0:0:0:0:
72,216,62472,1,2,0:0:0:0:
108,212,62589,2,0,P|144:204|196:208,1,74.9999952316285,0|2,0:0|0:0,0:0:0:0:
253,232,63058,2,0,P|255:195|244:160,1,74.9999952316285,0|2,0:0|0:0,0:0:0:0:
264,308,63527,6,0,L|352:288,1,74.9999952316285
372,284,63878,1,2,0:0:0:0:
408,280,63995,1,0,0:0:0:0:
467,231,64230,2,0,P|480:266|480:304,1,74.9999952316285,2|0,0:0|0:0,0:0:0:0:
476,156,64698,1,0,0:0:0:0:
440,160,64816,1,2,0:0:0:0:
408,176,64933,2,0,P|368:184|316:172,1,74.9999952316285,0|0,0:0|0:0,0:0:0:0:
308,248,65402,6,0,P|300:176|336:84,1,149.999990463257,4|8,0:0|0:0,0:0:0:0:
300,32,66105,2,0,P|264:16|220:8,1,74.9999952316285,0|0,0:0|0:0,0:0:0:0:
156,24,66573,1,0,0:0:0:0:
112,84,66808,1,8,0:0:0:0:
40,64,67042,1,0,0:0:0:0:
8,132,67277,2,0,P|-8:180|28:248,2,112.499992847443,0|8|0,0:0|0:0|0:0,0:0:0:0:
150,280,68214,2,0,L|76:284,1,74.9999952316285,0|2,0:0|0:0,0:0:0:0:
204,224,68683,2,0,P|224:268|224:296,1,74.9999952316285,8|8,0:0|0:0,0:0:0:0:
260,360,69152,6,0,B|288:348|300:312|300:312|336:316|360:296,1,119.999992370606,0|8,0:0|0:0,0:0:0:0:
428,292,69855,2,0,P|408:248|376:224,1,74.9999952316285,0|0,0:0|0:0,0:0:0:0:
272,170,70323,2,0,P|285:205|312:232,1,74.9999952316285,0|8,0:0|0:0,0:0:0:0:
256,96,70792,1,0,0:0:0:0:
220,108,70909,1,2,0:0:0:0:
200,140,71027,6,0,P|164:143|116:132,1,74.9999952316285,0|2,0:0|0:0,0:0:0:0:
52,132,71495,2,0,L|20:220,1,74.9999952316285,8|8,0:0|0:0,0:0:0:0:
72,264,71964,1,2,0:0:0:0:
144,248,72198,1,2,0:0:0:0:
180,312,72433,1,2,0:0:0:0:
252,300,72667,1,2,0:0:0:0:
308,348,72902,6,0,P|372:356|428:324,1,119.999992370606,0|8,0:0|0:0,0:0:0:0:
488,300,73605,2,0,P|464:272|424:256,1,74.9999952316285,0|0,0:0|0:0,0:0:0:0:
360,232,74073,1,0,0:0:0:0:
376,196,74191,1,2,0:0:0:0:
408,176,74308,2,0,P|396:136|404:80,1,74.9999952316285,8|8,0:0|0:0,0:0:0:0:
344,40,74777,6,0,P|287:58|216:48,1,119.999992370606,0|8,0:0|0:0,0:0:0:0:
152,52,75480,2,0,L|132:136,1,74.9999952316285,0|0,0:0|0:0,0:0:0:0:
64,152,75948,2,0,P|88:184|132:196,1,74.9999952316285,0|8,0:0|0:0,0:0:0:0:
156,200,76300,1,2,0:0:0:0:
192,188,76417,1,8,0:0:0:0:
292,120,76652,6,0,P|348:100|412:120,1,119.999992370606,0|10,0:0|0:0,0:0:0:0:
472,212,77355,2,0,P|492:200|516:172,1,37.4999976158143
472,212,77706,2,0,P|452:224|428:252,1,37.4999976158143,8|0,0:0|0:0,0:0:0:0:
472,212,78058,1,8,0:0:0:0:
104,216,78292,2,0,P|86:232|80:256,1,33.7499968242647
104,216,78644,2,0,P|122:199|128:176,1,33.7499968242647,8|0,0:0|0:0,0:0:0:0:
104,216,78995,5,8,0:0:0:0:
256,192,79230,2,0,P|241:174|219:152,1,33.7499968242647
256,192,79581,2,0,P|267:178|284:172,1,33.7499968242647,0|8,0:0|0:0,0:0:0:0:
256,192,79816,2,0,P|245:206|228:212,1,33.7499968242647,0|8,0:0|0:0,0:0:0:0:
256,56,80167,1,8,0:0:0:0:
256,324,80402,1,4,0:0:0:0:
256,192,80519,12,0,84152,0:0:0:0:
