osu file format v13

[General]
AudioFilename: Tokyo Ghoul op.mp3
AudioLeadIn: 0
PreviewTime: 55777
Countdown: 0
SampleSet: Normal
StackLeniency: 0.7
Mode: 0
LetterboxInBreaks: 0
WidescreenStoryboard: 0

[Editor]
Bookmarks: 9433,15211,27555,45418,47211,52322,57877
DistanceSpacing: 1
BeatDivisor: 4
GridSize: 4
TimelineZoom: 0.9

[Metadata]
Title:unravel (TV edit)
TitleUnicode:unravel (TV edit)
Artist:TK from Ling tosite sigure
ArtistUnicode:TK from 凛として時雨
Creator:kristi71111
Version:Easy
Source:Tokyo Ghoul
Tags:opening 東京喰種 トーキョーグール supernatural Gexigamma Kenterz Fatfan Kolek
BeatmapID:476367
BeatmapSetID:201141

[Difficulty]
HPDrainRate:1.5
CircleSize:2.4
OverallDifficulty:2
ApproachRate:3.2
SliderMultiplier:1
SliderTickRate:1

[Events]
//Background and Video events
0,0,"touka-kirishima.jpg",0,0
Video,790,"tokyghouldopening.avi"
//Break Periods
//Storyboard Layer 0 (Background)
//Storyboard Layer 1 (Fail)
//Storyboard Layer 2 (Pass)
//Storyboard Layer 3 (Foreground)
//Storyboard Sound Samples

[TimingPoints]
8889,444.444444444444,4,1,1,30,1,0
26666,-100,4,1,0,40,0,0
26777,-100,4,1,0,25,0,0
28444,-100,4,1,0,50,0,0
40888,-100,4,1,0,40,0,0
56888,-100,4,1,0,50,0,1
81777,-100,4,2,0,50,0,0
82222,-100,4,2,0,20,0,0

[Colours]
Combo1 : 152,169,146
Combo2 : 112,104,125
Combo3 : 237,183,249
Combo4 : 182,33,33

[HitObjects]
52,72,8889,6,0,P|124:32|204:60,2,150,0|2|8,0:0|0:2|2:0,2:0:0:0:
132,132,10666,1,2,2:0:0:0:
344,244,12444,6,0,P|288:312|208:312,2,150,0|2|8,0:0|0:2|2:0,2:0:0:0:
248,220,14222,1,2,2:0:0:0:
352,140,16000,6,0,P|416:152|480:124,2,100,4|2|4,0:0|2:0|0:0,0:0:0:0:
160,140,17777,2,0,P|96:152|32:124,2,100,4|2|4,0:0|2:0|0:0,0:0:0:0:
248,96,19111,1,0,2:0:0:0:
252,196,19555,6,0,P|328:268|432:252,2,200,4|2|4,3:0|2:0|3:0,0:0:0:0:
276,92,23111,6,8,L|372:44,2,100,0|0|0,1:0|0:0|1:0,2:0:0:0:
176,84,24444,1,0,2:0:0:0:
112,160,24888,2,0,B|120:216|184:244|228:240,2,150,0|0|0,1:0|2:0|1:0,0:0:0:0:
88,64,26666,6,0,P|164:44|304:64,1,200,0|0,0:0|1:0,1:0:0:0:
316,152,28000,1,0,1:0:0:0:
340,248,28444,1,4,1:0:0:0:
156,324,29333,1,0,0:0:0:0:
256,192,30222,12,0,32000,0:0:0:0:
36,136,33777,6,0,P|116:88|148:88,1,100,8|8,0:0|0:0,0:0:0:0:
212,128,34666,1,0,0:0:0:0:
276,204,35111,1,0,0:0:0:0:
348,276,35555,2,0,P|395:261|432:228,1,100,8|8,0:0|0:0,0:0:0:0:
372,148,36444,1,4,2:0:0:0:
300,80,36888,1,4,2:0:0:0:
200,60,37333,6,0,P|152:75|115:108,1,100,8|8,0:0|0:0,0:0:0:0:
164,196,38222,1,0,0:0:0:0:
220,280,38666,1,0,0:0:0:0:
312,324,39111,2,0,P|359:309|396:276,1,100,8|8,0:0|0:0,0:0:0:0:
408,176,40000,1,4,2:0:0:0:
352,96,40444,1,4,2:0:0:0:
264,52,40888,6,0,P|160:76|152:244,1,300,4|0,0:0|2:0,0:0:0:0:
228,312,42666,6,0,P|284:324|368:276,2,150,0|2|0,2:0|2:0|2:0,2:0:0:0:
276,216,44444,2,8,P|212:208|136:268,1,150,0|2,0:0|2:0,0:0:0:0:
392,288,46222,6,8,P|422:250|396:152,2,150,0|2|0,0:0|2:0|0:0,2:0:0:0:
296,316,48000,1,2,2:0:0:0:
244,124,48888,1,0,0:0:0:0:
76,232,49777,6,8,P|38:200|21:153,1,100,4|8,0:2|0:0,0:0:0:0:
120,136,50666,1,8,0:0:0:0:
220,136,51111,1,8,2:0:0:0:
272,220,51555,2,0,P|316:195|343:154,1,100,0|2,0:0|0:0,0:0:0:0:
440,128,52444,2,0,P|408:80|370:61,1,100,8|2,0:0|2:0,1:0:0:0:
272,64,53333,6,0,P|228:87|202:129,2,100,12|0|8,0:0|0:0|0:0,0:0:0:0:
296,160,54666,1,2,2:0:0:0:
220,228,55111,1,4,0:0:0:0:
420,268,56000,2,0,P|384:316|336:332,1,100,8|0,0:0|0:0,0:0:0:0:
328,232,56888,6,0,P|356:160|328:92,2,150,4|8|0,0:0|0:0|0:0,0:0:0:0:
260,160,58666,2,0,P|132:168|96:224,1,200,8|0,0:0|0:0,0:0:0:0:
124,316,60000,1,0,0:0:0:0:
220,348,60444,6,0,L|380:348,2,150,4|8|0,0:0|0:0|0:0,0:0:0:0:
186,253,62222,2,8,P|180:140|248:68,1,200,0|8,0:0|0:0,0:0:0:0:
328,48,63555,1,0,0:0:0:0:
308,148,64000,6,0,P|213:178|138:122,1,200,4|8,0:0|0:0,0:0:0:0:
39,140,65333,1,0,0:0:0:0:
50,241,65777,2,0,P|65:287|166:325,2,150,0|8|0,0:0|0:0|0:0,0:0:0:0:
148,228,67555,5,0,1:0:0:0:
332,152,68444,2,0,P|316:105|276:76,1,100,0|0,0:0|0:0,0:0:0:0:
236,168,69333,2,0,P|208:236|222:309,2,150,2|2|2,2:0|2:0|2:0,0:0:0:0:
256,68,71111,6,0,L|288:100|332:144,1,100,0|8,0:0|0:0,0:0:0:0:
248,200,72000,2,0,L|288:240|320:272,1,100,0|8,0:0|0:0,0:0:0:0:
396,208,72888,2,0,P|424:136|396:64,2,150,0|8|0,0:0|0:0|0:0,0:0:0:0:
316,136,74666,6,0,L|268:136|208:136,1,100,0|8,0:0|0:0,0:0:0:0:
116,136,75555,1,0,0:0:0:0:
140,236,76000,1,8,0:0:0:0:
240,260,76444,2,0,P|200:320|112:336,2,150,0|8|0,0:0|0:0|0:0,0:0:0:0:
140,236,78222,6,0,P|149:183|204:161,1,100,0|8,0:0|0:0,0:0:0:0:
284,116,79111,1,0,0:0:0:0:
384,116,79555,1,8,0:0:0:0:
460,184,80000,2,0,P|433:276|341:302,1,200,2|4,2:0|0:0,0:0:0:0:
148,252,81777,1,0,0:0:0:0:
256,192,82222,12,2,85222,2:2:0:0:
