osu file format v14

[General]
AudioFilename: unravel (TV edit).mp3
AudioLeadIn: 1500
PreviewTime: 54976
Countdown: 0
SampleSet: Soft
StackLeniency: 0.7
Mode: 0
LetterboxInBreaks: 1
WidescreenStoryboard: 1

[Editor]
Bookmarks: 27726
DistanceSpacing: 1.2
BeatDivisor: 4
GridSize: 4
TimelineZoom: 1

[Metadata]
Title:unravel (TV edit)
TitleUnicode:unravel (TV edit)
Artist:TK from Ling tosite sigure
ArtistUnicode:TK from 凛として時雨
Creator:Lasoki
Version:Easy
Source:東京喰種
Tags:Opening Tokyo Ghoul
BeatmapID:612913
BeatmapSetID:269215

[Difficulty]
HPDrainRate:2
CircleSize:2
OverallDifficulty:2
ApproachRate:3
SliderMultiplier:0.90000000596046
SliderTickRate:1

[Events]
//Background and Video events
Video,0,"Tokyo Ghoul Opening _AVI__AVI_.avi"
0,0,"Tokyo_Ghoul_Anime.jpg",0,0
//Break Periods
//Storyboard Layer 0 (Background)
//Storyboard Layer 1 (Fail)
//Storyboard Layer 2 (Pass)
//Storyboard Layer 3 (Foreground)
//Storyboard Sound Samples

[TimingPoints]
532,444.444444444444,4,2,1,80,1,0
532,-100,4,2,1,80,0,0
8087,-100,4,2,1,80,0,0
15198,-100,4,2,2,80,0,0
25976,-100,4,2,2,90,0,0
26309,-100,4,2,2,60,0,0
26754,-100,4,2,4,75,0,0
27087,-100,4,2,2,75,0,0
27198,-100,4,2,2,90,0,0
27643,-100,4,2,2,100,0,0
27726,-100,4,2,2,100,0,0
29420,-100,4,2,2,90,0,0
31198,-100,4,1,1,100,0,0
32532,-100,4,2,2,100,0,0
40087,-100,4,2,2,80,0,0
48976,-100,4,2,2,90,0,0
53865,-100,4,2,2,100,0,0
54309,-100,4,2,2,70,0,0
56087,-100,4,2,2,100,0,1
68087,-100,4,2,4,100,0,1
68532,-100,4,2,3,90,0,1
68754,-100,4,2,2,90,0,1
69420,-100,4,2,2,100,0,1
79198,-100,4,2,2,90,0,1
80087,-100,4,2,2,80,0,1
80976,-100,4,2,1,70,0,0
82309,-100,4,2,1,50,0,0
84087,-100,4,2,1,20,0,0
84532,-100,4,2,1,5,0,0

[Colours]
Combo1 : 137,5,165
Combo2 : 83,193,253
Combo3 : 73,6,249
Combo4 : 5,226,199

[HitObjects]
48,48,8087,5,2,0:0:0:0:
380,324,9865,2,0,P|368:216|272:144,1,225,2|0,0:0|0:0,0:0:0:0:
224,292,11643,2,0,P|116:308|96:296,1,135,2|8,0:0|0:1,0:0:0:0:
156,204,12754,1,0,0:0:0:0:
144,44,13420,2,0,P|251:66|312:157,1,225,2|0,0:0|0:0,0:0:0:0:
328,320,15198,5,2,0:0:0:0:
124,252,16087,2,0,P|68:200|64:176,1,90
64,80,16976,1,2,0:0:0:0:
280,108,17865,2,0,L|376:148,1,90
464,184,18754,1,2,0:0:0:0:
280,296,19643,2,0,P|212:288|192:272,1,90
120,200,20531,1,2,0:0:0:0:
284,60,21420,2,0,P|344:72|368:96,1,90
288,168,22309,5,2,0:0:0:0:
88,84,23198,2,0,P|76:128|88:184,1,90
184,132,24087,1,2,0:0:0:0:
316,300,24976,2,0,P|380:280|408:252,2,90,0|0|4,0:0|0:0|1:0,0:0:0:0:
208,296,26309,2,8,B|108:236|200:208|116:140,1,180
36,84,27643,1,4,1:0:0:0:
400,324,29420,6,0,L|400:224,1,90,4|0,0:0|0:0,0:0:0:0:
300,192,30309,2,0,L|300:288,1,90
200,324,31198,1,0,0:0:0:0:
140,232,31643,2,0,L|140:128,1,90
88,48,32531,5,4,0:0:0:0:
40,144,32976,2,0,P|28:196|48:240,1,90,2|0,0:0|0:0,0:0:0:0:
140,188,33865,2,0,P|152:224|136:276,2,90,2|0|2,0:0|0:0|0:0,0:0:0:0:
80,96,35198,1,0,0:0:0:0:
176,44,35643,2,0,L|276:44,1,90,6|4,0:0|0:0,0:0:0:0:
356,104,36531,6,0,P|368:152|352:204,1,90,2|0,0:0|0:0,0:0:0:0:
260,152,37420,2,0,L|168:152,2,90,2|0|2,0:0|0:0|0:0,0:0:0:0:
368,152,38754,2,0,L|420:228,1,90,0|6,0:0|0:0,0:0:0:0:
488,308,39643,1,0,0:0:0:0:
380,324,40087,1,6,0:0:0:0:
52,44,41865,6,0,P|120:52|168:108,1,135,6|2,0:0|0:0,0:0:0:0:
52,344,43643,2,0,P|117:337|164:289,1,135,2|2,0:0|0:0,0:0:0:0:
216,192,44754,1,8,0:1:0:0:
304,60,45420,2,0,L|448:104,1,135,2|2,0:0|0:0,0:0:0:0:
359,190,46531,1,8,0:1:0:0:
233,312,47198,2,0,L|61:260,1,180,2|0,0:0|0:0,0:0:0:0:
194,67,48976,6,0,L|294:67,1,90,6|2,0:0|0:0,0:0:0:0:
342,168,49865,2,0,L|246:168,1,90,2|2,0:0|0:0,0:0:0:0:
134,163,50754,2,0,P|146:227|174:251,1,90,2|2,0:0|0:0,0:0:0:0:
266,294,51643,2,0,P|238:334|190:354,1,90,2|2,0:0|0:0,0:0:0:0:
85,349,52531,1,2,0:0:0:0:
129,240,52976,1,2,0:0:0:0:
85,131,53420,2,0,P|129:119|173:131,2,90,2|10|14,0:0|0:0|0:0,0:0:0:0:
468,348,56087,6,0,L|468:256,2,90,6|0|8,0:1|0:0|0:0,0:0:0:0:
360,344,57420,1,8,0:0:0:0:
252,356,57865,2,0,P|260:296|292:264,1,90,6|0,0:0|0:0,0:0:0:0:
368,216,58754,2,0,P|408:176|416:128,1,90,8|8,0:0|0:0,0:0:0:0:
308,124,59643,6,0,P|240:120|160:200,1,180,6|8,0:0|0:0,0:0:0:0:
264,220,60976,1,8,0:0:0:0:
368,252,61420,2,0,P|309:317|222:320,1,180,6|8,0:0|0:0,0:0:0:0:
120,292,62754,5,8,0:0:0:0:
124,184,63198,2,0,L|124:88,1,90,6|0,0:0|0:0,0:0:0:0:
224,136,64087,2,0,L|276:216,2,90,8|8|6,0:0|0:0|0:0,0:0:0:0:
272,40,65420,1,0,0:0:0:0:
332,128,65865,2,0,L|416:164,2,90,8|8|6,0:0|0:0|0:0,0:0:0:0:
224,136,67198,5,0,0:0:0:0:
116,148,67643,2,0,B|164:296|288:172|272:344,1,270,8|0,0:0|0:0,0:0:0:0:
380,340,69420,2,0,L|476:340,1,90,8|8,0:0|0:0,0:0:0:0:
432,240,70309,2,0,L|444:144,1,90,2|8,0:0|0:0,0:0:0:0:
336,172,71198,1,2,0:0:0:0:
324,64,71643,5,8,0:0:0:0:
240,128,72087,2,0,L|208:40,1,90,2|8,0:0|0:0,0:0:0:0:
136,124,72976,1,2,0:0:0:0:
48,60,73420,1,8,0:0:0:0:
44,168,73865,2,0,L|108:248,1,90,2|8,0:0|0:0,0:0:0:0:
60,340,74754,1,2,0:0:0:0:
168,328,75198,6,0,L|276:304,1,90,8|2,0:0|0:0,0:0:0:0:
360,276,76087,2,0,B|375:197|437:171|437:171|413:120,1,180,8|8,0:0|0:0,0:0:0:0:
468,36,77420,2,0,B|372:4|372:68|276:36,1,180,2|0,0:0|0:0,0:0:0:0:
324,256,79198,6,0,P|276:260|236:244,1,90.000000596046,0|0,0:0|0:0,0:0:0:0:
292,152,80087,1,2,0:0:0:0:
80,112,80976,1,2,0:0:0:0:
168,172,81420,6,0,P|148:256|208:340,1,180
256,240,82754,2,0,P|352:224|412:156,1,180,2|0,0:0|0:0,0:0:0:0:
428,60,84087,1,2,0:0:0:0:
256,192,84531,12,0,85865,0:0:0:0:
