osu file format v14

[General]
AudioFilename: Unravel.mp3
AudioLeadIn: 0
PreviewTime: 55555
Countdown: 0
SampleSet: Normal
StackLeniency: 0.7
Mode: 0
LetterboxInBreaks: 1
WidescreenStoryboard: 0

[Editor]
Bookmarks: 55555
DistanceSpacing: 1.1
BeatDivisor: 4
GridSize: 8
TimelineZoom: 1.9

[Metadata]
Title:unravel (TV edit)
TitleUnicode:unravel (TV edit)
Artist:TK from Ling tosite sigure
ArtistUnicode:TK from 凛として時雨
Creator:Khora
Version:Insane
Source:東京喰種トーキョーグール
Tags:Tokyo Ghoul OP Opening Anime Necroh Necro
BeatmapID:649980
BeatmapSetID:288167

[Difficulty]
HPDrainRate:7
CircleSize:4
OverallDifficulty:7
ApproachRate:9.1
SliderMultiplier:1.6
SliderTickRate:1

[Events]
//Background and Video events
0,0,"545905.jpg",0,0
//Break Periods
2,40977,42082
//Storyboard Layer 0 (Background)
//Storyboard Layer 1 (Fail)
//Storyboard Layer 2 (Pass)
//Storyboard Layer 3 (Foreground)
//Storyboard Sound Samples

[TimingPoints]
8889,444.444444444444,4,1,1,40,1,0
8889,-90.9090909090909,4,1,1,40,0,0
12111,-71.4285714285714,4,1,1,40,0,0
12777,-90.9090909090909,4,1,1,40,0,0
15593,-76.9230769230769,4,1,1,40,0,0
16333,-71.4285714285714,4,1,1,40,0,0
19444,-83.3333333333333,4,1,1,40,0,0
21000,-142.857142857143,4,1,1,40,0,0
22666,-66.6666666666667,4,1,1,40,0,0
32000,-50,4,1,1,40,0,0
34666,-50,4,1,1,40,0,0
35555,-50,4,1,1,40,0,0
36222,-50,4,1,1,40,0,0
37313,-50,4,1,1,40,0,0
38222,-50,4,1,1,40,0,0
39000,-50,4,1,1,40,0,0
40000,-50,4,1,1,40,0,0
42555,-50,4,1,1,40,0,0
47777,-90.9090909090909,4,1,1,40,0,0
48666,-55.5555555555556,4,1,1,40,0,0
49000,-50,4,1,1,40,0,0
49674,-50,4,1,1,40,0,0
54666,-55.5555555555556,4,1,1,40,0,0
54777,-55.5555555555556,4,1,1,40,0,0
54888,-55.5555555555556,4,1,1,40,0,0
55222,-55.5555555555556,4,1,1,40,0,0
55777,-55.5555555555556,4,1,1,40,0,1
56444,-62.5,4,1,1,40,0,1
56777,-50,4,1,1,40,0,1
60111,-62.5,4,1,1,40,0,1
60333,-55.5555555555556,4,1,1,40,0,1
60709,-50,4,1,1,40,0,1
63861,-50,4,1,1,40,0,1
67222,-50,4,1,1,40,0,1
69111,-55.5555555555556,4,1,1,40,0,1
71002,-50,4,1,1,40,0,1
79863,-200,4,1,1,40,0,1
81666,-200,4,1,1,40,0,0

[Colours]
Combo1 : 192,192,192
Combo2 : 128,128,128
Combo3 : 128,0,0

[HitObjects]
152,48,8889,6,0,P|152:128|144:216,1,132.00000402832,2|0,0:0|0:0,0:0:0:0:
194,206,9333,2,0,L|240:112,1,88.000002685547,0|4,0:0|0:0,0:0:0:0:
64,176,9777,1,0,0:0:0:0:
224,160,10000,1,0,0:0:0:0:
112,272,10222,2,0,P|92:171|61:70,1,176.000005371094
64,80,10888,5,8,0:0:0:0:
48,48,11333,1,8,0:0:0:0:
32,16,11777,1,8,0:0:0:0:
240,80,12222,5,4,0:0:0:0:
144,160,12444,2,2,P|240:192|320:192,1,167.999994873047,2|0,0:0|0:0,0:0:0:0:
336,224,12888,2,0,L|272:304,1,88.000002685547
256,128,13333,1,0,0:0:0:0:
176,272,13555,1,0,0:0:0:0:
336,176,13777,2,0,P|384:256|448:320,1,176.000005371094
464,336,14444,5,8,0:0:0:0:
480,352,14888,1,8,0:0:0:0:
496,368,15333,1,8,0:0:0:0:
272,288,15777,5,4,0:0:0:0:
222,179,16000,2,0,P|158:243|62:291,1,155.999992858887
96,208,16444,2,0,P|160:265|211:332,1,167.999994873047
160,352,16888,1,0,0:0:0:0:
272,368,17111,1,0,0:0:0:0:
80,144,17555,6,0,P|160:128|264:197,1,167.999994873047
176,208,18000,2,0,P|192:144|304:64,1,167.999994873047
288,144,18444,2,0,P|208:144|96:64,1,167.999994873047
112,64,18888,1,0,0:0:0:0:
272,160,19111,1,0,0:0:0:0:
192,48,19333,1,0,0:0:0:0:
144,192,19555,2,0,P|112:272|64:320,1,143.999995605469,2|0,0:0|0:0,0:0:0:0:
48,336,20000,5,0,0:0:0:0:
16,224,20222,2,0,P|48:176|96:128,1,95.9999970703126
176,224,20666,2,0,P|272:272|368:288,1,191.999994140625
400,176,21333,1,0,0:0:0:0:
256,112,21555,5,8,0:0:0:0:
272,128,22000,1,8,0:0:0:0:
288,144,22444,1,8,0:0:0:0:
80,48,22888,5,4,0:0:0:0:
176,112,23111,2,0,P|67:182|4:255,1,180.000006866455,2|0,0:0|0:0,0:0:0:0:
0,256,23555,1,0,0:0:0:0:
160,224,23777,1,0,0:0:0:0:
32,128,24000,1,0,0:0:0:0:
64,288,24222,1,0,0:0:0:0:
144,144,24444,2,0,B|208:96|320:96,1,180.000006866455
352,112,24888,5,8,0:0:0:0:
240,16,25111,1,8,0:0:0:0:
240,16,25222,1,8,0:0:0:0:
240,16,25333,1,8,0:0:0:0:
224,160,25555,2,0,P|288:208|352:224,1,120.000004577637,0|8,0:0|0:0,0:0:0:0:
320,96,26000,1,0,0:0:0:0:
160,160,26222,1,8,0:0:0:0:
304,256,26444,1,0,0:0:0:0:
256,64,26666,2,8,P|240:48|193:36,3,60.0000022888184
160,48,27111,5,8,0:0:0:0:
112,64,27222,1,8,0:0:0:0:
72,96,27333,1,8,0:0:0:0:
40,136,27444,1,8,0:0:0:0:
40,192,27555,1,8,0:0:0:0:
64,240,27666,1,8,0:0:0:0:
104,264,27777,1,8,0:0:0:0:
152,264,27888,1,8,0:0:0:0:
200,240,28000,1,8,0:0:0:0:
248,216,28111,1,8,0:0:0:0:
296,200,28222,1,8,0:0:0:0:
344,216,28333,1,8,0:0:0:0:
384,248,28444,1,8,0:0:0:0:
304,64,29333,5,8,0:0:0:0:
160,128,29777,5,0,0:0:0:0:
256,192,30222,12,0,31777,0:0:0:0:
112,208,32000,6,0,L|208:208,1,80
320,48,32333,2,8,L|240:48,1,80
160,112,32555,2,0,L|240:112,1,80
352,288,32888,2,8,L|272:289,1,80
192,222,33111,2,0,L|272:224,1,80
400,256,33333,2,0,L|371:241,12,20
360,184,33777,5,0,0:0:0:0:
344,120,33888,1,0,0:0:0:0:
312,64,34000,1,0,0:0:0:0:
264,16,34111,1,0,0:0:0:0:
196,20,34222,2,0,B|216:52|216:52|184:60|184:60|208:92|208:92|192:108|192:108|204:128|204:128|192:152|192:152|212:172|188:172|200:188|192:220,1,240,4|0,0:0|0:0,0:0:0:0:
224,272,34666,2,8,P|270:282|325:328,1,80
352,240,34888,2,8,P|368:208|448:160,1,80
320,128,35111,2,8,P|304:96|272:64,1,80
400,32,35333,2,8,P|432:16|480:16,1,80,8|8,0:0|0:0,0:0:0:0:
496,112,35555,5,0,0:0:0:0:
480,176,35666,1,0,0:0:0:0:
432,224,35777,1,0,0:0:0:0:
368,256,35888,1,0,0:0:0:0:
304,272,36000,2,0,B|208:240|208:240|100:130,1,240,4|0,0:0|0:0,0:0:0:0:
144,48,36444,2,8,B|176:32|176:32|224:-16,1,80
336,112,36666,2,8,P|368:128|400:160,1,80
272,288,36888,2,8,B|240:320|240:320|176:336,1,80
208,80,37111,2,8,P|225:35|266:16,1,80
312,32,37333,5,0,0:0:0:0:
360,72,37444,1,0,0:0:0:0:
392,128,37555,1,0,0:0:0:0:
376,192,37666,1,0,0:0:0:0:
336,240,37777,2,4,B|315:283|338:291|338:291|345:319|345:319|375:318|375:318|367:353|367:353|392:341|392:341|390:370|390:370|412:369|412:369|411:395|411:395|427:396|427:396|437:430|437:430|437:430,1,240,4|0,0:0|0:0,0:0:0:0:
512,272,38222,2,8,B|498:228|498:228|514:164,1,80
416,144,38444,2,8,B|376:122|376:122|325:119,1,80
512,80,38666,2,8,B|495:36|495:36|514:-20,1,80
384,0,38888,2,8,B|347:-3|347:-3|287:13,1,80
256,32,39111,5,0,0:0:0:0:
248,96,39222,1,0,0:0:0:0:
296,128,39333,1,0,0:0:0:0:
360,112,39444,1,0,0:0:0:0:
400,56,39555,2,4,B|463:130|463:130|478:279,1,240
352,320,40000,2,8,L|272:384,1,80
352,176,40222,2,8,L|400:112,1,80
480,288,40444,2,8,L|464:376,1,80
272,224,40666,2,8,L|188:202,1,80
448,48,42666,5,0,0:0:0:0:
432,64,43333,1,2,0:0:0:0:
72,176,44000,5,0,2:0:0:0:
96,64,44222,1,0,2:0:0:0:
208,40,44444,1,0,2:0:0:0:
208,64,45111,1,2,0:0:0:0:
360,150,45777,5,0,2:0:0:0:
432,240,45999,1,0,2:0:0:0:
380,342,46221,1,0,2:0:0:0:
352,344,46888,1,2,0:0:0:0:
344,136,47333,1,0,0:0:0:0:
296,240,47777,1,0,0:0:0:0:
384,304,48000,1,0,0:0:0:0:
144,64,48666,5,0,0:0:0:0:
40,176,48888,2,0,L|224:208,1,143.999995605469
181,200,49222,1,0,0:0:0:0:
181,200,49333,1,0,0:0:0:0:
272,312,49555,1,0,0:0:0:0:
384,224,49777,6,8,B|368:136|368:136|312:72,1,160
240,112,50111,2,0,B|176:112|176:112|56:80,1,160
64,168,50444,2,0,B|72:208|72:208|56:296,1,80
152,256,50666,2,8,L|328:240,1,160
272,160,51000,2,0,B|288:104|288:104|392:32,1,160
456,88,51333,2,0,L|520:176,1,80
464,232,51555,6,8,B|392:264|392:264|280:232,1,160
280,160,51888,2,0,B|264:120|264:120|208:280,1,160
152,272,52222,2,0,L|40:192,1,80
96,136,52444,2,8,B|72:104|72:104|232:192,1,160
240,104,52777,2,0,B|272:40|272:40|384:0,1,160
400,80,53111,2,0,L|408:192,1,80
360,240,53333,6,0,B|296:264|296:264|248:344,1,160,8|8,0:0|0:0,0:0:0:0:
200,264,53666,2,0,B|192:216|192:216|80:160,1,160
160,96,54000,2,8,B|200:88|200:88|304:96,1,80,8|0,0:0|0:0,0:0:0:0:
288,168,54222,2,8,B|368:192|392:272|392:272|488:288,1,240,8|0,0:0|0:0,0:3:0:0:
504,240,54666,1,8,0:0:0:0:
504,184,54777,1,8,0:0:0:0:
504,128,54888,1,8,0:0:0:0:
504,72,55000,1,8,0:0:0:0:
504,16,55111,1,8,0:0:0:0:
112,72,55777,5,8,0:0:0:0:
144,64,55888,1,8,0:0:0:0:
184,64,56000,2,8,L|232:63|278:79,1,71.9999978027344,12|8,0:0|0:0,0:0:0:0:
216,152,56222,1,8,0:0:0:0:
171,157,56333,1,8,0:0:0:0:
143,176,56444,2,12,P|80:240|8:360,1,192,12|0,0:0|0:0,0:0:0:0:
96,360,56888,6,0,P|80:248|88:216,1,80
120,208,57111,2,0,P|208:184|360:192,1,240
432,144,57555,2,0,P|416:104|352:33,1,80
304,120,57777,2,0,P|264:104|144:96,1,160
88,176,58111,2,0,P|64:244|9:338,1,160
136,320,58444,2,0,P|208:272|368:256,1,240
360,152,58888,2,0,P|368:112|448:32,1,80
304,32,59111,2,0,P|264:40|208:40,1,80
152,112,59333,2,0,P|272:192|346:297,1,240
224,264,59777,6,0,P|280:160|304:128,1,80
304,144,60000,1,8,0:0:0:0:
368,136,60111,1,8,0:0:0:0:
416,184,60222,1,8,0:0:0:0:
416,248,60333,1,8,0:0:0:0:
368,296,60444,2,8,P|272:304|160:296,1,143.999995605469,10|0,0:0|0:0,0:0:0:0:
168,240,60777,2,0,P|168:184|80:56,1,160
192,40,61111,2,0,P|232:56|440:48,1,240
376,152,61555,6,0,P|256:192|128:272,1,240
240,312,62000,2,0,P|280:304|368:312,1,80
400,248,62222,2,0,P|400:176|424:80,1,160
336,56,62555,2,8,P|282:78|240:112,2,80,0|0|0,0:0|0:0|0:0,0:0:0:0:
416,104,62888,2,0,P|437:180|442:331,1,160
378,333,63222,2,0,B|284:328|284:328|162:284,1,160
163,284,63555,1,8,0:0:0:0:
152,224,63666,1,8,0:0:0:0:
200,184,63777,1,8,0:0:0:0:
264,200,63888,5,8,0:0:0:0:
320,176,64000,2,8,B|384:120|264:112|216:56,1,160,10|0,0:0|0:0,0:0:0:0:
168,136,64333,2,0,B|136:224|48:288,1,160
40,168,64666,2,0,B|104:96|192:56|248:40,1,240
272,128,65111,2,0,B|272:184|168:224|248:352,1,240
344,360,65555,2,0,B|392:344|384:264,1,80
480,248,65777,2,0,B|528:240|552:328|464:360|440:280,1,160
384,216,66111,2,0,P|312:224|184:216,1,160
144,152,66444,2,0,P|256:120|328:24,1,240
224,32,66888,2,0,P|214:150|271:294,1,240
352,280,67333,2,0,B|464:264|480:176|256:240|40:184|152:96,1,400
160,96,68000,1,0,0:0:0:0:
240,16,68222,5,8,0:0:0:0:
240,16,68333,1,8,0:0:0:0:
240,16,68444,1,8,0:0:0:0:
304,144,68666,1,0,0:0:0:0:
120,160,68888,1,10,0:0:0:0:
272,224,69111,2,0,P|304:240|351:246,1,71.9999978027344,8|0,0:0|0:0,0:0:0:0:
408,200,69333,2,0,P|376:136|400:32,1,143.999995605469
296,48,69666,2,0,B|296:96|208:80|144:168,1,143.999995605469
216,216,70000,2,0,P|344:256|448:352,1,215.999993408203
296,344,70444,2,0,P|240:336|128:288,1,143.999995605469
112,160,70888,1,0,0:0:0:0:
216,56,71111,6,0,B|272:80|336:72|336:72|384:120,1,160,8|8,0:0|0:0,0:0:0:0:
408,176,71444,2,0,B|376:216|376:216|262:253,1,160
256,152,71777,2,0,L|253:16,1,80,8|8,0:0|0:0,0:0:0:0:
152,32,72000,2,0,B|105:50|104:112|104:112|32:144,1,160,8|0,0:0|0:0,0:0:0:0:
72,240,72333,2,0,P|160:264|144:176,1,160
128,112,72666,2,0,L|264:112,1,80
248,208,72888,2,0,P|296:272|416:296,1,160
472,216,73222,2,0,L|448:8,1,160
360,24,73555,2,8,B|240:24|240:24|128:104,1,240,0|0,0:0|0:0,0:0:0:0:
216,168,74000,2,8,B|264:184|264:184|360:192,1,80,0|8,0:0|0:0,0:0:0:0:
360,192,74222,1,8,0:0:0:0:
416,224,74334,1,8,0:0:0:0:
440,288,74445,1,8,0:0:0:0:
408,344,74556,1,8,0:0:0:0:
352,368,74666,6,0,B|280:352|280:352|168:368,1,160
232,256,75000,2,0,B|288:208|288:208|344:112,1,160
240,104,75333,2,0,L|96:120,1,80
136,208,75555,2,0,B|112:280|112:280|16:360,1,160
32,232,75888,2,0,L|34:56,1,160
128,48,76222,2,0,L|264:104,1,80
176,176,76444,2,0,B|208:224|208:224|180:260|180:260|260:353,1,160
328,304,76777,2,0,L|496:304,1,160
464,200,77111,6,0,B|440:152|440:152|384:152|384:152|336:96,1,160
264,88,77444,2,0,B|176:128|176:128|136:216,1,160
128,248,77777,1,8,0:0:0:0:
144,312,77888,1,8,0:0:0:0:
200,352,78000,1,8,0:0:0:0:
264,360,78111,1,8,0:0:0:0:
320,336,78222,5,8,0:0:0:0:
240,208,78444,1,6,0:0:0:0:
408,256,78666,1,6,0:0:0:0:
208,304,78888,1,6,0:0:0:0:
352,128,79111,1,6,0:0:0:0:
376,384,79333,1,6,0:0:0:0:
216,144,79555,1,6,0:0:0:0:
464,280,79777,1,6,0:0:0:0:
176,224,80000,6,0,P|136:208|80:136,1,120
416,40,80888,6,0,P|450:66|484:151,1,120
256,192,81777,12,2,85333,0:0:0:0:
