osu file format v14

[General]
AudioFilename: Unravel.mp3
AudioLeadIn: 0
PreviewTime: 55555
Countdown: 0
SampleSet: Normal
StackLeniency: 0.7
Mode: 0
LetterboxInBreaks: 1
WidescreenStoryboard: 0

[Editor]
Bookmarks: 55555
DistanceSpacing: 1.1
BeatDivisor: 4
GridSize: 8
TimelineZoom: 0.9999996

[Metadata]
Title:unravel (TV edit)
TitleUnicode:unravel (TV edit)
Artist:TK from Ling tosite sigure
ArtistUnicode:TK from 凛として時雨
Creator:Khora
Version:Hard
Source:東京喰種トーキョーグール
Tags:Tokyo Ghoul OP Opening Anime Necroh Necro
BeatmapID:653892
BeatmapSetID:288167

[Difficulty]
HPDrainRate:5
CircleSize:3
OverallDifficulty:7
ApproachRate:8
SliderMultiplier:1.6
SliderTickRate:1

[Events]
//Background and Video events
0,0,"545905.jpg",0,0
//Break Periods
2,70755,77472
//Storyboard Layer 0 (Background)
//Storyboard Layer 1 (Fail)
//Storyboard Layer 2 (Pass)
//Storyboard Layer 3 (Foreground)
//Storyboard Sound Samples

[TimingPoints]
8889,444.444444444444,4,1,1,40,1,0
8889,-76.9230769230769,4,1,1,40,0,0
26666,-71.4285714285714,4,1,1,40,0,0
31957,-55.5555555555556,4,1,1,40,0,0
48444,-76.9230769230769,4,1,1,40,0,0
49706,-76.9230769230769,4,1,1,20,0,0
51555,-66.6666666666667,4,1,1,20,0,0
55489,-76.9230769230769,4,1,1,40,0,0
56000,-50,4,1,1,40,0,1
56444,-76.9230769230769,4,1,1,40,0,1
57666,-55.5555555555556,4,1,1,40,0,1
71111,-55.5555555555556,4,1,1,30,0,1
74555,-62.5,4,1,1,30,0,1
78111,-55.5555555555556,4,1,1,40,0,1
81777,-55.5555555555556,4,1,1,5,0,0

[Colours]
Combo1 : 192,192,192
Combo2 : 128,128,128
Combo3 : 128,0,0

[HitObjects]
400,56,8889,6,2,P|440:120|456:248,1,155.999992858887,2|0,0:0|0:0,0:0:0:0:
448,256,9333,1,0,0:0:0:0:
392,344,9555,2,0,P|344:352|264:336,1,103.999995239258
216,248,10000,1,0,0:0:0:0:
232,128,10223,2,0,P|304:96|440:80,1,207.999990478516
456,64,10888,5,8,0:0:0:0:
472,48,11333,1,8,0:0:0:0:
488,32,11777,1,8,0:0:0:0:
128,48,12222,5,4,0:0:0:0:
208,128,12444,2,0,P|160:216|80:280,1,155.999992858887,2|0,0:0|0:0,0:0:0:0:
104,312,12888,1,0,0:0:0:0:
216,368,13111,2,0,P|264:360|328:336,1,103.999995239258
392,256,13555,1,0,0:0:0:0:
312,160,13777,2,0,P|208:184|96:232,1,207.999990478516
96,240,14444,1,8,0:0:0:0:
80,256,14888,1,8,0:0:0:0:
64,272,15333,1,8,0:0:0:0:
360,72,15777,5,4,0:0:0:0:
240,88,16000,2,0,P|128:128|40:208,1,207.999990478516
136,288,16666,1,0,0:0:0:0:
232,192,16888,1,0,0:0:0:0:
360,240,17111,1,0,0:0:0:0:
80,56,17555,5,0,0:0:0:0:
240,96,18000,1,0,0:0:0:0:
104,192,18444,1,0,0:0:0:0:
272,240,18888,1,0,0:0:0:0:
336,88,19333,1,0,0:0:0:0:
408,216,19555,6,0,P|352:272|208:328,1,207.999990478516,2|0,0:0|0:0,0:0:0:0:
128,248,20222,1,0,0:0:0:0:
184,128,20444,2,0,P|280:96|344:32,1,155.999992858887
360,32,20888,1,0,0:0:0:0:
432,160,21111,2,0,P|376:256|368:288,1,103.999995239258
384,272,21555,5,8,0:0:0:0:
392,296,22000,1,8,0:0:0:0:
400,312,22444,1,8,0:0:0:0:
264,360,22888,1,4,0:0:0:0:
176,256,23111,6,0,P|264:168|336:136,1,155.999992858887,2|0,0:0|0:0,0:0:0:0:
336,136,23555,1,0,0:0:0:0:
256,56,23777,2,0,P|193:81|71:81,1,155.999992858887
64,112,24222,1,0,0:0:0:0:
144,224,24444,2,0,P|248:296|320:304,1,155.999992858887,0|0,0:3|0:3,0:3:0:0:
312,304,24888,1,0,0:0:0:0:
384,176,25111,1,8,0:0:0:0:
384,176,25222,1,8,0:0:0:0:
384,176,25333,5,8,0:0:0:0:
272,40,25555,1,0,0:0:0:0:
144,128,25777,1,8,0:0:0:0:
304,192,26000,1,0,0:0:0:0:
144,264,26222,1,8,0:0:0:0:
304,320,26444,1,0,0:0:0:0:
144,384,26666,2,8,P|120:376|88:352,3,55.9999982910157
80,296,27111,6,8,P|80:272|96:240,3,55.9999982910157
136,200,27555,2,8,P|168:200|224:192,3,55.9999982910157
248,192,28000,1,8,0:0:0:0:
80,40,28444,5,8,0:0:0:0:
464,144,29333,5,8,0:0:0:0:
464,312,29777,1,0,0:0:0:0:
256,192,30222,12,2,31555,0:0:0:0:
48,72,32000,6,8,P|88:64|160:64,1,71.9999978027344
192,160,32333,2,8,P|238:156|288:144,1,71.9999978027344
328,208,32555,2,0,P|374:204|424:192,1,71.9999978027344
224,328,32888,2,8,P|192:320|136:320,1,71.9999978027344
112,240,33111,2,8,P|71:234|32:232,1,71.9999978027344
72,144,33333,2,0,B|88:104|88:104|120:120|120:120|128:88|128:88|152:96|152:96|176:80|176:80|288:56,1,215.999993408203,2|0,0:0|0:0,0:0:0:0:
336,88,33777,6,0,L|416:192,3,71.9999978027344
240,96,34222,2,0,B|256:152|256:152|216:128|224:168|224:168|208:192|208:192|208:232|208:232|176:272,1,215.999993408203,2|0,0:0|0:0,0:0:0:0:
288,304,34666,2,8,P|336:304|400:280,1,71.9999978027344
440,224,34888,2,8,P|448:184|440:144,1,71.9999978027344
376,72,35111,2,8,P|344:56|296:40,1,71.9999978027344
200,64,35333,2,8,P|168:80|144:112,1,71.9999978027344
128,208,35555,2,0,B|120:232|120:232|88:272,3,71.9999978027344
160,336,36000,6,0,B|212:360|212:360|220:310|220:310|263:327|263:327|285:308|285:308|333:308|333:308|349:305,1,215.999993408203,2|0,0:0|0:0,0:0:0:0:
392,224,36444,2,8,P|422:200|456:160,1,71.9999978027344
344,120,36666,2,8,P|313:101|256:80,1,71.9999978027344
208,160,36888,2,8,P|168:168|128:192,1,71.9999978027344
184,272,37111,2,8,P|160:304|144:336,1,71.9999978027344
288,312,37333,2,0,L|360:288,3,71.9999978027344
464,216,37777,6,0,B|432:187|432:187|482:162|482:162|461:137|461:137|490:105|490:105|494:58,1,215.999993408203,2|0,0:0|0:0,0:0:0:0:
320,80,38222,2,0,L|408:160,1,71.9999978027344
264,208,38444,2,0,L|192:264,1,71.9999978027344
376,256,38666,2,0,L|456:296,1,71.9999978027344
296,344,38888,2,0,L|208:360,1,71.9999978027344
136,320,39111,2,0,P|104:312|48:272,3,71.9999978027344
88,192,39555,6,0,B|144:160|144:160|232:240|304:184,1,215.999993408203,2|0,0:0|0:0,0:0:0:0:
352,136,40000,2,8,B|384:112|384:112|416:64,1,71.9999978027344
272,64,40222,2,8,L|224:120,1,71.9999978027344
336,208,40444,2,8,B|384:224|384:224|424:256,1,71.9999978027344
248,272,40666,2,8,L|160:280,1,71.9999978027344
96,56,42666,5,0,0:0:0:0:
120,80,43333,1,2,0:0:0:0:
480,184,44000,5,0,0:0:0:0:
376,224,44222,1,0,0:0:0:0:
408,328,44444,1,0,0:0:0:0:
432,328,45111,1,2,0:0:0:0:
264,272,45777,5,0,0:0:0:0:
176,360,46000,1,0,0:0:0:0:
72,296,46222,5,0,0:0:0:0:
104,264,46888,1,2,0:0:0:0:
88,128,47333,1,0,0:0:0:0:
208,176,47777,1,0,0:0:0:0:
208,296,48000,5,0,0:0:0:0:
104,48,48666,6,0,B|160:96|160:96|56:160|128:288,1,259.999988098145
152,312,49333,1,2,0:0:0:0:
280,368,49555,1,0,0:0:0:0:
384,272,49777,5,8,0:0:0:0:
384,272,49888,1,8,0:0:0:0:
384,272,50000,1,8,0:0:0:0:
288,216,50222,1,8,0:0:0:0:
288,216,50333,1,8,0:0:0:0:
288,216,50445,1,8,0:0:0:0:
416,168,50666,1,8,0:0:0:0:
416,168,50777,1,8,0:0:0:0:
416,168,50889,1,8,0:0:0:0:
240,136,51111,1,8,0:0:0:0:
240,136,51222,1,8,0:0:0:0:
240,136,51333,1,8,0:0:0:0:
392,96,51555,6,0,P|456:47|504:34,1,120.000004577637
320,200,52000,2,0,P|288:150|198:82,1,120.000004577637
416,264,52444,2,0,P|456:200|498:165,1,120.000004577637
293,328,52888,2,0,P|256:272|216:216,1,120.000004577637
456,336,53333,5,4,0:0:0:0:
288,168,53777,1,4,0:0:0:0:
512,208,54222,1,4,0:0:0:0:
264,344,54666,2,8,L|184:312,3,60.0000022888184
152,256,55111,1,10,0:0:0:0:
224,72,56000,6,0,P|176:176|80:272,1,240,2|0,0:0|0:0,0:0:0:0:
184,312,56444,2,0,B|240:296|288:336|384:304,1,155.999992858887,2|0,0:0|0:0,0:0:0:0:
392,288,56888,1,0,0:0:0:0:
296,176,57111,1,8,0:0:0:0:
296,176,57222,1,8,0:0:0:0:
296,176,57333,1,8,0:0:0:0:
448,120,57555,1,8,0:0:0:0:
328,72,57777,2,0,P|259:136|176:192,1,143.999995605469,2|0,0:0|0:0,0:0:0:0:
208,248,58111,6,0,P|328:264|400:304,1,143.999995605469
440,232,58444,2,0,P|432:168|480:48,1,143.999995605469
312,64,58888,1,8,0:0:0:0:
184,80,59111,1,8,0:0:0:0:
136,208,59333,1,8,0:0:0:0:
131,225,59444,1,8,0:0:0:0:
135,248,59555,5,8,0:0:0:0:
272,328,59777,1,8,0:0:0:0:
208,144,60000,1,8,0:0:0:0:
352,272,60222,1,8,0:0:0:0:
288,96,60444,2,0,P|408:96|512:160,1,215.999993408203,2|0,0:0|0:0,0:0:0:0:
512,224,60888,1,0,0:0:0:0:
376,296,61111,2,0,P|288:256|160:232,1,215.999993408203
176,144,61555,2,0,P|280:120|400:72,1,215.999993408203
424,128,62000,5,0,0:0:0:0:
352,280,62222,2,0,P|280:296|144:304,1,143.999995605469
256,216,62555,2,0,P|329:196|415:197,1,143.999995605469
464,136,62888,2,0,B|448:80|448:80|408:112|408:112|392:72|392:72|344:72|344:72|304:40|304:40|280:32,1,215.999993408203
232,64,63333,2,0,B|208:120|208:120|168:184|96:208,1,143.999995605469
104,304,63777,1,4,0:0:0:0:
248,288,64000,2,0,B|272:240|272:240|320:192|416:208,1,143.999995605469
440,152,64333,2,0,B|385:116|385:116|341:69|301:-6,1,143.999995605469
272,120,64666,2,0,B|224:128|224:128|168:168|136:208,1,143.999995605469
192,280,65000,2,0,L|480:280,1,287.999991210938
416,184,65555,6,0,B|377:173|377:173|337:136,1,71.9999978027344
288,72,65777,2,0,P|160:96|216:176,1,215.999993408203,2|0,0:0|0:0,0:0:0:0:
192,224,66222,2,0,B|176:248|176:248|104:288,1,71.9999978027344
72,208,66444,2,0,B|96:152|96:152|0:48|88:16,1,215.999993408203
168,48,66888,2,0,B|248:72|248:72|416:72,1,215.999993408203
424,160,67333,2,0,B|460:266|204:26|66:235,1,359.999989013672
88,272,68000,5,0,0:0:0:0:
248,320,68222,1,8,0:0:0:0:
248,320,68333,1,8,0:0:0:0:
248,320,68444,1,8,0:0:0:0:
192,168,68666,1,8,0:0:0:0:
336,240,68888,1,8,0:0:0:0:
288,136,69111,2,0,P|240:88|176:56,1,71.9999978027344
128,128,69333,2,0,P|96:200|16:280,1,143.999995605469
184,256,69666,2,0,P|237:310|298:343,1,143.999995605469
360,248,70000,2,0,L|368:176|376:104,1,143.999995605469
264,56,70333,2,0,B|184:88|184:88|128:152,1,143.999995605469
192,96,78222,5,12,0:0:0:0:
248,264,78444,1,12,0:0:0:0:
368,152,78666,1,12,0:0:0:0:
152,184,78888,1,12,0:0:0:0:
344,256,79111,1,12,0:0:0:0:
272,88,79333,1,12,0:0:0:0:
216,280,79555,1,12,0:0:0:0:
368,152,79777,1,12,0:0:0:0:
152,184,80000,1,12,0:0:0:0:
400,384,80888,5,0,0:0:0:0:
256,192,81777,12,2,85333,0:0:0:0:
