osu file format v13

[General]
AudioFilename: Unravel.mp3
AudioLeadIn: 0
PreviewTime: 56709
Countdown: 0
SampleSet: Soft
StackLeniency: 0.7
Mode: 0
LetterboxInBreaks: 1
WidescreenStoryboard: 1

[Editor]
Bookmarks: 8654,15765,28210,29988,31765,33543,40654,49543,56654,69988,70877,77988
DistanceSpacing: 0.5
BeatDivisor: 4
GridSize: 4
TimelineZoom: 2.400001

[Metadata]
Title:unravel (TV edit)
TitleUnicode:unravel (TV edit)
Artist:TK from Ling tosite sigure
ArtistUnicode:TK from 凛として時雨
Creator:Irreversible
Version:Solved
Source:
Tags:
BeatmapID:461295
BeatmapSetID:192277

[Difficulty]
HPDrainRate:7.5
CircleSize:4.5
OverallDifficulty:7.3
ApproachRate:8.1
SliderMultiplier:1.76
SliderTickRate:1

[Events]
//Background and Video events
0,0,"kaneki.jpg",0,0
Video,0,"video (1).avi"
//Break Periods
2,33686,41531
//Storyboard Layer 0 (Background)
//Storyboard Layer 1 (Fail)
//Storyboard Layer 2 (Pass)
//Storyboard Layer 3 (Foreground)
//Storyboard Sound Samples
//Background Colour Transformations
3,100,163,162,255

[TimingPoints]
8709,444.444444444444,4,2,1,70,1,0
8709,-200,4,2,1,70,0,0
10486,-133.333333333333,4,2,1,70,0,0
12264,-200,4,2,1,70,0,0
22042,-133.333333333333,4,2,1,70,0,0
22931,-200,4,2,1,70,0,0
26486,-83.3333333333333,4,2,1,70,0,0
28265,-90.9090909090909,4,2,1,70,0,0
33153,-133.333333333333,4,2,1,70,0,0
33597,-100,4,2,1,70,0,1
42265,-133.333333333333,4,2,1,70,0,0
48487,-133.333333333333,4,2,1,70,0,0
49598,-100,4,2,1,70,0,0
56709,-100,4,2,1,70,0,1
69987,-100,4,2,1,70,0,0
70043,-100,4,2,1,70,0,1
70876,-100,4,2,1,70,0,0
70932,-100,4,2,1,70,0,1
77932,-100,4,2,1,70,0,0
78043,-100,4,2,1,70,0,1
79820,-100,4,2,1,70,0,0

[Colours]
Combo1 : 147,88,148
Combo2 : 210,210,210
Combo3 : 254,101,101

[HitObjects]
51,250,8486,5,0,0:0:0:0:
126,296,8709,2,0,P|168:305|210:281,1,88
267,227,9376,2,0,L|369:231,1,88
435,252,10042,1,0,0:0:0:0:
478,156,10264,1,0,0:0:0:0:
472,141,10375,1,0,0:0:0:0:
464,123,10486,6,0,P|409:112|381:122,1,66.0000025177003
303,193,10931,2,0,P|355:213|384:208,1,66.0000025177003
273,87,11375,2,0,P|220:105|201:128,1,66.0000025177003
161,262,11820,2,0,P|202:223|210:195,1,66.0000025177003
75,230,12264,6,0,P|69:269|89:325,1,88,0|0,0:0|0:0,0:0:0:0:
206,216,12931,2,0,P|212:177|192:121,1,88,0|0,0:0|0:0,0:0:0:0:
74,230,13597,2,0,L|132:222,1,44
206,216,13931,1,0,0:0:0:0:
207,216,14042,2,0,L|214:186,3,22,0|0|0|0,0:0|0:0|0:0|0:0,0:0:0:0:
56,295,15597,5,0,0:0:0:0:
130,334,15820,2,0,L|228:324,1,88
366,307,16708,2,0,P|381:333|388:365,1,44
290,276,17153,1,0,0:0:0:0:
381,194,17375,6,0,L|475:208,2,88,0|0|0,0:0|0:0|0:0,0:0:0:0:
266,106,18708,1,0,0:0:0:0:
200,142,18931,2,0,L|159:150,1,22
116,114,19153,2,0,L|83:104,1,22
33,147,19375,5,0,0:0:0:0:
316,327,20042,1,0,0:0:0:0:
377,279,20264,2,0,P|388:237|369:189,1,88
266,232,20931,1,0,0:0:0:0:
292,237,21042,1,0,0:0:0:0:
316,241,21153,5,0,0:0:0:0:
451,196,21486,1,0,0:0:0:0:
349,108,21820,1,0,0:0:0:0:
452,40,22042,2,0,P|441:94|408:140,2,99.0000037765504,0|0|0,0:0|0:0|0:0,0:0:0:0:
450,196,22931,5,0,0:0:0:0:
270,317,23375,1,0,0:0:0:0:
224,264,23597,2,0,P|275:246|308:259,1,88,0|0,0:0|0:0,0:0:0:0:
270,317,24264,1,0,0:0:0:0:
67,327,24708,5,0,0:0:0:0:
54,98,26264,1,0,0:0:0:0:
54,98,26486,5,0,0:0:0:0:
78,89,26597,1,0,0:0:0:0:
104,85,26708,1,0,0:0:0:0:
130,89,26819,1,0,0:0:0:0:
155,99,26930,1,0,0:0:0:0:
179,108,27041,1,0,0:0:0:0:
206,112,27152,1,0,0:0:0:0:
232,108,27263,1,0,0:0:0:0:
257,97,27375,6,0,P|257:67|277:28,1,52.7999983886719,0|0,0:0|0:0,0:0:0:0:
346,163,27597,2,0,P|342:188|330:212,1,52.7999983886719
275,169,27820,2,0,L|222:175,1,52.7999983886719,0|0,0:0|0:0,0:0:0:0:
331,79,28042,2,0,L|384:73,1,52.7999983886719,0|0,0:0|0:0,0:0:0:0:
420,135,28264,5,0,0:0:0:0:
420,135,28394,2,0,L|464:235,1,96.8000029541017
332,79,28820,1,0,0:0:0:0:
332,79,28931,1,0,0:0:0:0:
216,196,29153,1,0,0:0:0:0:
216,196,29264,2,0,L|83:205,1,96.8000029541017
49,212,29597,6,0,P|61:161|74:153,1,48.4000014770508
216,196,29820,2,0,P|204:247|191:255,1,48.4000014770508
121,202,30042,5,0,0:0:0:0:
121,202,30153,1,0,0:0:0:0:
336,130,30375,1,0,0:0:0:0:
336,130,30486,1,0,0:0:0:0:
209,243,30708,1,0,0:0:0:0:
372,299,30931,1,0,0:0:0:0:
372,299,31042,1,0,0:0:0:0:
372,299,31153,6,0,B|378:269|362:250|362:250|394:229|394:229|391:193|391:193|425:166|414:101,1,193.600005908203
382,64,31820,2,0,P|363:54|321:57,1,48.4000014770508
189,165,32153,2,0,P|137:180|84:159,1,96.8000029541017
89,154,32486,1,0,0:0:0:0:
324,292,32708,2,0,L|398:303,1,48.4000014770508
435,256,32931,2,0,L|452:301,1,48.4000014770508
367,222,33153,2,0,L|333:113,1,99.0000037765504
80,116,42265,5,0,0:0:0:0:
192,200,42487,2,0,P|143:194|92:234,1,99.0000037765504
176,364,43154,1,0,0:0:0:0:
428,340,43821,1,0,0:0:0:0:
452,196,44043,1,0,0:0:0:0:
264,280,44265,2,0,P|212:284|156:268,2,99.0000037765504,0|0|0,0:0|0:0|0:0,0:0:0:0:
380,48,45821,1,0,0:0:0:0:
320,160,46043,2,0,B|312:140|320:112|320:112|300:96|296:56,1,99.0000037765504
448,156,46709,1,0,0:0:0:0:
320,272,47154,1,0,0:0:0:0:
276,104,47598,1,0,0:0:0:0:
400,208,47821,2,0,P|372:148|408:94,1,132.000005035401
320,160,48487,6,0,B|276:188|238:167|238:167|196:144|152:176|152:176|168:236|112:268,1,264.000010070801
56,136,49598,5,0,0:0:0:0:
148,280,49821,2,0,L|80:292,2,44,0|0|0,0:0|0:0|0:0,0:0:0:0:
236,208,50265,1,0,0:0:0:0:
344,312,50487,1,0,0:0:0:0:
344,312,50598,1,0,0:0:0:0:
344,312,50709,2,0,L|356:368,2,44,0|0|0,0:0|0:0|0:0,0:0:0:0:
432,192,51154,1,0,0:0:0:0:
174,178,51376,6,0,P|206:146|262:150,1,88
236,208,51709,1,0,0:0:0:0:
58,294,51932,1,0,0:0:0:0:
58,294,52043,1,0,0:0:0:0:
344,312,52265,2,0,L|228:336,1,88
196,308,52598,1,0,0:0:0:0:
232,136,52821,1,0,0:0:0:0:
232,136,52932,1,0,0:0:0:0:
476,136,53154,2,0,P|500:212|476:248,1,88
432,192,53487,2,0,B|380:200|380:200|364:192|364:192|288:204,1,132
196,308,54043,1,0,0:0:0:0:
112,112,54265,1,0,0:0:0:0:
352,112,54487,1,0,0:0:0:0:
324,128,54598,1,0,0:0:0:0:
296,144,54709,1,0,0:0:0:0:
268,156,54821,1,0,0:0:0:0:
240,168,54932,5,0,0:0:0:0:
