osu file format v13

[General]
AudioFilename: Unravel.mp3
AudioLeadIn: 0
PreviewTime: 56709
Countdown: 0
SampleSet: Soft
StackLeniency: 0.7
Mode: 0
LetterboxInBreaks: 1
WidescreenStoryboard: 1

[Editor]
Bookmarks: 8654,15765,28210,29988,31765,33543,40654,49543,56654,69988,70877,77988
DistanceSpacing: 1
BeatDivisor: 4
GridSize: 4
TimelineZoom: 1.700001

[Metadata]
Title:unravel (TV edit)
TitleUnicode:unravel (TV edit)
Artist:TK from Ling tosite sigure
ArtistUnicode:TK from 凛として時雨
Creator:Irreversible
Version:Normal
Source:
Tags:
BeatmapID:457343
BeatmapSetID:192277

[Difficulty]
HPDrainRate:3.9
CircleSize:3.3
OverallDifficulty:4.1
ApproachRate:4
SliderMultiplier:1.15
SliderTickRate:1

[Events]
//Background and Video events
0,0,"kaneki.jpg",0,0
Video,0,"video (1).avi"
//Break Periods
//Storyboard Layer 0 (Background)
//Storyboard Layer 1 (Fail)
//Storyboard Layer 2 (Pass)
//Storyboard Layer 3 (Foreground)
//Storyboard Sound Samples
//Background Colour Transformations
3,100,163,162,255

[TimingPoints]
8710,444.444444444444,4,2,1,70,1,0
56709,-100,4,2,1,70,0,1
69987,-100,4,2,1,70,0,0
70043,-100,4,2,1,70,0,1
70876,-100,4,2,1,70,0,0
70932,-100,4,2,1,70,0,1
77932,-100,4,2,1,70,0,0
78043,-100,4,2,1,70,0,1
79820,-100,4,2,1,70,0,0

[Colours]
Combo1 : 147,88,148
Combo2 : 210,210,210
Combo3 : 254,101,101

[HitObjects]
96,252,8487,5,0,0:0:0:0:
96,252,8709,6,0,B|116:196|116:196|92:124,1,115
84,112,9376,2,0,L|264:136,1,172.5
313,234,10487,2,0,P|364:168|360:84,2,172.5,0|0|0,0:0|0:0|0:0,0:0:0:0:
256,136,12265,6,0,L|120:116,1,115
108,112,12932,2,0,P|96:176|192:224,1,172.5
256,136,14043,6,0,L|256:36,2,86.25,0|0|0,0:0|0:0|0:0,0:0:0:0:
276,164,14932,2,0,L|276:250,2,86.25,0|0|0,0:0|0:0|0:0,0:0:0:0:
308,148,15820,2,0,L|432:136,1,115
500,224,16709,2,0,L|432:232,1,57.5
368,320,17376,6,0,P|332:296|244:304,1,115
148,272,18265,2,0,P|91:275|42:247,1,115
48,132,19154,1,0,0:0:0:0:
48,132,19376,1,0,0:0:0:0:
192,40,20043,1,0,0:0:0:0:
192,40,20265,6,0,B|328:56|328:56|272:76,1,172.5
44,252,22709,1,0,0:0:0:0:
44,252,22932,6,0,L|168:268,1,115
192,272,23598,2,0,B|232:300|232:300|212:220|284:180,1,172.5
348,272,24709,2,0,B|380:292|432:276|432:276|480:264|524:304,2,172.5,0|0|0,0:0|0:0|0:0,0:0:0:0:
256,192,26487,12,0,28265,0:0:0:0:
24,224,29154,6,0,L|148:240,1,115
247,273,30043,6,0,B|261:298|245:322|226:346|251:376,2,86.25,0|0|0,0:0|0:0|0:0,0:0:0:0:
263,241,30932,2,0,B|248:215|264:191|283:167|258:137,2,86.25,0|0|0,0:0|0:0|0:0,0:0:0:0:
287,265,31820,6,0,B|355:261|355:261|371:273|371:273|481:266,1,172.5
487,281,32709,2,0,B|491:213|491:213|479:197|479:197|486:87,1,172.5
497,80,33598,6,0,L|374:70,1,115
315,163,34487,2,0,B|289:145|282:119|282:119|247:126|211:97,1,115,0|0,0:0|0:0,0:0:0:0:
267,0,35376,5,0,0:0:0:0:
416,175,36265,1,0,0:0:0:0:
416,175,36709,1,0,0:0:0:0:
348,268,37154,6,0,L|225:258,1,115
153,176,38043,2,0,B|126:195|120:221|120:221|85:214|64:232,1,115,0|0,0:0|0:0,0:0:0:0:
72,347,38932,2,0,B|99:328|105:302|105:302|140:309|161:290,1,115,0|0,0:0|0:0,0:0:0:0:
153,176,39820,1,0,0:0:0:0:
256,228,40265,1,0,0:0:0:0:
357,176,40709,5,0,0:0:0:0:
357,176,42265,1,0,0:0:0:0:
333,150,42487,6,0,P|234:116|171:164,1,172.5
124,309,43820,1,0,0:0:0:0:
228,358,44265,2,0,L|400:324,1,172.5
450,100,45820,1,0,0:0:0:0:
450,100,46043,2,0,L|344:121,2,86.25,0|0|0,0:0|0:0|0:0,0:0:0:0:
362,24,47154,2,0,L|228:49,1,115
34,226,49598,6,0,P|40:281|93:313,1,115,0|0,0:0|0:0,0:0:0:0:
201,305,50487,2,0,P|195:250|142:218,1,115,0|0,0:0|0:0,0:0:0:0:
87,313,51376,5,0,0:0:0:0:
200,306,51820,1,0,0:0:0:0:
300,362,52265,5,0,0:0:0:0:
343,255,52709,1,0,0:0:0:0:
379,146,53154,5,0,0:0:0:0:
151,180,54043,2,0,P|98:175|47:127,2,115,0|0|0,0:0|0:0|0:0,0:0:0:0:
76,308,56709,6,0,P|132:340|188:324,1,115
256,244,57598,2,0,L|384:252,1,115
404,240,58265,2,0,P|424:292|412:364,2,115,0|0|0,0:0|0:0|0:0,0:0:0:0:
328,152,59598,1,0,0:0:0:0:
256,244,60043,1,0,0:0:0:0:
256,244,60265,6,0,L|120:232,1,115
108,228,60932,2,0,B|92:200|120:172|120:172|140:148|120:100,1,115
84,16,61820,1,0,0:0:0:0:
84,16,62043,2,0,L|220:32,1,115
232,32,62709,2,0,B|272:20|272:20|344:76,1,115
420,136,63598,1,0,0:0:0:0:
420,136,63820,6,0,P|428:204|336:268,2,172.5,0|0|0,0:0|0:0|0:0,0:0:0:0:
328,64,65598,1,0,0:0:0:0:
216,92,66043,2,0,L|140:84,1,57.5
44,72,66709,1,0,0:0:0:0:
84,180,67154,2,0,B|92:208|116:224|116:224|36:244|36:328,1,172.5
112,384,68265,6,0,P|166:395|275:264,2,230,0|0|0,0:0|0:0|0:0,0:0:0:0:
160,280,70487,1,0,0:0:0:0:
160,280,70932,6,0,L|144:160,1,115
248,112,71820,2,0,L|263:225,1,115,0|0,0:0|0:0,0:0:0:0:
292,244,72487,1,0,0:0:0:0:
320,260,72709,1,0,0:0:0:0:
424,308,73154,1,0,0:0:0:0:
416,192,73598,1,0,0:0:0:0:
408,76,74043,1,0,0:0:0:0:
408,76,74265,1,0,0:0:0:0:
408,76,74487,6,0,P|356:52|304:76,1,115
240,168,75376,2,0,P|189:191|138:170,1,115
116,144,76043,1,0,0:0:0:0:
112,108,76265,1,0,0:0:0:0:
220,68,76709,1,0,0:0:0:0:
328,32,77154,1,0,0:0:0:0:
360,44,77376,1,0,0:0:0:0:
384,68,77598,1,0,0:0:0:0:
396,100,77820,1,0,0:0:0:0:
392,136,78043,6,0,L|320:156,1,57.5
280,208,78487,1,0,0:0:0:0:
280,208,78709,1,0,0:0:0:0:
204,192,78932,2,0,L|136:208,3,57.5,0|0|0|0,0:0|0:0|0:0|0:0,0:0:0:0:
116,212,79820,6,0,P|79:190|138:48,1,230,0|0,0:0|0:0,0:0:0:0:
348,128,81598,6,0,L|472:112,1,115,0|0,0:0|0:0,0:0:0:0:
420,220,82487,2,0,L|305:234,1,115
189,175,83376,2,0,P|279:231|244:332,1,230
132,304,84709,1,0,0:0:0:0:
132,304,84932,2,0,L|84:312,1,28.75
