osu file format v13

[General]
AudioFilename: Unravel.mp3
AudioLeadIn: 0
PreviewTime: 56709
Countdown: 0
SampleSet: Soft
StackLeniency: 0.7
Mode: 0
LetterboxInBreaks: 1
WidescreenStoryboard: 1

[Editor]
Bookmarks: 8654,15765,28210,29988,31765,33543,40654,49543,56654,69988,70877,77988
DistanceSpacing: 0.5
BeatDivisor: 4
GridSize: 4
TimelineZoom: 1.700001

[Metadata]
Title:unravel (TV edit)
TitleUnicode:unravel (TV edit)
Artist:TK from Ling tosite sigure
ArtistUnicode:TK from 凛として時雨
Creator:Irreversible
Version:Insane
Source:
Tags:
BeatmapID:461286
BeatmapSetID:192277

[Difficulty]
HPDrainRate:7
CircleSize:4
OverallDifficulty:7
ApproachRate:8
SliderMultiplier:1.6
SliderTickRate:1

[Events]
//Background and Video events
0,0,"kaneki.jpg",0,0
Video,0,"video (1).avi"
//Break Periods
//Storyboard Layer 0 (Background)
//Storyboard Layer 1 (Fail)
//Storyboard Layer 2 (Pass)
//Storyboard Layer 3 (Foreground)
//Storyboard Sound Samples
//Background Colour Transformations
3,100,163,162,255

[TimingPoints]
8710,444.444444444444,4,2,1,70,1,0
8710,-133.333333333333,4,2,1,70,0,0
10376,-133.333333333333,4,2,1,5,0,0
10487,-133.333333333333,4,2,1,70,0,0
28265,-90.9090909090909,4,2,1,70,0,0
48487,-133.333333333333,4,2,1,70,0,0
49598,-100,4,2,1,70,0,0
56709,-100,4,2,1,70,0,1
69987,-100,4,2,1,70,0,0
70043,-100,4,2,1,70,0,1
70876,-100,4,2,1,70,0,0
70932,-100,4,2,1,70,0,1
77932,-100,4,2,1,70,0,0
78043,-100,4,2,1,70,0,1
79820,-100,4,2,1,70,0,0

[Colours]
Combo1 : 147,88,148
Combo2 : 210,210,210
Combo3 : 254,101,101

[HitObjects]
68,56,8487,5,0,0:0:0:0:
68,56,8710,2,0,P|100:128|80:184,1,120.000004577637
76,188,9376,2,0,L|92:324,1,120.000004577637
94,336,10043,2,0,B|134:332|134:332|194:352,1,90.0000034332277
192,352,10487,6,0,P|228:356|260:348,1,60.0000022888184
324,248,10932,2,0,P|289:238|256:241,1,60.0000022888184,0|0,0:0|0:0,0:0:0:0:
380,356,11376,2,0,P|414:343|439:322,1,60.0000022888184
476,160,11821,2,0,P|446:181|428:209,1,60.0000022888184,0|0,0:0|0:0,0:0:0:0:
240,272,12265,6,0,L|96:260,1,120.000004577637
216,192,12932,2,0,L|335:201,1,120.000004577637
396,144,13598,1,0,0:0:0:0:
196,24,13821,1,0,0:0:0:0:
192,40,13932,1,0,0:0:0:0:
188,56,14043,6,0,P|140:64|88:64,2,90.0000034332277,0|0|0,0:0|0:0|0:0,0:0:0:0:
340,68,14932,2,0,P|388:60|440:60,2,90.0000034332277,0|0|0,0:0|0:0|0:0,0:0:0:0:
188,56,15821,5,0,0:0:0:0:
336,220,16265,2,0,L|340:268,2,30.0000011444092,0|0|0,0:0|0:0|0:0,0:0:0:0:
336,220,16709,1,0,0:0:0:0:
232,164,16932,2,0,B|186:176|186:176|158:168|158:168|102:184,1,120.000004577637,0|0,0:0|0:0,0:0:0:0:
300,300,17598,6,0,P|368:304|416:252,1,120.000004577637
372,144,18265,2,0,P|304:140|256:192,1,120.000004577637
336,224,19154,5,0,0:0:0:0:
288,52,19376,1,0,0:0:0:0:
288,52,20043,1,0,0:0:0:0:
232,176,20265,2,0,L|92:160,1,120.000004577637
28,216,20932,1,0,0:0:0:0:
32,240,21043,1,0,0:0:0:0:
36,264,21154,5,0,0:0:0:0:
176,68,21821,1,0,0:0:0:0:
232,176,22043,2,0,L|300:98,2,90.0000034332277,0|0|0,0:0|0:0|0:0,0:0:0:0:
196,264,22932,6,0,P|224:296|300:296,1,120.000004577637
392,144,23598,2,0,P|350:152|312:218,1,120.000004577637
440,348,24265,1,0,0:0:0:0:
436,328,24376,1,0,0:0:0:0:
430,309,24487,1,0,0:0:0:0:
425,292,24598,1,0,0:0:0:0:
420,273,24709,5,0,0:0:0:0:
60,68,26265,1,0,0:0:0:0:
20,240,26487,5,0,0:0:0:0:
28,228,26598,1,0,0:0:0:0:
36,216,26709,1,0,0:0:0:0:
44,204,26821,1,0,0:0:0:0:
53,191,26932,5,0,0:0:0:0:
80,192,27043,1,0,0:0:0:0:
112,188,27154,1,0,0:0:0:0:
144,200,27265,1,0,0:0:0:0:
176,184,27376,6,0,L|224:172,1,30.0000011444092
264,240,27598,2,0,L|312:248,1,30.0000011444092
332,152,27821,2,0,L|368:128,1,30.0000011444092
408,252,28043,2,0,L|444:280,1,30.0000011444092
472,164,28265,1,0,0:0:0:0:
472,164,28376,2,0,P|484:116|464:68,2,88.000002685547,0|0|0,0:0|0:0|0:0,0:0:0:0:
472,164,28932,1,0,0:0:0:0:
252,108,29154,1,0,0:0:0:0:
252,108,29265,2,0,P|240:156|260:204,1,88.000002685547,0|0,0:0|0:0,0:0:0:0:
332,152,29598,6,0,L|216:136,1,88.000002685547
164,128,29932,1,0,0:0:0:0:
164,128,30043,1,0,0:0:0:0:
