osu file format v13

[General]
AudioFilename: Unravel.mp3
AudioLeadIn: 0
PreviewTime: 56709
Countdown: 0
SampleSet: Soft
StackLeniency: 0.7
Mode: 0
LetterboxInBreaks: 1
WidescreenStoryboard: 1

[Editor]
Bookmarks: 8654,15765,28210,29988,31765,33543,40654,49543,56654,69988,70877,77988
DistanceSpacing: 1
BeatDivisor: 16
GridSize: 4
TimelineZoom: 1.700001

[Metadata]
Title:unravel (TV edit)
TitleUnicode:unravel (TV edit)
Artist:TK from Ling tosite sigure
ArtistUnicode:TK from 凛として時雨
Creator:Irreversible
Version:Easy
Source:
Tags:
BeatmapID:457339
BeatmapSetID:192277

[Difficulty]
HPDrainRate:2.5
CircleSize:3
OverallDifficulty:2
ApproachRate:2
SliderMultiplier:0.919999999999999
SliderTickRate:1

[Events]
//Background and Video events
0,0,"kaneki.jpg",0,0
Video,0,"video (1).avi"
//Break Periods
//Storyboard Layer 0 (Background)
//Storyboard Layer 1 (Fail)
//Storyboard Layer 2 (Pass)
//Storyboard Layer 3 (Foreground)
//Storyboard Sound Samples
//Background Colour Transformations
3,100,163,162,255

[TimingPoints]
8709.85194371444,444.444444444444,4,2,1,70,1,0
56709,-100,4,2,1,70,0,1
69987,-100,4,2,1,70,0,0
70043,-100,4,2,1,70,0,1
70876,-100,4,2,1,70,0,0
70932,-100,4,2,1,70,0,1
77932,-100,4,2,1,70,0,0
78043,-100,4,2,1,70,0,1
79820,-100,4,2,1,70,0,0

[Colours]
Combo1 : 147,88,148
Combo2 : 210,210,210
Combo3 : 254,101,101

[HitObjects]
32,296,8709,6,0,B|84:284|114:325|114:325|165:278|231:306|231:306|260:244,1,276
244,164,10487,2,0,P|176:159|119:219,2,138,0|0|0,0:0|0:0|0:0,0:0:0:0:
308,96,12265,2,0,B|337:123|335:166|335:166|352:124|408:121|408:121|432:64|506:65,1,276
496,156,14043,2,0,L|464:292,2,138,0|0|0,0:0|0:0|0:0,0:0:0:0:
492,64,15820,5,0,0:0:0:0:
324,136,16709,1,0,0:0:0:0:
144,92,17598,2,0,P|104:136|144:256,1,184
216,280,18932,1,0,0:0:0:0:
256,360,19376,5,0,0:0:0:0:
420,276,20265,2,0,B|440:136|440:136|400:176,1,184
68,304,22932,6,0,B|96:270|66:229|66:229|127:234|139:172|139:172|200:200|236:159,1,276
184,88,24709,2,0,L|48:32,2,138,0|0|0,0:0|0:0|0:0,0:0:0:0:
256,192,26487,12,0,28265,0:0:0:0:
60,76,29154,6,0,L|156:84,1,91.9999999999999
244,72,30043,6,0,B|253:98|241:121|241:121|232:139|243:173,1,91.9999999999999
328,188,30932,2,0,B|327:216|307:233|307:233|293:246|290:283,1,91.9999999999999
244,348,31820,6,0,B|192:332|192:332|156:348|156:348|56:316,1,184
20,244,33154,1,0,0:0:0:0:
80,176,33598,6,0,B|184:212,2,91.9999999999999,0|0|0,0:0|0:0|0:0,0:0:0:0:
260,204,35376,2,0,B|224:308,2,91.9999999999999,0|0|0,0:0|0:0|0:0,0:0:0:0:
316,28,37154,2,0,B|420:64,2,91.9999999999999,0|0|0,0:0|0:0|0:0,0:0:0:0:
496,56,38932,2,0,B|460:160,2,91.9999999999999,0|0|0,0:0|0:0|0:0,0:0:0:0:
432,228,40709,5,0,0:0:0:0:
224,60,42487,6,0,L|84:68,1,138
0,176,43820,1,0,0:0:0:0:
52,252,44265,2,0,P|116:276|184:248,1,138
340,88,46043,6,0,P|403:64|466:88,1,138,0|0,0:0|0:0,0:0:0:0:
444,316,47820,1,0,0:0:0:0:
96,200,49598,6,0,L|108:96,1,91.9999999999999
192,144,50487,2,0,L|181:235,1,91.9999999999999
228,316,51376,6,0,P|272:344|328:332,1,91.9999999999999
376,276,52265,2,0,P|332:248|276:260,1,91.9999999999999,0|0,0:0|0:0,0:0:0:0:
228,316,53154,1,0,0:0:0:0:
196,136,54043,1,0,0:0:0:0:
288,148,54487,2,0,L|352:132,2,46,0|0|0,0:0|0:0|0:0,0:0:0:0:
228,317,55820,5,0,0:0:0:0:
228,317,56265,1,0,0:0:0:0:
228,317,56709,6,0,L|44:280,1,184,0|0,0:0|0:0,0:0:0:0:
12,196,58043,1,0,0:0:0:0:
80,136,58487,2,0,B|128:120|164:156|164:156|204:196|260:168,1,184
320,112,59820,1,0,0:0:0:0:
400,160,60265,6,0,L|356:312,2,138,0|0|0,0:0|0:0|0:0,0:0:0:0:
392,68,62043,2,0,P|336:28|264:48,2,138,0|0|0,0:0|0:0|0:0,0:0:0:0:
400,160,63820,5,0,0:0:0:0:
256,276,64709,1,0,0:0:0:0:
164,268,65154,1,0,0:0:0:0:
72,252,65598,6,0,B|48:196|48:196|104:72,2,184,0|0|0,0:0|0:0|0:0,0:0:0:0:
440,256,69154,2,0,L|420:108,2,138,0|0|0,0:0|0:0|0:0,0:0:0:0:
388,332,70932,6,0,P|344:336|296:312,1,91.9999999999999
240,248,71820,2,0,P|198:228|153:232,1,91.9999999999999
76,284,72709,5,0,0:0:0:0:
160,324,73154,1,0,0:0:0:0:
152,232,73598,1,0,0:0:0:0:
144,140,74043,1,0,0:0:0:0:
132,48,74487,6,0,P|188:56|212:88,1,91.9999999999999
300,88,75376,2,0,P|290:143|313:176,1,91.9999999999999
388,216,76265,1,0,0:0:0:0:
388,124,76709,1,0,0:0:0:0:
308,172,77154,1,0,0:0:0:0:
232,224,77598,1,0,0:0:0:0:
156,276,78043,6,0,L|140:332,2,46,0|0|0,0:0|0:0|0:0,0:0:0:0:
124,244,78709,2,0,L|140:188,2,46,0|0|0,0:0|0:0|0:0,0:0:0:0:
80,252,79376,2,0,L|67:296,2,46,0|0|0,0:0|0:0|0:0,0:0:0:0:
256,60,81598,6,0,P|312:56|348:84,1,91.9999999999999
364,164,82487,2,0,P|308:168|272:140,1,91.9999999999999
256,60,83376,5,0,0:0:0:0:
432,108,84265,2,0,L|360:276,1,161
