osu file format v13

[General]
AudioFilename: 04. unravel (TV edit).mp3
AudioLeadIn: 0
PreviewTime: -1
Countdown: 1
SampleSet: Normal
StackLeniency: 0.7
Mode: 1
LetterboxInBreaks: 1
WidescreenStoryboard: 1

[Editor]
DistanceSpacing: 0.8
BeatDivisor: 4
GridSize: 8
TimelineZoom: 3.299999

[Metadata]
Title:Unravel (TV edit)
TitleUnicode:Unravel (TV edit)
Artist:TK from Ling Tosite Sigure
ArtistUnicode:TK from 凛として時雨
Creator:CARRI
Version:Carri´s Oni
Source:
Tags:
BeatmapID:489945
BeatmapSetID:208010

[Difficulty]
HPDrainRate:5
CircleSize:5
OverallDifficulty:5
ApproachRate:5
SliderMultiplier:1.4
SliderTickRate:1

[Events]
//Background and Video events
0,0,"tokyo-ghoul-anime-kaneki-1920x1080.jpg",0,0
Video,0,"tokyoopening.avi"
//Break Periods
//Storyboard Layer 0 (Background)
//Storyboard Layer 1 (Fail)
//Storyboard Layer 2 (Pass)
//Storyboard Layer 3 (Foreground)
//Storyboard Sound Samples
//Background Colour Transformations
3,100,163,162,255

[TimingPoints]
8158,444.444444444444,4,1,0,100,1,0
26381,-90.9090909090909,4,1,0,100,0,0
26603,-83.3333333333333,4,1,0,100,0,0
26825,-76.9230769230769,4,1,0,100,0,0
27047,-71.4285714285714,4,1,0,100,0,0
27158,-66.6666666666667,4,1,0,100,0,0
27270,-62.5,4,1,0,100,0,0
27714,222.222222222222,4,1,0,100,1,0
27714,-133.333333333333,4,1,0,100,0,0
29491,-133.333333333333,4,1,0,100,0,0
40158,444.444444444444,4,1,0,100,1,0
48824,-66.6666666666667,4,1,0,100,0,0
49713,-62.5,4,1,0,100,0,0
50602,-58.8235294117647,4,1,0,100,0,0
51491,-55.5555555555556,4,1,0,100,0,0
52380,-52.6315789473684,4,1,0,100,0,0
53264,-50,4,1,0,100,0,0
55046,444.444444444444,4,1,0,100,1,0
56157,-76.9230769230769,4,1,0,100,0,0
70157,-62.5,4,1,0,100,0,0
81379,-76.9230769230769,4,1,0,100,0,0

[HitObjects]
208,184,8157,5,0,0:0:0:0:
336,336,8602,1,0,0:0:0:0:
320,312,8713,1,0,0:0:0:0:
296,296,8824,1,2,0:0:0:0:
376,320,9269,1,0,0:0:0:0:
360,312,9491,1,2,0:0:0:0:
272,240,9713,1,0,0:0:0:0:
192,208,9935,1,0,0:0:0:0:
208,184,10269,1,2,0:0:0:0:
208,184,10602,1,2,0:0:0:0:
208,184,10935,1,0,0:0:0:0:
256,248,11269,1,2,0:0:0:0:
288,296,11491,1,0,0:0:0:0:
344,296,11713,1,2,0:0:0:0:
240,240,12158,1,0,0:0:0:0:
208,232,12269,1,0,0:0:0:0:
352,264,12380,1,2,0:0:0:0:
304,368,12824,1,0,0:0:0:0:
328,320,13047,1,0,0:0:0:0:
296,272,13269,1,2,0:0:0:0:
192,216,13491,1,0,0:0:0:0:
128,160,13824,1,2,0:0:0:0:
192,216,14158,1,2,0:0:0:0:
104,144,14602,1,2,0:0:0:0:
168,200,14824,1,0,0:0:0:0:
216,232,15047,1,0,0:0:0:0:
264,264,15269,1,2,0:0:0:0:
288,280,15380,1,0,0:0:0:0:
304,296,15491,1,2,0:0:0:0:
336,344,15713,1,0,0:0:0:0:
344,352,15935,1,0,0:0:0:0:
304,312,16158,1,0,0:0:0:0:
288,304,16269,1,2,0:0:0:0:
256,288,16380,1,0,0:0:0:0:
224,224,16713,1,0,0:0:0:0:
176,200,16824,1,2,0:0:0:0:
224,224,16935,1,2,0:0:0:0:
232,248,17046,1,0,0:0:0:0:
224,224,17269,1,0,0:0:0:0:
224,224,17713,1,2,0:0:0:0:
224,224,18158,1,0,0:0:0:0:
288,272,18491,1,2,0:0:0:0:
280,320,18602,1,0,0:0:0:0:
296,344,18713,1,0,0:0:0:0:
296,344,18824,1,2,0:0:0:0:
392,216,19491,1,0,0:0:0:0:
344,280,19713,1,2,0:0:0:0:
240,248,20158,1,0,0:0:0:0:
264,256,20269,1,2,0:0:0:0:
184,232,20380,1,0,0:0:0:0:
208,240,20491,1,0,0:0:0:0:
232,256,20602,1,2,0:0:0:0:
280,296,20824,1,2,0:0:0:0:
304,312,20935,1,0,0:0:0:0:
328,328,21157,1,0,0:0:0:0:
304,312,21269,1,2,0:0:0:0:
344,216,21713,1,0,0:0:0:0:
360,296,22046,1,2,0:0:0:0:
264,312,22158,1,0,0:0:0:0:
360,296,22269,1,0,0:0:0:0:
272,288,22380,1,2,0:0:0:0:
304,304,22491,1,0,0:0:0:0:
328,320,22602,1,0,0:0:0:0:
352,328,22713,1,2,0:0:0:0:
168,240,22824,1,0,0:0:0:0:
272,288,23047,1,2,0:0:0:0:
272,176,23491,1,2,0:0:0:0:
272,232,23713,1,0,0:0:0:0:
352,328,23824,1,0,0:0:0:0:
352,328,23935,1,2,0:0:0:0:
352,328,24046,1,2,0:0:0:0:
336,328,24158,1,0,0:0:0:0:
320,304,24269,1,2,0:0:0:0:
296,288,24380,1,0,0:0:0:0:
344,256,24602,1,2,0:0:0:0:
296,288,24824,1,2,0:0:0:0:
336,360,25269,1,2,0:0:0:0:
304,248,25713,1,0,0:0:0:0:
320,272,25824,1,2,0:0:0:0:
304,248,25935,1,2,0:0:0:0:
360,344,26380,1,0,0:0:0:0:
312,312,26602,1,2,0:0:0:0:
328,240,26824,1,2,0:0:0:0:
320,272,27047,1,0,0:0:0:0:
336,320,27158,1,0,0:0:0:0:
312,312,27269,1,2,0:0:0:0:
336,320,27380,1,0,0:0:0:0:
360,336,27491,1,0,0:0:0:0:
312,304,27714,1,2,0:0:0:0:
176,192,27825,1,0,0:0:0:0:
176,192,27936,1,0,0:0:0:0:
288,256,28047,1,0,0:0:0:0:
256,216,28269,1,0,0:0:0:0:
280,168,28380,1,2,0:0:0:0:
360,336,28491,1,0,0:0:0:0:
344,304,28602,1,0,0:0:0:0:
176,192,28714,1,2,0:0:0:0:
200,272,28936,1,0,0:0:0:0:
360,336,29047,1,2,0:0:0:0:
328,296,29158,1,2,0:0:0:0:
328,296,29269,1,0,0:0:0:0:
328,296,29380,1,0,0:0:0:0:
304,280,29491,1,2,0:0:0:0:
312,304,29713,1,0,0:0:0:0:
336,320,29825,1,2,0:0:0:0:
264,240,30047,1,2,0:0:0:0:
240,224,30158,1,0,0:0:0:0:
240,160,30380,1,2,0:0:0:0:
360,336,30602,1,2,0:0:0:0:
360,336,30713,1,0,0:0:0:0:
344,360,30936,1,0,0:0:0:0:
344,360,31047,1,2,0:0:0:0:
280,304,31269,1,0,0:0:0:0:
272,288,31380,1,0,0:0:0:0:
352,320,31491,1,2,0:0:0:0:
328,288,31602,1,0,0:0:0:0:
264,280,31713,1,2,0:0:0:0:
232,240,31825,1,2,0:0:0:0:
272,248,31936,1,0,0:0:0:0:
320,272,32047,1,0,0:0:0:0:
288,248,32158,1,2,0:0:0:0:
320,272,32269,1,2,0:0:0:0:
296,312,32380,1,0,0:0:0:0:
248,280,32491,5,0,0:0:0:0:
232,224,32602,1,0,0:0:0:0:
232,224,32713,1,2,0:0:0:0:
192,152,32825,1,2,0:0:0:0:
248,216,33047,1,2,0:0:0:0:
152,248,33158,1,0,0:0:0:0:
152,248,33269,1,2,0:0:0:0:
336,320,33380,1,0,0:0:0:0:
192,152,33491,1,2,0:0:0:0:
352,360,33602,1,0,0:0:0:0:
256,264,33713,1,0,0:0:0:0:
256,264,33825,1,2,0:0:0:0:
288,288,33936,1,0,0:0:0:0:
128,192,34047,1,0,0:0:0:0:
152,192,34158,1,0,0:0:0:0:
320,312,34269,1,2,0:0:0:0:
320,312,34380,1,0,0:0:0:0:
320,312,34491,1,2,0:0:0:0:
440,256,34602,1,0,0:0:0:0:
312,280,34825,1,2,0:0:0:0:
304,264,34936,1,0,0:0:0:0:
288,248,35047,1,2,0:0:0:0:
336,320,35158,1,0,0:0:0:0:
352,360,35269,1,0,0:0:0:0:
152,192,35380,1,2,0:0:0:0:
304,296,35491,1,0,0:0:0:0:
280,264,35602,1,0,0:0:0:0:
256,232,35713,1,2,0:0:0:0:
232,200,35825,1,0,0:0:0:0:
208,168,35936,1,2,0:0:0:0:
200,144,36047,1,0,0:0:0:0:
224,176,36158,1,2,0:0:0:0:
256,208,36269,1,0,0:0:0:0:
312,280,36602,1,2,0:0:0:0:
304,264,36713,1,0,0:0:0:0:
224,232,36825,1,0,0:0:0:0:
336,320,36936,1,2,0:0:0:0:
352,360,37047,1,0,0:0:0:0:
320,328,37158,1,0,0:0:0:0:
256,264,37269,1,0,0:0:0:0:
288,288,37380,1,2,0:0:0:0:
128,192,37491,1,0,0:0:0:0:
152,192,37602,1,0,0:0:0:0:
320,312,37713,1,2,0:0:0:0:
320,312,37824,1,0,0:0:0:0:
320,312,37935,1,2,0:0:0:0:
440,256,38046,1,0,0:0:0:0:
312,280,38157,1,2,0:0:0:0:
312,280,38380,1,0,0:0:0:0:
304,264,38491,1,2,0:0:0:0:
288,248,38602,1,0,0:0:0:0:
336,320,38713,1,2,0:0:0:0:
320,312,38825,1,0,0:0:0:0:
352,360,38936,1,2,0:0:0:0:
256,264,39046,1,0,0:0:0:0:
264,224,39158,1,2,0:0:0:0:
288,288,39269,1,0,0:0:0:0:
128,192,39380,1,0,0:0:0:0:
152,192,39491,1,0,0:0:0:0:
320,312,39602,1,2,0:0:0:0:
320,312,39713,1,0,0:0:0:0:
320,312,39824,1,2,0:0:0:0:
440,256,39935,1,0,0:0:0:0:
312,280,40046,1,0,0:0:0:0:
152,192,40158,1,4,0:0:0:0:
208,208,40380,1,0,0:0:0:0:
232,216,40491,1,2,0:0:0:0:
232,216,40602,1,2,0:0:0:0:
320,312,40824,1,0,0:0:0:0:
320,312,41046,1,2,0:0:0:0:
320,312,41158,1,0,0:0:0:0:
328,344,41380,1,0,0:0:0:0:
328,344,41491,1,2,0:0:0:0:
328,344,41713,1,0,0:0:0:0:
256,256,41935,5,6,0:0:0:0:
328,344,42380,1,0,0:0:0:0:
296,296,42602,1,0,0:0:0:0:
144,232,43269,1,2,0:0:0:0:
192,264,43491,1,0,0:0:0:0:
368,376,43713,1,0,0:0:0:0:
328,336,43935,1,2,0:0:0:0:
312,312,44046,1,0,0:0:0:0:
328,344,44157,1,2,0:0:0:0:
296,296,44380,1,0,0:0:0:0:
336,320,45269,1,0,0:0:0:0:
320,296,45380,1,0,0:0:0:0:
368,336,45491,1,2,0:0:0:0:
336,320,45713,1,0,0:0:0:0:
336,320,46157,1,2,0:0:0:0:
248,240,46602,1,2,0:0:0:0:
360,264,47046,1,0,0:0:0:0:
336,320,47157,1,0,0:0:0:0:
368,336,47269,1,0,0:0:0:0:
248,232,47861,1,2,0:0:0:0:
280,264,47935,1,2,0:0:0:0:
280,264,48009,1,2,0:0:0:0:
280,264,48083,1,2,0:0:0:0:
264,256,48157,1,0,0:0:0:0:
304,288,48824,1,0,0:0:0:0:
336,280,49046,1,2,0:0:0:0:
288,248,49269,1,0,0:0:0:0:
304,288,49380,1,0,0:0:0:0:
336,280,49491,1,0,0:0:0:0:
192,160,49713,1,0,0:0:0:0:
256,224,49935,1,2,0:0:0:0:
296,272,50157,1,0,0:0:0:0:
320,288,50269,1,0,0:0:0:0:
344,312,50380,1,0,0:0:0:0:
80,160,50602,1,2,0:0:0:0:
360,328,50825,1,0,0:0:0:0:
336,280,51046,1,2,0:0:0:0:
336,280,51157,1,2,0:0:0:0:
336,280,51269,1,2,0:0:0:0:
336,368,51491,1,0,0:0:0:0:
352,312,51713,1,0,0:0:0:0:
336,280,51935,1,2,0:0:0:0:
336,280,52046,1,2,0:0:0:0:
336,280,52157,1,2,0:0:0:0:
192,192,52380,1,0,0:0:0:0:
360,328,52602,1,2,0:0:0:0:
352,312,52824,1,0,0:0:0:0:
352,312,52935,1,2,0:0:0:0:
352,312,53046,1,0,0:0:0:0:
192,216,53269,1,0,0:0:0:0:
240,248,53491,1,0,0:0:0:0:
336,312,53713,1,2,0:0:0:0:
336,312,53824,1,0,0:0:0:0:
352,312,53935,1,0,0:0:0:0:
328,336,54046,1,2,0:0:0:0:
328,336,54157,1,0,0:0:0:0:
192,216,54269,1,2,0:0:0:0:
336,312,54380,1,4,0:0:0:0:
144,112,55046,1,0,0:0:0:0:
232,184,55268,1,2,0:0:0:0:
208,192,55379,1,0,0:0:0:0:
184,200,55490,1,0,0:0:0:0:
336,312,55712,1,2,0:0:0:0:
336,296,56157,1,4,0:0:0:0:
280,280,56490,1,0,0:0:0:0:
336,280,56823,1,2,0:0:0:0:
312,264,56934,1,0,0:0:0:0:
288,256,57046,1,0,0:0:0:0:
288,256,57379,1,0,0:0:0:0:
256,176,57712,1,2,0:0:0:0:
120,224,58157,1,2,0:0:0:0:
336,280,58268,1,0,0:0:0:0:
336,280,58379,1,0,0:0:0:0:
216,256,58601,1,0,0:0:0:0:
96,168,59045,1,2,0:0:0:0:
224,240,59490,1,0,0:0:0:0:
272,200,59601,1,2,0:0:0:0:
216,256,59712,1,0,0:0:0:0:
280,280,59934,1,0,0:0:0:0:
424,312,60379,1,2,0:0:0:0:
248,352,60823,1,0,0:0:0:0:
272,248,61268,1,2,0:0:0:0:
296,272,61379,1,0,0:0:0:0:
208,216,61490,1,2,0:0:0:0:
264,264,61824,1,0,0:0:0:0:
120,240,62157,1,2,0:0:0:0:
160,248,62268,1,2,0:0:0:0:
192,232,62379,1,0,0:0:0:0:
240,288,62602,1,0,0:0:0:0:
328,184,63045,1,2,0:0:0:0:
208,208,63157,1,2,0:0:0:0:
360,344,63268,1,0,0:0:0:0:
360,344,63601,1,0,0:0:0:0:
280,272,63934,1,0,0:0:0:0:
312,288,64045,1,0,0:0:0:0:
280,272,64157,1,2,0:0:0:0:
280,288,64379,1,2,0:0:0:0:
344,368,64823,1,0,0:0:0:0:
344,368,64934,1,2,0:0:0:0:
336,328,65045,1,0,0:0:0:0:
352,344,65490,1,0,0:0:0:0:
352,344,65712,1,2,0:0:0:0:
352,344,66157,1,0,0:0:0:0:
272,224,66601,1,0,0:0:0:0:
248,192,66712,1,2,0:0:0:0:
360,352,66824,5,2,0:0:0:0:
152,200,67490,1,0,0:0:0:0:
120,176,67601,1,2,0:0:0:0:
120,176,67712,1,2,0:0:0:0:
96,184,68379,1,2,0:0:0:0:
96,184,68490,1,2,0:0:0:0:
360,352,68601,1,0,0:0:0:0:
288,224,68934,1,2,0:0:0:0:
144,192,69269,1,0,0:0:0:0:
280,152,69712,1,0,0:0:0:0:
136,152,70157,1,0,0:0:0:0:
360,352,70268,1,0,0:0:0:0:
336,328,70379,1,2,0:0:0:0:
320,312,70490,1,2,0:0:0:0:
304,288,70601,1,0,0:0:0:0:
144,192,70712,1,2,0:0:0:0:
168,152,70823,1,0,0:0:0:0:
360,352,71045,1,0,0:0:0:0:
304,280,71268,1,2,0:0:0:0:
336,328,71379,1,2,0:0:0:0:
336,328,71490,1,0,0:0:0:0:
296,296,71601,1,2,0:0:0:0:
336,344,71712,1,0,0:0:0:0:
256,264,71934,1,2,0:0:0:0:
184,208,72157,1,0,0:0:0:0:
336,344,72379,1,2,0:0:0:0:
312,312,72490,1,0,0:0:0:0:
288,280,72601,1,2,0:0:0:0:
352,360,72823,1,0,0:0:0:0:
224,208,73045,1,0,0:0:0:0:
200,240,73157,1,0,0:0:0:0:
352,360,73268,1,2,0:0:0:0:
256,272,73490,1,0,0:0:0:0:
248,224,73601,1,0,0:0:0:0:
176,232,73712,1,2,0:0:0:0:
392,304,73934,1,2,0:0:0:0:
312,312,74045,1,2,0:0:0:0:
320,312,74157,1,0,0:0:0:0:
312,312,74379,1,0,0:0:0:0:
312,312,74601,1,2,0:0:0:0:
312,312,74823,1,0,0:0:0:0:
336,344,75045,1,2,0:0:0:0:
304,320,75157,1,2,0:0:0:0:
272,296,75268,1,0,0:0:0:0:
336,344,75490,1,0,0:0:0:0:
336,344,75712,1,2,0:0:0:0:
272,280,75934,1,0,0:0:0:0:
312,312,76157,1,2,0:0:0:0:
312,312,76268,1,0,0:0:0:0:
336,344,76379,1,2,0:0:0:0:
336,344,76601,1,0,0:0:0:0:
320,272,76823,1,2,0:0:0:0:
328,304,76934,1,2,0:0:0:0:
328,304,77045,1,2,0:0:0:0:
280,280,77157,1,0,0:0:0:0:
248,264,77268,1,0,0:0:0:0:
248,232,77379,1,2,0:0:0:0:
352,328,77490,5,0,0:0:0:0:
280,280,77712,1,0,0:0:0:0:
352,376,77934,1,2,0:0:0:0:
336,344,78157,1,2,0:0:0:0:
336,344,78379,1,0,0:0:0:0:
328,376,78490,1,0,0:0:0:0:
336,344,78601,1,2,0:0:0:0:
328,304,78823,1,0,0:0:0:0:
328,304,79045,1,0,0:0:0:0:
328,304,79157,1,2,0:0:0:0:
328,304,79268,1,0,0:0:0:0:
288,288,79379,1,2,0:0:0:0:
336,344,79490,1,0,0:0:0:0:
296,272,79712,1,2,0:0:0:0:
216,288,79823,1,0,0:0:0:0:
328,304,79934,1,2,0:0:0:0:
288,280,80045,1,0,0:0:0:0:
248,264,80157,1,0,0:0:0:0:
328,304,80379,1,2,0:0:0:0:
208,224,80823,1,0,0:0:0:0:
352,328,80934,1,0,0:0:0:0:
320,304,81045,1,2,0:0:0:0:
248,256,81268,1,2,0:0:0:0:
168,208,81379,1,0,0:0:0:0:
216,208,81490,1,2,0:0:0:0:
304,304,81712,1,0,0:0:0:0:
336,336,81823,1,2,0:0:0:0:
280,272,82045,1,0,0:0:0:0:
248,240,82157,1,2,0:0:0:0:
352,328,82379,1,0,0:0:0:0:
352,328,82601,1,2,0:0:0:0:
320,248,82823,1,2,0:0:0:0:
352,336,82934,1,0,0:0:0:0:
280,288,83157,1,2,0:0:0:0:
240,264,83268,1,0,0:0:0:0:
352,328,83490,1,0,0:0:0:0:
352,328,83601,1,2,0:0:0:0:
272,224,83934,1,0,0:0:0:0:
352,328,84157,1,2,0:0:0:0:
312,304,84268,1,2,0:0:0:0:
352,328,84379,1,0,0:0:0:0:
312,296,84490,1,2,0:0:0:0:
