osu file format v13

[General]
AudioFilename: TK - Unravel.mp3
AudioLeadIn: 0
PreviewTime: 54893
Countdown: 0
SampleSet: Normal
StackLeniency: 0.7
Mode: 0
LetterboxInBreaks: 1
SkinPreference:Luminance- Fluorescence
WidescreenStoryboard: 0

[Editor]
Bookmarks: 27893,42115,67004,70560,81226
DistanceSpacing: 1.2
BeatDivisor: 4
GridSize: 8
TimelineZoom: 1.8

[Metadata]
Title:Unravel (TV Edit)
TitleUnicode:Unravel (TV Edit)
Artist:TK from Ling Tosite Sigure
ArtistUnicode:TK from Ling Tosite Sigure
Creator:Floofle
Version:Normal
Source:東京喰種-トーキョーグール-
Tags:tokyo ghoul opening anime
BeatmapID:512071
BeatmapSetID:218188

[Difficulty]
HPDrainRate:5
CircleSize:3.5
OverallDifficulty:5
ApproachRate:5
SliderMultiplier:1.4
SliderTickRate:1

[Events]
//Background and Video events
Video,0,"TK - Unravel.avi"
0,0,"Tokyo-Ghoul-Best-Wallpaper.jpg",0,0
//Break Periods
//Storyboard Layer 0 (Background)
//Storyboard Layer 1 (Fail)
//Storyboard Layer 2 (Pass)
//Storyboard Layer 3 (Foreground)
//Storyboard Sound Samples

[TimingPoints]
8338,444.444444444444,4,3,0,60,1,0
8560,-133.333333333333,4,3,0,25,0,0
9671,-200,4,3,0,25,0,0
10560,-133.333333333333,4,3,0,25,0,0
11893,-133.333333333333,4,3,0,60,0,0
12337,-133.333333333333,4,3,0,25,0,0
13226,-166.666666666667,4,3,0,25,0,0
14115,-133.333333333333,4,3,0,25,0,0
15449,-133.333333333333,4,3,0,60,0,0
15671,-133.333333333333,4,3,0,25,0,0
19004,-133.333333333333,4,3,0,60,0,0
19337,-133.333333333333,4,3,0,25,0,0
20782,-133.333333333333,4,3,0,60,0,0
22337,-133.333333333333,4,3,0,25,0,0
22560,-133.333333333333,4,3,0,60,0,0
23004,-133.333333333333,4,3,0,25,0,0
26115,-100,4,3,0,60,0,0
27449,-200,4,3,0,60,0,0
27893,-100,4,3,0,60,0,0
31449,-100,4,1,0,60,0,0
33226,-100,4,3,0,60,0,1
40337,-100,4,3,0,60,0,0
42115,-100,4,1,1,40,0,0
49226,-100,4,1,1,40,0,0
54115,-100,4,1,1,25,0,0
54560,-100,4,1,1,40,0,0
56337,-100,4,1,1,75,0,1
67004,-200,4,1,1,95,0,0
67893,-100,4,1,1,75,0,0
70560,-100,4,1,1,75,0,1
81226,-100,4,1,1,75,0,0

[Colours]
Combo1 : 255,255,255
Combo2 : 0,120,191

[HitObjects]
72,176,8337,6,0,B|136:160|168:192|216:160,1,140,4|0,0:0|0:0,0:0:0:0:
264,96,9004,2,0,L|264:43,2,52.5000020027161,0|0|0,0:0|0:0|0:0,0:0:0:0:
344,128,9671,2,0,B|384:168|384:168|376:216|389:251,1,140,0|0,0:0|0:0,0:0:0:0:
416,240,11671,5,0,0:0:0:0:
344,280,11893,2,0,B|296:280|248:272|216:248,1,105.000004005432,4|0,0:0|0:0,0:0:0:0:
208,188,12560,2,0,P|152:180|80:196,1,105.000004005432
48,248,13226,2,0,B|32:320|32:320|80:304|128:328,1,167.999994873047
112,92,15226,1,0,0:0:0:0:
160,160,15449,2,0,P|176:240|176:280,1,105.000004005432,4|0,0:0|0:0,0:0:0:0:
280,312,16337,2,0,L|227:307,1,52.5000020027161
240,144,17004,6,0,P|256:224|256:264,1,105.000004005432
392,296,17893,2,0,P|344:304|304:288,1,91.8750035047532
192,176,18782,1,0,0:0:0:0:
128,120,19004,6,0,P|96:112|32:128,2,78.7500030040742,4|0|0,0:0|0:0|0:0,0:0:0:0:
208,96,19893,2,0,P|240:88|304:104,2,78.7500030040742,0|0|0,0:0|0:0|0:0,0:0:0:0:
192,176,20782,1,4,0:0:0:0:
216,240,22337,5,0,0:0:0:0:
152,184,22560,2,0,B|120:120|120:120|136:64,1,105.000004005432,4|0,0:0|0:0,0:0:0:0:
192,32,23226,2,0,B|224:8|256:32|256:32|304:32,1,105.000004005432
344,96,23893,2,0,B|344:160|408:160|408:160|408:280,1,210.000008010865,0|0,0:0|0:0,0:0:0:0:
304,216,25893,5,0,0:0:0:0:
224,192,26115,2,0,B|184:184|120:200|120:200|120:176|112:136,1,140,4|0,0:0|0:0,0:0:0:0:
176,112,26782,2,0,B|216:120|280:104|280:104|280:128|288:168,1,140,0|0,0:0|0:0,0:0:0:0:
304,216,27449,2,0,P|344:224|376:208,1,70,2|4,0:3|1:1,0:0:0:0:
256,192,28115,12,0,29671,0:0:0:0:
48,216,31449,6,0,P|32:288|56:352,2,140,0|0|0,0:0|0:0|0:0,0:0:0:0:
120,128,32782,1,2,3:3:0:0:
232,120,33226,6,0,L|376:120,1,140,4|2,1:1|0:0,0:0:0:0:
440,168,33893,1,0,0:0:0:0:
440,248,34115,2,0,P|400:304|320:312,1,140,0|2,1:1|0:0,0:0:0:0:
248,312,34782,1,0,0:0:0:0:
248,224,35004,6,0,P|235:156|180:117,1,140,4|2,0:1|0:0,0:0:0:0:
160,208,35671,1,0,0:0:0:0:
139,298,35893,2,0,P|84:259|72:192,1,140,4|4,0:0|0:0,0:0:0:0:
72,80,36782,6,0,B|144:64|184:104|232:64,1,140,4|2,1:1|0:0,0:0:0:0:
288,104,37449,1,0,0:0:0:0:
352,48,37671,2,0,P|368:128|328:176,1,140,0|2,1:1|0:0,0:0:0:0:
248,192,38337,1,0,0:0:0:0:
160,228,38560,6,0,P|144:308|184:364,1,140,4|2,0:1|0:0,0:0:0:0:
232,284,39226,1,0,0:0:0:0:
248,192,39449,2,0,P|320:168|376:192,1,140,0|0,1:1|1:1,0:0:0:0:
160,228,40337,1,4,0:0:0:0:
264,104,42115,6,0,B|208:104|208:104|176:72|176:72|112:72|112:72|80:112,1,210
36,176,43004,2,0,P|80:224|88:296,1,140,8|0,0:0|0:0,0:0:0:0:
159,340,43671,1,0,0:0:0:0:
176,252,43893,2,0,B|237:272|245:334|245:334|360:336,1,210
424,336,44782,1,8,0:0:0:0:
320,152,45449,5,0,0:0:0:0:
256,96,45671,2,0,B|216:80|216:80|152:80,2,105,0|0|0,0:0|0:0|0:0,0:0:0:0:
336,72,46560,2,0,B|376:56|376:56|437:56,2,105,8|0|0,0:0|0:0|0:0,0:0:0:0:
256,96,47449,1,0,0:0:0:0:
320,152,48337,1,8,0:0:0:0:
256,96,49004,5,0,0:0:0:0:
176,104,49226,2,0,B|88:104|88:104|48:152,1,140,4|8,0:0|0:0,0:0:0:0:
64,256,50115,2,0,B|152:256|152:256|192:208,1,140,0|8,0:0|0:0,0:0:0:0:
240,120,51004,6,0,B|280:48|280:48|360:48,1,140,0|8,0:0|0:0,0:0:0:0:
352,160,51893,2,0,B|312:232|312:232|232:232,1,140,0|8,0:0|0:0,0:0:0:0:
160,168,52782,6,0,B|120:216|120:216|120:304,1,140,4|8,0:0|0:0,0:0:0:0:
232,272,53671,2,0,B|272:224|272:224|272:136,1,140,0|8,0:0|0:0,0:0:0:0:
316,72,54337,1,0,0:0:0:0:
360,144,54560,1,0,0:0:0:0:
168,248,55449,1,8,0:0:0:0:
128,320,55671,1,8,0:0:0:0:
88,248,55893,1,0,0:0:0:0:
272,232,56337,6,0,L|168:248,2,105,4|2|0,0:0|0:3|0:0,0:0:0:0:
344,192,57226,2,0,L|448:208,2,105,8|2|0,0:0|0:3|0:0,0:0:0:0:
272,152,58115,2,0,L|168:168,2,105,0|2|0,0:0|0:3|0:0,0:0:0:0:
344,112,59004,2,0,L|448:128,2,105,8|2|0,0:0|0:3|0:0,0:0:0:0:
264,128,59893,6,0,P|288:56|296:8,2,105,4|2|0,0:0|0:3|0:0,0:0:0:0:
192,168,60782,2,0,P|120:144|72:136,2,105,8|2|0,0:0|0:3|0:0,0:0:0:0:
232,240,61671,2,0,P|208:312|200:360,2,105,0|2|0,0:0|0:3|0:0,0:0:0:0:
304,200,62560,2,0,P|376:224|424:232,2,105,8|2|0,0:0|0:3|0:0,0:0:0:0:
256,136,63449,6,0,P|224:144|176:136,1,70,4|2,0:0|0:3,0:0:0:0:
136,208,63893,2,0,P|144:240|136:288,1,70,8|2,0:0|0:3,0:0:0:0:
192,344,64337,2,0,P|224:336|272:344,1,70,0|2,0:0|0:3,0:0:0:0:
312,272,64782,2,0,P|304:240|312:192,1,70,8|2,0:0|0:3,0:0:0:0:
224,184,65226,6,0,P|224:112|248:56,2,105,4|2|4,0:3|0:3|0:3,0:0:0:0:
192,256,66115,2,0,P|264:296|312:296,2,105,8|2|4,0:0|0:3|0:3,0:0:0:0:
112,256,67004,6,0,B|121:213|151:192|151:192|112:173|102:140,3,140,4|8|0|8,0:1|0:0|0:0|0:0,0:0:0:0:
192,48,70115,1,2,0:3:0:0:
104,152,70560,6,0,P|96:208|96:288,2,105,4|2|0,0:0|0:3|0:0,0:0:0:0:
184,160,71449,2,0,P|176:216|176:296,2,105,8|2|0,0:0|0:3|0:0,0:0:0:0:
264,168,72337,2,0,P|256:224|256:304,2,105,0|2|0,0:0|0:3|0:0,0:0:0:0:
344,176,73226,2,0,P|336:232|336:312,2,105,8|2|0,0:0|0:3|0:0,0:0:0:0:
392,112,74115,6,0,P|496:96|520:96,2,105,4|2|0,0:0|0:3|0:0,0:0:0:0:
368,32,75004,2,0,P|472:16|496:16,2,105,8|2|0,0:0|0:3|0:0,0:0:0:0:
312,96,75893,2,0,P|301:147|297:199,2,105,0|2|0,0:0|0:3|0:0,0:0:0:0:
232,96,76782,2,0,P|221:147|217:199,2,105,8|2|0,0:0|0:3|0:0,0:0:0:0:
152,96,77671,6,0,L|122:96|82:96,3,70,4|2|8|2,0:0|0:3|0:0|0:3,0:0:0:0:
44,176,78560,2,0,L|84:176|116:176,3,70,0|2|8|2,0:0|0:3|0:0|0:3,0:0:0:0:
192,200,79449,6,0,B|228:180|260:212|260:212|316:212,2,105,4|2|4,0:3|0:3|0:3,0:0:0:0:
152,272,80337,2,0,B|116:292|84:260|84:260|28:260,2,105,8|2|4,0:0|0:3|0:3,0:0:0:0:
232,288,81226,5,0,0:1:0:0:
