osu file format v13

[General]
AudioFilename: TK - Unravel.mp3
AudioLeadIn: 0
PreviewTime: 54893
Countdown: 0
SampleSet: Normal
StackLeniency: 0.7
Mode: 0
LetterboxInBreaks: 1
SkinPreference:Luminance- Fluorescence
WidescreenStoryboard: 0

[Editor]
Bookmarks: 67004,70560,81226
DistanceSpacing: 0.7
BeatDivisor: 8
GridSize: 4
TimelineZoom: 2.699999

[Metadata]
Title:Unravel (TV Edit)
TitleUnicode:Unravel (TV Edit)
Artist:TK from Ling Tosite Sigure
ArtistUnicode:TK from Ling Tosite Sigure
Creator:Floofle
Version:Hard
Source:東京喰種-トーキョーグール-
Tags:tokyo ghoul opening anime
BeatmapID:526112
BeatmapSetID:218188

[Difficulty]
HPDrainRate:5.5
CircleSize:4
OverallDifficulty:7
ApproachRate:7
SliderMultiplier:1.4
SliderTickRate:1

[Events]
//Background and Video events
Video,0,"TK - Unravel.avi"
0,0,"Tokyo-Ghoul-Best-Wallpaper.jpg",0,0
//Break Periods
//Storyboard Layer 0 (Background)
//Storyboard Layer 1 (Fail)
//Storyboard Layer 2 (Pass)
//Storyboard Layer 3 (Foreground)
//Storyboard Sound Samples

[TimingPoints]
8338,444.444444444444,4,3,0,65,1,0
8560,-100,4,3,0,30,0,0
9893,-200,4,3,0,30,0,0
10782,-100,4,3,0,30,0,0
11893,-100,4,3,0,60,0,0
12337,-100,4,3,0,30,0,0
13226,-166.666666666667,4,3,0,30,0,0
14115,-100,4,3,0,30,0,0
15449,-100,4,3,0,60,0,0
15671,-100,4,3,0,30,0,0
19004,-100,4,3,0,60,0,0
19337,-100,4,3,0,30,0,0
20782,-100,4,3,0,60,0,0
22337,-100,4,3,0,30,0,0
22560,-100,4,3,0,60,0,0
22782,-100,4,3,0,30,0,0
24337,-100,4,3,0,60,0,0
24671,-100,4,3,0,30,0,0
26115,-100,4,3,0,60,0,0
26337,-80,4,3,0,30,0,0
27449,-80,4,3,0,30,0,0
27893,-80,4,1,0,60,0,0
31449,-80,4,1,0,60,0,0
33226,-80,4,3,0,60,0,1
40337,-80,4,3,0,60,0,0
42115,-80,4,1,1,40,0,0
49226,-80,4,1,1,40,0,0
54115,-80,4,1,1,30,0,0
54560,-80,4,1,1,40,0,0
56337,-71.4285714285714,4,1,1,75,0,1
67004,-80,4,1,1,75,0,0
70560,-66.6666666666667,4,1,1,75,0,1
81226,-66.6666666666667,4,1,1,75,0,0

[Colours]
Combo1 : 255,255,255
Combo2 : 0,120,191

[HitObjects]
464,304,8337,5,4,0:0:0:0:
384,304,8560,1,0,0:0:0:0:
328,240,8782,2,0,P|296:232|240:232,1,70
200,288,9226,2,0,B|160:288|160:288|128:288|112:256,1,70
80,216,9671,1,0,0:0:0:0:
25,150,9893,2,0,P|102:135|148:168,1,140
376,232,11449,5,0,0:0:0:0:
448,192,11671,1,0,0:0:0:0:
488,120,11893,2,0,P|432:112|376:48,1,140,4|0,0:0|0:0,0:0:0:0:
296,48,12560,1,0,0:0:0:0:
208,56,12782,2,0,P|176:88|128:104,1,70,0|0,0:0|0:0,0:0:0:0:
80,136,13226,2,0,B|56:152|16:144|16:144|16:264,1,167.999994873047
96,232,15226,5,0,0:0:0:0:
160,288,15449,2,0,B|192:304|192:304|240:304,1,70,4|0,0:0|0:0,0:0:0:0:
288,248,15893,2,0,B|320:232|320:232|376:232,1,70
384,312,16337,2,0,L|472:312,2,70,0|0|0,0:0|0:0|0:0,0:0:0:0:
300,336,17004,5,0,0:0:0:0:
160,224,17449,1,0,0:0:0:0:
328,160,17893,1,0,0:0:0:0:
300,336,18337,2,0,L|200:336,1,70
152,296,18782,1,0,0:0:0:0:
96,224,19004,6,0,P|72:152|88:112,2,105,4|0|0,0:0|0:0|0:0,0:0:0:0:
160,153,19893,2,0,P|167:102|144:56,2,105,0|0|0,0:0|0:0|0:0,0:0:0:0:
80,116,20782,1,4,0:0:0:0:
80,116,22337,5,0,0:0:0:0:
80,204,22560,2,0,L|80:244|80:300,1,70,4|0,0:0|0:0,0:0:0:0:
168,306,23004,2,0,L|168:276|168:236,1,70
256,200,23449,2,0,L|256:240|256:296,1,70
344,304,23893,2,0,B|432:304|432:304|464:232,1,140,0|4,0:0|0:0,0:0:0:0:
448,140,24671,2,0,P|392:156|352:204,2,105,0|0|0,0:0|0:0|0:0,0:0:0:0:
456,256,25671,6,0,L|456:336,2,70,0|0|4,0:0|0:0|0:0,0:0:0:0:
448,164,26337,1,0,0:0:0:0:
368,116,26560,1,0,0:0:0:0:
288,164,26782,1,0,0:0:0:0:
256,252,27004,1,0,0:0:0:0:
160,276,27226,1,0,0:0:0:0:
64,252,27449,2,0,B|72:244|72:244|56:236|56:236|72:228|72:228|56:220|56:220|72:212|72:212|56:204|56:204|72:196|72:196|56:188|56:188|72:180|72:180|64:164|64:164|64:156|64:156,1,175
256,192,28115,12,0,29671,2:0:0:0:
385,104,31449,5,0,0:0:0:0:
385,104,31560,2,0,P|457:160|457:184,1,87.5,0|0,0:0|0:0,0:0:0:0:
369,200,32004,1,0,0:0:0:0:
369,200,32115,1,0,0:0:0:0:
288,136,32337,2,0,L|113:136,1,175,0|4,0:0|0:0,0:0:0:0:
64,240,33226,6,0,P|56:296|72:336,1,87.5,4|2,1:1|0:0,0:0:0:0:
152,328,33671,1,0,1:1:0:0:
240,312,33893,1,2,0:0:0:0:
304,248,34115,2,0,P|336:216|384:216,1,87.5,4|2,0:0|0:0,0:0:0:0:
448,168,34560,1,0,1:1:0:0:
400,96,34782,1,2,0:0:0:0:
312,72,35004,6,0,L|208:72,1,87.5,4|2,1:0|0:0,0:0:0:0:
144,104,35449,2,0,P|103:90|61:101,1,87.5,0|2,1:1|0:0,0:0:0:0:
200,168,35893,2,0,P|240:181|282:170,1,87.5,4|2,0:0|0:0,0:0:0:0:
418,106,36337,2,0,P|377:92|336:104,1,87.5,4|2,0:0|0:0,0:0:0:0:
368,184,36782,6,0,P|379:225|365:266,1,87.5,4|2,1:1|0:0,0:0:0:0:
288,224,37226,1,0,1:1:0:0:
288,312,37449,1,2,0:0:0:0:
208,272,37671,2,0,P|152:240|136:200,1,87.5,4|2,0:0|0:0,0:0:0:0:
216,176,38115,1,0,1:1:0:0:
168,104,38337,1,2,0:0:0:0:
104,48,38560,6,0,P|88:120|112:160,1,87.5,4|2,1:0|0:0,0:0:0:0:
56,208,39004,1,0,1:1:0:0:
104,280,39226,1,2,0:0:0:0:
192,304,39449,2,0,P|240:312|296:280,1,87.5,4|2,1:0|0:0,0:0:0:0:
315,218,39893,2,0,P|272:210|232:224,1,87.5,4|2,1:0|0:0,0:0:0:0:
360,296,40337,1,4,0:0:0:0:
16,184,42115,6,0,B|64:184|64:184|96:136|128:152,1,87.5
152,96,42560,1,0,0:0:0:0:
240,72,42782,1,0,0:0:0:0:
328,72,43004,2,0,B|368:80|416:72|416:72|416:192,1,175,8|0,0:0|0:0,0:0:0:0:
368,232,43671,1,0,0:0:0:0:
336,152,43893,6,0,B|288:176|280:224|280:224|288:224,1,87.5
248,296,44337,2,0,P|200:312|136:280,1,87.5
96,256,44782,1,8,0:0:0:0:
256,48,45449,5,0,0:0:0:0:
256,136,45671,2,0,P|336:144|408:120,2,131.25,0|0|0,0:0|0:0|0:0,0:0:0:0:
80,216,46782,2,0,P|160:232|256:216,1,175,0|0,0:0|0:0,0:0:0:0:
328,160,47449,1,0,0:0:0:0:
368,288,47893,6,0,P|416:280|464:296,1,87.5,0|0,0:0|0:0,0:0:0:0:
288,336,48337,2,0,P|208:352|144:320,2,131.25,8|0|0,0:0|0:0|0:0,0:0:0:0:
288,244,49226,6,0,P|324:204|368:196,1,87.5,4|2,0:0|0:3,0:0:0:0:
432,136,49671,1,8,0:0:0:0:
344,104,49893,1,2,0:3:0:0:
296,24,50115,2,0,L|200:24,1,87.5,0|2,0:0|0:3,0:0:0:0:
120,64,50560,1,8,0:0:0:0:
192,120,50782,1,2,0:3:0:0:
104,160,51004,6,0,P|136:200|192:216,1,87.5,0|2,0:0|0:3,0:0:0:0:
192,120,51449,1,8,0:0:0:0:
288,112,51671,1,2,0:3:0:0:
376,144,51893,2,0,P|364:200|380:244,1,87.5,0|2,0:0|0:3,0:0:0:0:
456,276,52337,2,0,P|468:220|452:176,1,87.5,8|2,0:0|0:3,0:0:0:0:
372,228,52782,6,0,P|329:220|287:232,1,87.5,0|2,0:0|0:3,0:0:0:0:
240,320,53226,1,8,0:0:0:0:
336,320,53449,1,2,0:3:0:0:
288,232,53671,2,0,P|295:189|283:147,1,87.5,0|2,0:0|0:3,0:0:0:0:
200,196,54115,2,0,L|152:196,4,43.75,8|8|8|8|8,0:0|0:0|0:0|0:0|0:0,0:0:0:0:
324,224,55449,5,8,0:0:0:0:
324,224,55671,1,8,0:0:0:0:
324,328,55893,1,8,0:0:0:0:
300,344,56004,1,8,0:0:0:0:
276,352,56115,1,0,0:0:0:0:
252,356,56226,1,0,0:0:0:0:
232,356,56337,6,0,B|176:356|176:356|120:300,1,97.9999970092774,4|2,0:0|0:3,0:0:0:0:
104,232,56782,1,8,0:0:0:0:
104,128,57004,1,2,0:3:0:0:
176,48,57226,2,0,P|240:40|296:64,1,97.9999970092774,0|2,0:0|0:3,0:0:0:0:
376,80,57671,1,8,0:0:0:0:
400,184,57893,1,2,0:3:0:0:
296,156,58115,6,0,P|312:204|280:268,1,97.9999970092774,0|2,0:0|0:3,0:0:0:0:
200,208,58560,2,0,P|184:162|197:116,1,97.9999970092774,8|2,0:0|0:3,0:0:0:0:
296,156,59004,2,0,P|312:204|280:268,1,97.9999970092774,0|2,0:0|0:3,0:0:0:0:
298,247,59337,1,0,0:0:0:0:
298,247,59449,1,8,0:0:0:0:
216,312,59671,1,8,0:0:0:0:
216,312,59782,1,8,0:0:0:0:
216,312,59893,6,0,P|168:312|120:276,1,97.9999970092774,4|2,0:0|0:3,0:0:0:0:
96,184,60337,1,8,0:0:0:0:
176,112,60560,1,2,0:3:0:0:
200,208,60782,2,0,P|248:208|296:244,1,97.9999970092774,0|2,0:0|0:3,0:0:0:0:
328,336,61226,2,0,P|408:336|440:304,1,97.9999970092774,8|2,0:0|0:3,0:0:0:0:
432,216,61671,5,0,0:0:0:0:
264,120,61893,1,2,0:3:0:0:
376,120,62115,1,8,0:0:0:0:
320,216,62337,1,2,0:3:0:0:
208,216,62560,2,0,L|96:216,1,97.9999970092774,0|2,0:0|0:3,0:0:0:0:
110,216,62893,1,0,0:0:0:0:
110,216,63004,1,8,0:0:0:0:
56,120,63226,1,8,0:0:0:0:
56,120,63337,1,8,0:0:0:0:
56,120,63449,6,0,L|168:120,1,97.9999970092774,4|2,0:0|0:3,0:0:0:0:
264,120,63893,1,8,0:0:0:0:
208,216,64115,1,2,0:3:0:0:
320,216,64337,2,0,P|364:184|376:144,1,97.9999970092774,0|2,0:0|0:3,0:0:0:0:
264,120,64782,2,0,P|220:108|156:128,1,97.9999970092774,8|2,0:0|0:3,0:0:0:0:
104,200,65226,6,0,L|104:312,1,97.9999970092774,0|2,0:0|0:3,0:0:0:0:
104,298,65560,1,0,0:0:0:0:
104,298,65671,1,8,0:0:0:0:
200,344,65893,1,2,0:3:0:0:
296,304,66115,2,0,L|296:200,1,97.9999970092774,0|2,0:0|0:3,0:0:0:0:
296,206,66449,1,0,0:0:0:0:
296,206,66560,1,8,0:0:0:0:
200,168,66782,1,2,0:3:0:0:
124,116,67004,6,0,P|204:76|280:124,1,175,4|2,0:0|0:3,0:0:0:0:
352,168,67671,1,0,0:0:0:0:
428,228,67893,2,0,P|344:264|268:216,1,175,8|2,0:0|0:3,0:0:0:0:
276,108,68782,6,0,P|352:71|428:108,1,175,0|2,0:0|0:3,0:0:0:0:
352,168,69449,1,0,0:0:0:0:
275,227,69671,2,0,P|351:264|428:228,1,175,8|8,0:0|0:0,0:0:0:0:
440,136,70337,1,8,0:0:0:0:
180,192,70560,6,0,P|128:224|128:280,1,105.000004005432,4|2,0:0|0:3,0:0:0:0:
120,376,71004,1,8,0:0:0:0:
216,320,71226,1,2,0:3:0:0:
123,264,71449,2,0,P|75:240|67:184,1,105.000004005432,0|2,0:0|0:3,0:0:0:0:
88,80,71893,1,8,0:0:0:0:
176,160,72115,1,2,0:3:0:0:
288,176,72337,6,0,P|336:176|384:128,1,105.000004005432,0|2,0:0|0:3,0:0:0:0:
456,56,72782,1,8,0:0:0:0:
488,168,73004,1,2,0:3:0:0:
400,248,73226,2,0,B|432:304|400:352|400:352,1,105.000004005432,0|2,0:0|0:3,0:0:0:0:
402,348,73560,1,0,0:0:0:0:
402,348,73671,1,8,0:0:0:0:
296,304,73893,1,8,0:0:0:0:
296,304,74004,1,8,0:0:0:0:
296,304,74115,6,0,P|240:312|168:272,1,105.000004005432,4|2,0:0|0:3,0:0:0:0:
140,196,74560,1,8,0:0:0:0:
80,296,74782,1,2,0:3:0:0:
252,216,75004,2,0,P|308:208|380:248,1,105.000004005432,0|2,0:0|0:3,0:0:0:0:
432,320,75449,1,8,0:0:0:0:
320,320,75671,1,2,0:3:0:0:
372,224,75893,6,0,P|360:168|384:112,1,105.000004005432,0|2,0:0|0:3,0:0:0:0:
464,64,76337,1,8,0:0:0:0:
480,176,76560,1,2,0:3:0:0:
376,124,76782,2,0,B|328:96|272:120|272:120,1,105.000004005432,0|2,0:0|0:3,0:0:0:0:
274,119,77115,1,0,0:0:0:0:
274,119,77226,1,8,0:0:0:0:
160,104,77449,1,8,0:0:0:0:
160,104,77560,1,8,0:0:0:0:
160,104,77671,6,0,P|152:192|176:232,1,105.000004005432,4|2,0:0|0:3,0:0:0:0:
352,280,78115,2,0,P|360:192|336:152,1,105.000004005432,8|2,0:0|0:3,0:0:0:0:
152,120,78560,6,0,P|144:208|168:248,1,105.000004005432,0|2,0:0|0:3,0:0:0:0:
360,264,79004,2,0,P|368:176|344:136,1,105.000004005432,8|2,0:0|0:3,0:0:0:0:
144,136,79449,6,0,P|136:224|160:264,1,105.000004005432,4|2,0:0|0:3,0:0:0:0:
141,236,79782,1,0,0:0:0:0:
141,236,79893,1,8,0:0:0:0:
256,184,80115,1,2,0:3:0:0:
368,248,80337,6,0,P|376:160|352:120,1,105.000004005432,4|2,0:0|0:3,0:0:0:0:
370,147,80671,1,0,0:0:0:0:
370,147,80782,1,8,0:0:0:0:
256,184,81004,1,8,0:0:0:0:
284,72,81226,1,0,0:0:0:0:
