osu file format v13

[General]
AudioFilename: TK - Unravel.mp3
AudioLeadIn: 0
PreviewTime: 54893
Countdown: 0
SampleSet: Normal
StackLeniency: 0.7
Mode: 0
LetterboxInBreaks: 1
SkinPreference:Luminance- Fluorescence
WidescreenStoryboard: 0

[Editor]
Bookmarks: 67004,70560,81226
DistanceSpacing: 0.8
BeatDivisor: 8
GridSize: 4
TimelineZoom: 2.699999

[Metadata]
Title:Unravel (TV Edit)
TitleUnicode:Unravel (TV Edit)
Artist:TK from Ling Tosite Sigure
ArtistUnicode:TK from Ling Tosite Sigure
Creator:Floofle
Version:Hard+
Source:東京喰種-トーキョーグール-
Tags:tokyo ghoul opening anime
BeatmapID:511540
BeatmapSetID:218188

[Difficulty]
HPDrainRate:6.5
CircleSize:4.5
OverallDifficulty:8
ApproachRate:8
SliderMultiplier:1.4
SliderTickRate:1

[Events]
//Background and Video events
Video,0,"TK - Unravel.avi"
0,0,"Tokyo-Ghoul-Best-Wallpaper.jpg",0,0
//Break Periods
//Storyboard Layer 0 (Background)
//Storyboard Layer 1 (Fail)
//Storyboard Layer 2 (Pass)
//Storyboard Layer 3 (Foreground)
//Storyboard Sound Samples

[TimingPoints]
8338,444.444444444444,4,3,0,60,1,0
8560,-100,4,3,0,30,0,0
9893,-200,4,3,0,30,0,0
10782,-100,4,3,0,30,0,0
11893,-100,4,3,0,60,0,0
12337,-100,4,3,0,30,0,0
13226,-166.666666666667,4,3,0,30,0,0
14115,-100,4,3,0,30,0,0
15449,-100,4,3,0,60,0,0
15671,-100,4,3,0,30,0,0
19004,-100,4,3,0,60,0,0
19337,-100,4,3,0,30,0,0
20782,-100,4,3,0,60,0,0
22337,-100,4,3,0,30,0,0
22560,-100,4,3,0,60,0,0
23004,-100,4,3,0,30,0,0
24337,-100,4,3,0,60,0,0
24671,-100,4,3,0,30,0,0
26115,-100,4,3,0,60,0,0
26337,-100,4,3,0,30,0,0
27449,-200,4,3,0,30,0,0
27893,-66.6666666666667,4,1,0,60,0,0
31449,-66.6666666666667,4,1,0,60,0,0
33226,-50,4,3,0,60,0,1
40337,-66.6666666666667,4,3,0,60,0,0
42115,-66.6666666666667,4,1,1,40,0,0
49226,-66.6666666666667,4,1,1,40,0,0
54115,-66.6666666666667,4,1,1,30,0,0
54560,-66.6666666666667,4,1,1,40,0,0
56337,-50,4,1,1,75,0,1
67004,-50,4,1,1,75,0,0
70560,-50,4,1,1,75,0,1
81226,-50,4,1,1,75,0,0

[Colours]
Combo1 : 255,255,255
Combo2 : 0,120,191

[HitObjects]
120,80,8337,5,4,0:0:0:0:
200,72,8561,1,0,0:0:0:0:
272,112,8783,2,0,P|328:128|360:120,1,70
408,80,9227,2,0,P|440:40|480:24,2,70,0|0|0,0:0|0:0|0:0,0:0:0:0:
416,160,9894,2,0,P|432:248|408:304,1,140
96,312,11672,5,0,0:0:0:0:
40,256,11894,2,0,P|24:184|48:96,1,140,4|0,0:0|0:0,0:0:0:0:
112,96,12561,1,0,0:0:0:0:
176,140,12783,2,0,B|208:148|232:148|248:132,1,70,0|0,0:0|0:0,0:0:0:0:
296,72,13227,2,0,B|344:72|344:72|368:40|416:32|448:80,1,167.999994873047
416,152,15227,5,0,0:0:0:0:
368,88,15450,2,0,B|336:72|336:72|288:72,1,70,4|0,0:0|0:0,0:0:0:0:
224,96,15894,1,0,0:0:0:0:
184,168,16116,1,0,0:0:0:0:
200,248,16338,2,0,L|128:288,1,70
142,353,16783,1,0,0:0:0:0:
19,312,17005,6,0,B|75:312|75:312|91:352|123:352|147:360|163:344,3,140,0|0|0|0,0:0|0:0|0:0|0:0,0:0:0:0:
224,328,18561,1,0,0:0:0:0:
288,272,18783,1,0,0:0:0:0:
312,192,19005,2,0,B|360:176|400:200|440:176,2,105,4|0|0,0:0|0:0|0:0,0:0:0:0:
240,152,19894,2,0,B|193:136|153:160|136:145,2,105,0|0|0,0:0|0:0|0:0,0:0:0:0:
312,112,20783,1,4,0:0:0:0:
88,128,22338,5,0,0:0:0:0:
144,64,22561,2,0,B|200:56|232:24|232:24|288:48,1,140,4|0,0:0|0:0,0:0:0:0:
304,120,23227,2,0,B|342:136|342:136|374:104|430:96,1,140
464,176,23894,2,0,B|472:184|504:192|504:192|496:304,1,140,0|4,0:0|0:0,0:0:0:0:
384,296,24672,1,0,0:0:0:0:
264,224,25005,1,0,0:0:0:0:
368,320,25338,1,0,0:0:0:0:
400,184,25672,2,0,B|432:184|448:224|480:200,2,70,0|0|4,0:0|0:0|0:0,0:0:0:0:
312,136,26338,5,0,0:0:0:0:
264,224,26560,1,0,0:0:0:0:
176,272,26782,1,0,0:0:0:0:
108,339,27004,1,0,0:0:0:0:
40,272,27227,1,0,0:0:0:0:
108,204,27449,2,0,B|107:179|107:179|103:163|103:163|108:131,1,70,0|4,0:0|1:1,0:0:0:0:
256,192,28116,12,0,29672,2:0:0:0:
112,328,31450,5,0,0:0:0:0:
112,328,31561,1,0,0:0:0:0:
64,256,31783,1,0,0:0:0:0:
64,176,32005,2,0,L|128:176,1,52.5000020027161
128,64,32338,2,0,B|168:48|208:72|208:72|288:72,1,157.500006008148
328,72,32783,1,2,3:3:0:0:
448,144,33227,5,4,1:1:0:0:
416,176,33338,2,0,B|392:200|352:184|352:184|280:184,1,140
240,160,33672,2,0,P|144:152|96:168,1,140,0|2,1:1|0:0,0:0:0:0:
64,192,34005,1,0,0:0:0:0:
48,232,34116,1,4,0:0:0:0:
64,320,34338,1,2,0:0:0:0:
152,312,34561,1,0,1:1:0:0:
192,328,34672,2,0,B|248:352|288:320|336:336,1,140
368,312,35005,6,0,P|408:232|392:176,1,140,4|2,1:0|0:0,0:0:0:0:
370,150,35338,2,0,B|328:136|288:168|232:144,1,140
192,128,35672,1,2,0:0:0:0:
144,128,35783,1,0,0:0:0:0:
104,152,35894,2,0,B|96:200|128:224|104:296,1,140,4|2,0:0|0:0,0:0:0:0:
216,288,36338,2,0,B|238:221|206:197|214:149,1,140,0|2,1:1|0:0,0:0:0:0:
144,64,36783,6,0,P|208:48|288:64,1,140,4|2,1:1|0:0,0:0:0:0:
320,80,37116,2,0,B|352:112|400:104|400:104|400:168,1,140
400,208,37450,1,2,0:0:0:0:
368,248,37561,1,0,0:0:0:0:
328,264,37672,2,0,B|288:288|248:264|248:264|176:264,1,140,4|2,0:0|0:0,0:0:0:0:
152,248,38005,2,0,B|144:216|112:200|112:200|112:104,1,140,0|2,0:0|0:0,0:0:0:0:
192,56,38450,1,0,0:0:0:0:
232,72,38561,6,0,B|272:88|304:64|304:64|376:64,1,140,4|2,1:0|0:0,0:0:0:0:
404,96,38894,2,0,P|436:168|396:208,1,140
360,216,39227,1,2,0:0:0:0:
328,248,39338,1,0,0:0:0:0:
312,296,39450,2,0,P|232:320|168:288,1,140,4|2,1:0|0:0,0:0:0:0:
112,216,39894,2,0,P|176:191|241:211,1,140,4|2,1:0|0:0,0:0:0:0:
80,320,40338,1,4,1:0:0:0:
48,48,42116,6,0,B|104:48|104:48|120:96|152:96|192:96,1,157.500006008148
368,37,42783,1,2,0:3:0:0:
408,104,43005,2,0,B|440:120|472:112|472:112|472:192|432:264,1,210.000008010865,8|0,0:0|0:0,0:0:0:0:
360,264,43672,1,2,0:3:0:0:
344,184,43894,6,0,B|280:200|280:272|280:272|228:304,1,157.500006008148
56,328,44561,2,0,P|64:264|48:216,1,105.000004005432,2|8,0:3|0:0,0:0:0:0:
40,144,45005,1,2,0:3:0:0:
80,72,45227,1,0,0:0:0:0:
160,48,45450,1,2,0:3:0:0:
192,128,45672,6,0,B|280:120|280:120|320:88|376:96,2,157.500006008148,0|0|2,0:0|0:0|0:3,0:0:0:0:
208,208,46561,6,0,B|120:216|120:216|80:248|24:240,2,157.500006008148,8|0|2,0:0|0:0|0:3,0:0:0:0:
288,216,47450,1,0,0:0:0:0:
360,256,47672,1,2,0:3:0:0:
424,312,47894,2,0,P|480:304|528:328,1,105.000004005432,0|2,0:0|0:3,0:0:0:0:
344,344,48338,2,0,P|264:360|192:328,2,157.500006008148,8|0|2,0:0|0:0|0:3,0:0:0:0:
424,312,49227,5,4,0:0:0:0:
456,232,49449,2,0,P|488:228|512:232,2,52.5000020027161,2|0|8,3:0|0:0|0:0,0:0:0:0:
392,176,49894,1,2,0:3:0:0:
360,96,50116,1,0,0:0:0:0:
288,48,50337,2,0,P|304:20|322:3,2,52.5000020027161,2|0|8,3:0|0:0|0:0,0:0:0:0:
208,80,50783,1,2,0:3:0:0:
128,80,51005,6,0,B|128:112|96:136|96:136|96:200,1,105.000004005432,0|2,0:0|0:3,0:0:0:0:
104,216,51338,1,0,0:0:0:0:
136,240,51450,1,8,0:0:0:0:
216,248,51672,1,2,0:3:0:0:
256,176,51894,2,0,B|296:160|296:160|360:160,1,105.000004005432,0|2,0:0|0:3,0:0:0:0:
400,168,52227,1,0,0:0:0:0:
424,200,52338,1,8,0:0:0:0:
456,280,52561,1,2,0:3:0:0:
392,336,52783,5,4,0:0:0:0:
308,332,53004,2,0,P|290:359|283:382,2,52.5000020027161,2|0|8,3:0|0:0|0:0,0:0:0:0:
240,280,53450,1,2,0:3:0:0:
160,248,53672,2,0,B|128:224|128:224|72:248|48:192,1,131.25000500679
32,160,54061,1,0,0:0:0:0:
48,120,54116,2,0,L|64:96,8,26.2500010013581,8|8|8|8|8|8|8|8|4,0:0|0:0|0:0|0:0|0:0|0:0|0:0|0:0|0:2,0:0:0:0:
432,288,55450,5,8,0:0:0:0:
360,336,55672,1,8,0:0:0:0:
280,344,55894,2,0,L|232:344,7,26.2500010013581,4|0|0|0|0|0|0|0,0:3|0:0|0:0|0:0|0:0|0:0|0:0|0:0,0:0:0:0:
224,336,56338,6,0,B|160:312|160:312|96:320|80:280,1,140,4|2,0:1|0:3,0:0:0:0:
64,264,56672,2,0,B|56:224|56:224|72:176|144:184,1,140
176,184,57005,1,2,0:3:0:0:
296,176,57227,6,0,B|352:168|400:176|400:176|424:136,1,140,8|2,0:0|0:3,0:0:0:0:
408,96,57561,2,0,B|352:104|304:96|304:96|280:136,1,140
296,176,57894,1,2,0:3:0:0:
288,288,58116,6,0,B|241:300|209:268|209:268|153:268,1,140,0|2,0:0|0:3,0:0:0:0:
112,256,58450,1,0,0:0:0:0:
48,184,58672,2,0,P|56:136|96:96,1,70,0|2,0:0|0:3,0:0:0:0:
152,88,59005,6,0,B|224:80|256:104|312:80,1,140,8|2,0:0|0:3,0:0:0:0:
336,96,59338,1,0,0:0:0:0:
440,152,59561,2,0,P|456:200|456:248,1,70,0|2,0:0|0:3,0:0:0:0:
344,216,59894,6,0,B|288:192|288:192|240:208|192:184,1,140,4|2,0:1|0:3,0:0:0:0:
176,168,60227,2,0,B|104:152|104:152|104:200|64:208|64:232,1,140
64,248,60561,1,2,0:3:0:0:
160,296,60783,6,0,B|216:296|240:336|240:336|312:328,1,140,8|2,0:0|0:3,0:0:0:0:
320,312,61116,1,0,0:0:0:0:
416,240,61338,2,0,P|440:200|440:160,1,70,0|2,0:0|0:3,0:0:0:0:
384,96,61672,6,0,B|344:128|344:128|288:112|248:152,1,140,0|2,0:0|0:3,0:0:0:0:
232,168,62005,1,0,0:0:0:0:
136,216,62227,2,0,P|104:248|96:296,1,70,0|2,0:0|0:3,0:0:0:0:
200,296,62561,2,0,B|280:296|280:296|344:368|408:280,2,210,8|0|2,0:0|0:0|0:3,0:0:0:0:
96,272,63450,6,0,B|80:224|104:200|104:200|104:120,1,140,4|2,0:1|0:3,0:0:0:0:
120,96,63783,2,0,B|160:72|160:72|216:80|264:64,1,140
296,64,64116,1,2,0:3:0:0:
400,136,64338,6,0,B|376:176|328:160|328:160|256:160,1,140,8|2,0:0|0:3,0:0:0:0:
232,168,64672,1,0,0:0:0:0:
136,192,64894,2,0,P|104:240|88:288,1,70,0|2,0:0|0:3,0:0:0:0:
168,328,65227,2,0,B|240:320|280:336|336:320,1,140,0|2,0:0|0:3,0:0:0:0:
344,312,65561,1,0,0:0:0:0:
368,280,65672,1,0,0:0:0:0:
372,240,65783,1,0,0:0:0:0:
352,208,65894,1,2,0:3:0:0:
312,192,66005,1,0,0:0:0:0:
264,200,66116,6,0,B|232:216|200:216|176:200|176:200|104:200,1,140,8|2,0:0|0:3,0:0:0:0:
88,184,66450,2,0,P|88:128|160:88,1,140
192,80,66783,1,2,0:3:0:0:
352,56,67005,1,4,0:1:0:0:
416,144,67227,1,2,0:3:0:0:
432,184,67338,1,0,0:0:0:0:
368,296,67561,1,0,0:0:0:0:
352,256,67672,1,2,0:3:0:0:
272,168,67894,6,0,B|216:168|176:240|120:224,1,140,8|2,0:0|0:3,0:0:0:0:
120,256,68227,1,0,0:0:0:0:
208,312,68450,1,0,0:0:0:0:
256,312,68561,1,2,0:3:0:0:
368,296,68783,6,0,B|392:248|432:240|432:240|432:168,1,140,0|2,0:0|0:3,0:0:0:0:
424,144,69116,1,0,0:0:0:0:
352,80,69338,1,0,0:0:0:0:
312,80,69450,1,2,0:3:0:0:
208,152,69672,6,0,B|248:208|248:208|312:184|344:216,1,140,8|2,0:0|0:3,0:0:0:0:
360,200,70006,1,0,0:0:0:0:
396,224,70117,1,8,0:0:0:0:
404,264,70228,1,0,0:0:0:0:
384,300,70339,1,8,0:0:0:0:
344,312,70450,1,8,0:0:0:0:
296,304,70561,6,0,B|256:296|256:296|224:320|160:312,1,140,4|2,0:1|0:3,0:0:0:0:
112,288,70894,1,0,0:0:0:0:
80,248,71005,2,0,B|96:200|80:144|80:144|104:120,1,140,8|2,0:0|0:3,0:0:0:0:
152,104,71338,1,0,0:0:0:0:
200,120,71450,2,0,B|256:128|256:128|312:112|368:136,1,140,0|2,0:0|0:3,0:0:0:0:
384,136,71783,1,0,0:0:0:0:
424,168,71894,2,0,B|456:192|488:200|488:200|488:280,1,140,8|2,0:0|0:3,0:0:0:0:
472,312,72227,1,0,0:0:0:0:
424,328,72338,6,0,B|376:336|360:296|360:296|288:296,1,140,0|2,0:0|0:3,0:0:0:0:
248,296,72672,1,0,0:0:0:0:
200,288,72783,2,0,P|136:296|56:288,1,140,8|2,0:0|0:3,0:0:0:0:
48,240,73116,1,0,0:0:0:0:
64,192,73227,2,0,P|133:185|202:193,1,140,0|2,0:0|0:3,0:0:0:0:
248,208,73561,1,0,0:0:0:0:
296,216,73672,2,0,P|365:222|434:214,1,140,8|8,0:0|0:0,0:0:0:0:
472,172,74005,1,8,0:0:0:0:
472,120,74116,6,0,B|480:88|440:64|408:80|408:80|352:80,1,140,4|2,0:1|0:3,0:0:0:0:
312,80,74450,1,0,0:0:0:0:
264,88,74561,2,0,B|208:120|136:104|120:152,1,140,8|2,0:0|0:3,0:0:0:0:
104,176,74894,1,0,0:0:0:0:
112,224,75005,2,0,B|160:264|160:264|248:264,1,140,0|2,0:0|0:3,0:0:0:0:
288,256,75338,1,0,0:0:0:0:
328,224,75450,2,0,B|376:200|376:200|472:200,1,140,8|2,0:0|0:3,0:0:0:0:
480,152,75783,1,0,0:0:0:0:
456,104,75894,6,0,B|416:96|376:128|312:112,1,140,0|2,0:0|0:3,0:0:0:0:
272,136,76227,1,0,0:0:0:0:
232,160,76338,2,0,P|144:160|88:144,1,140,8|2,0:0|0:3,0:0:0:0:
64,104,76672,1,0,0:0:0:0:
88,56,76783,2,0,B|152:40|152:40|248:40,1,140,0|2,0:0|0:3,0:0:0:0:
272,48,77116,1,0,0:0:0:0:
320,56,77227,2,0,B|392:40|432:72|480:48,1,140,8|8,0:0|0:0,0:0:0:0:
488,96,77561,1,8,0:0:0:0:
472,144,77672,6,0,B|416:168|368:128|304:168,1,140,4|2,0:1|0:3,0:0:0:0:
141,202,78116,6,0,B|176:176|224:216|280:192,1,140,8|2,0:0|0:3,0:0:0:0:
480,208,78561,6,0,B|424:232|376:192|312:232,1,140,0|2,0:0|0:3,0:0:0:0:
149,266,79005,6,0,B|184:240|232:280|288:256,1,140,8|2,0:0|0:3,0:0:0:0:
488,272,79450,6,0,B|432:296|384:256|320:296,1,140,0|2,0:0|0:3,0:0:0:0:
312,312,79782,1,0,0:0:0:0:
264,320,79894,1,8,0:0:0:0:
216,312,80005,1,0,0:0:0:0:
168,296,80116,1,2,0:3:0:0:
128,264,80227,1,0,0:0:0:0:
104,224,80338,6,0,B|128:168|128:168|184:176|232:160,1,140,0|8,0:0|0:0,0:0:0:0:
248,176,80671,1,0,0:0:0:0:
296,184,80782,1,8,0:0:0:0:
344,176,80893,1,0,0:0:0:0:
392,160,81005,1,8,0:0:0:0:
432,128,81116,1,8,0:0:0:0:
456,88,81227,1,0,0:1:0:0:
