osu file format v13

[General]
AudioFilename: TK - Unravel.mp3
AudioLeadIn: 0
PreviewTime: 54893
Countdown: 0
SampleSet: Normal
StackLeniency: 0.7
Mode: 0
LetterboxInBreaks: 1
SkinPreference:Luminance- Fluorescence
WidescreenStoryboard: 0

[Editor]
Bookmarks: 27893,38560,42115,67004,70560,81226
DistanceSpacing: 1.3
BeatDivisor: 8
GridSize: 8
TimelineZoom: 1.6

[Metadata]
Title:Unravel (TV Edit)
TitleUnicode:Unravel (TV Edit)
Artist:TK from Ling Tosite Sigure
ArtistUnicode:TK from Ling Tosite Sigure
Creator:Floofle
Version:Easy
Source:東京喰種-トーキョーグール-
Tags:tokyo ghoul opening anime
BeatmapID:513033
BeatmapSetID:218188

[Difficulty]
HPDrainRate:3.5
CircleSize:3
OverallDifficulty:3.5
ApproachRate:3.5
SliderMultiplier:1
SliderTickRate:1

[Events]
//Background and Video events
Video,0,"TK - Unravel.avi"
0,0,"Tokyo-Ghoul-Best-Wallpaper.jpg",0,0
//Break Periods
//Storyboard Layer 0 (Background)
//Storyboard Layer 1 (Fail)
//Storyboard Layer 2 (Pass)
//Storyboard Layer 3 (Foreground)
//Storyboard Sound Samples

[TimingPoints]
8338,444.444444444444,4,3,0,50,1,0
8782,-100,4,3,0,25,0,0
9671,-200,4,3,0,25,0,0
10560,-100,4,3,0,25,0,0
11893,-100,4,3,0,50,0,0
12337,-100,4,3,0,25,0,0
13226,-166.666666666667,4,3,0,25,0,0
15449,-100,4,3,0,50,0,0
15671,-100,4,3,0,25,0,0
19004,-100,4,3,0,50,0,0
19337,-100,4,3,0,25,0,0
20782,-100,4,3,0,50,0,0
22560,-100,4,3,0,50,0,0
23004,-100,4,3,0,25,0,0
24337,-100,4,3,0,50,0,0
25226,-100,4,3,0,25,0,0
26115,-80,4,3,0,50,0,0
27449,-200,4,3,0,50,0,0
27893,-66.6666666666667,4,3,0,50,0,0
31449,-66.6666666666667,4,1,0,50,0,0
33226,-66.6666666666667,4,3,0,50,0,1
40337,-66.6666666666667,4,3,0,50,0,0
42115,-100,4,1,1,40,0,0
49226,-100,4,1,1,40,0,0
54560,-100,4,1,1,40,0,0
56337,-100,4,1,1,75,0,1
67004,-133.333333333333,4,1,1,95,0,0
67893,-100,4,1,1,75,0,0
70560,-100,4,1,1,75,0,1
79449,-200,4,1,1,75,0,1
81226,-100,4,1,1,75,0,0

[Colours]
Combo1 : 255,255,255
Combo2 : 0,120,191

[HitObjects]
368,344,8337,5,4,0:0:0:0:
416,264,8782,2,0,P|416:224|392:160,1,100
328,104,9671,2,0,L|328:0,2,100,0|0|0,0:0|0:0|0:0,0:0:0:0:
256,168,11893,6,0,B|200:168|200:168|160:136|96:160,2,150,4|0|0,0:0|0:0|0:0,0:0:0:0:
72,240,15004,5,0,0:0:0:0:
136,312,15449,2,0,P|176:320|232:304,1,100,4|0,0:0|0:0,0:0:0:0:
304,240,16337,2,0,L|360:216,1,50
392,136,17004,2,0,P|352:128|296:144,1,100
208,192,17893,2,0,L|168:192|104:192,2,100,0|0|0,0:0|0:0|0:0,0:0:0:0:
240,232,19004,6,0,B|312:248|360:208|360:208|392:208|448:208,2,200,4|0|4,0:0|0:0|0:0,0:0:0:0:
200,120,22560,6,0,B|144:96|88:128|88:128|0:128,2,200,4|0|4,0:0|0:0|0:0,0:0:0:0:
256,216,25226,1,0,0:0:0:0:
320,280,26115,6,0,B|376:304|416:272|416:272|504:272,2,187.5,0|0|2,0:0|0:0|0:3,0:0:0:0:
256,216,27893,1,4,1:1:0:0:
256,192,28115,12,0,29671,0:0:0:0:
88,248,31449,5,0,0:0:0:0:
152,168,31893,1,0,0:0:0:0:
88,88,32337,2,0,P|160:64|224:96,1,150.000005722046,0|2,0:0|3:3,0:0:0:0:
312,144,33226,6,0,P|384:168|448:136,1,150.000005722046,4|2,0:1|0:0,0:0:0:0:
376,64,34115,1,0,1:1:0:0:
272,48,34560,1,0,0:1:0:0:
312,144,35004,6,0,P|288:216|320:280,1,150.000005722046,4|2,0:0|0:0,0:0:0:0:
392,208,35893,1,0,1:1:0:0:
320,280,36337,1,2,0:0:0:0:
240,344,36782,6,0,P|216:272|248:208,1,150.000005722046,4|2,1:1|0:0,0:0:0:0:
320,280,37671,1,0,1:1:0:0:
352,184,38115,1,2,0:0:0:0:
248,208,38560,6,0,P|184:184|104:224,1,150.000005722046,4|2,0:0|0:0,0:0:0:0:
184,288,39449,2,0,P|117:318|48:294,1,150.000005722046,0|2,1:1|0:0,0:0:0:0:
8,200,40337,1,4,1:1:0:0:
48,96,42115,6,0,B|104:96|104:96|160:64|200:96,1,156.25,0|0,0:0|0:0,0:0:0:0:
208,224,43449,1,8,0:0:0:0:
272,296,43893,6,0,B|310:326|366:294|366:294|422:294,1,156.25,0|0,0:0|0:0,0:0:0:0:
464,168,45226,1,8,0:0:0:0:
408,88,45671,6,0,P|336:72|256:80,1,150
200,152,46782,2,0,B|192:184|216:224|192:264,1,100,0|0,0:0|0:0,0:0:0:0:
400,272,48337,1,8,0:0:0:0:
240,288,49226,6,0,P|160:296|128:288,3,100,4|8|0|8,0:0|0:0|0:0|0:0,0:0:0:0:
88,208,51004,6,0,P|168:200|200:208,3,100,0|8|0|8,0:0|0:0|0:0|0:0,0:0:0:0:
280,232,52782,6,0,B|312:256|344:224|392:240,3,100,4|8|0|8,0:0|0:0|0:0|0:0,0:0:0:0:
472,256,54560,1,4,0:3:0:0:
168,256,55449,5,8,0:0:0:0:
128,160,55893,1,8,0:0:0:0:
120,64,56337,6,0,P|80:72|48:96,2,75,4|2|0,0:0|3:0|0:0,0:0:0:0:
176,64,57226,2,0,L|296:64,1,100,8|2,0:0|0:3,0:0:0:0:
312,168,58115,6,0,P|352:144|376:112,2,75,4|2|0,0:3|3:0|0:0,0:0:0:0:
256,176,59004,2,0,L|136:176,1,100,8|2,0:0|0:3,0:0:0:0:
120,280,59893,6,0,P|80:256|56:224,2,75,4|2|0,0:0|3:0|0:0,0:0:0:0:
176,288,60782,2,0,L|296:288,1,100,8|2,0:0|0:3,0:0:0:0:
296,168,61671,6,0,L|296:80,2,75,4|2|0,0:3|0:3|0:0,0:0:0:0:
344,192,62560,2,0,B|384:208|416:192|416:192|448:224,1,100,8|2,0:0|0:3,0:0:0:0:
384,112,63449,6,0,L|472:80,2,75,4|2|0,0:0|0:3|0:0,0:0:0:0:
336,112,64337,2,0,L|216:112,1,100,8|2,0:0|0:3,0:0:0:0:
320,224,65226,6,0,L|376:296,2,75,0|2|0,0:0|0:3|0:0,0:0:0:0:
272,240,66115,6,0,L|272:320,2,75,8|2|0,0:0|0:3|0:0,0:0:0:0:
232,224,67004,2,0,B|184:224|152:256|152:256|80:256,2,150.000005722046,4|8|0,0:0|0:0|0:0,0:0:0:0:
300,148,69226,1,2,0:3:0:0:
208,112,69671,2,0,P|176:136|112:144,1,100,8|2,0:0|0:3,0:0:0:0:
32,80,70560,5,4,0:0:0:0:
128,40,71004,1,2,0:3:0:0:
208,112,71449,1,8,0:0:0:0:
208,208,71893,1,2,0:3:0:0:
272,288,72337,2,0,B|304:304|328:264|384:296,3,100,0|2|8|2,0:0|0:3|0:0|0:3,0:0:0:0:
440,216,74115,6,0,B|440:160|440:160|400:112,1,100,4|2,0:0|0:3,0:0:0:0:
320,160,75004,2,0,B|264:160|264:160|216:120,1,100,8|2,0:0|0:3,0:0:0:0:
248,32,75893,2,0,B|192:32|192:32|144:72,1,100,0|2,0:0|0:3,0:0:0:0:
120,152,76782,1,8,0:0:0:0:
120,248,77226,1,2,0:3:0:0:
185,320,77671,6,0,B|216:344|256:304|281:320,1,100,4|2,0:0|0:3,0:0:0:0:
345,240,78560,6,0,B|376:264|416:224|441:240,1,100,8|2,0:0|0:3,0:0:0:0:
280,160,79449,6,0,B|254:143|214:183|182:159,2,100,0|8|0,0:0|0:0|0:1,0:0:0:0:
