osu file format v13

[General]
AudioFilename: Tokyo Ghoul Full Opening -unravel- Vietsub.mp3
AudioLeadIn: 0
PreviewTime: -1
Countdown: 0
SampleSet: Normal
StackLeniency: 0.7
Mode: 0
LetterboxInBreaks: 0
SkinPreference:Tokyo Ghoul
WidescreenStoryboard: 0

[Editor]
DistanceSpacing: 0.8
BeatDivisor: 1
GridSize: 32
TimelineZoom: 1

[Metadata]
Title:Unravel
TitleUnicode:Unravel
Artist:TK from Ling Tosite Sigure
ArtistUnicode:TK from Ling Tosite Sigure
Creator:Pkcarreno
Version:Normal
Source:Tokyo Ghoul
Tags:tokyo ghoul
BeatmapID:575277
BeatmapSetID:250349

[Difficulty]
HPDrainRate:5
CircleSize:4
OverallDifficulty:5
ApproachRate:5
SliderMultiplier:1.4
SliderTickRate:4

[Events]
//Background and Video events
0,0,"Tokyo Ghoul.jpg",0,0
//Break Periods
//Storyboard Layer 0 (Background)
//Storyboard Layer 1 (Fail)
//Storyboard Layer 2 (Pass)
//Storyboard Layer 3 (Foreground)
//Storyboard Sound Samples

[TimingPoints]
1100.79233743687,750,4,1,0,100,1,0
9094,666.666666666667,4,1,0,100,1,0
27760,333.333333333333,4,1,0,100,1,0
88914,750,4,1,0,100,1,0
102414,300,4,1,0,100,1,0
145614,461.538461538462,4,1,0,100,1,0
158998,300,4,1,0,100,1,0
209698,750,4,1,0,100,1,0

[HitObjects]
64,192,8600,5,0,0:0:0:0:
320,192,8600,1,0,0:0:0:0:
192,192,9760,1,0,0:0:0:0:
448,192,9760,1,0,0:0:0:0:
448,192,10427,1,0,0:0:0:0:
192,192,11094,1,0,0:0:0:0:
64,192,11094,1,0,0:0:0:0:
320,192,11094,1,0,0:0:0:0:
320,192,11760,1,0,0:0:0:0:
448,192,12427,1,0,0:0:0:0:
192,192,13094,1,0,0:0:0:0:
64,192,13094,1,0,0:0:0:0:
320,192,13760,1,0,0:0:0:0:
448,192,14427,1,0,0:0:0:0:
320,192,14427,1,0,0:0:0:0:
192,192,14427,1,0,0:0:0:0:
64,192,15760,1,0,0:0:0:0:
320,192,15760,1,0,0:0:0:0:
192,192,16427,1,0,0:0:0:0:
64,192,17094,1,0,0:0:0:0:
320,192,17094,1,0,0:0:0:0:
192,192,17760,1,0,0:0:0:0:
192,192,18427,1,0,0:0:0:0:
64,192,18427,1,0,0:0:0:0:
192,192,19094,1,0,0:0:0:0:
64,192,19760,1,0,0:0:0:0:
320,192,19760,1,0,0:0:0:0:
192,192,20427,1,0,0:0:0:0:
448,192,21094,1,0,0:0:0:0:
192,192,21094,1,0,0:0:0:0:
192,192,21760,1,0,0:0:0:0:
448,192,21760,128,0,23094:0:0:0:0:
64,192,22427,1,0,0:0:0:0:
192,192,23094,1,0,0:0:0:0:
320,192,23760,1,0,0:0:0:0:
448,192,23760,1,0,0:0:0:0:
64,192,24427,1,0,0:0:0:0:
192,192,25094,1,0,0:0:0:0:
448,192,25760,1,0,0:0:0:0:
320,192,25760,1,0,0:0:0:0:
448,192,26427,1,0,0:0:0:0:
320,192,26427,1,0,0:0:0:0:
64,192,27094,1,0,0:0:0:0:
192,192,27760,1,0,0:0:0:0:
64,192,27760,1,0,0:0:0:0:
320,192,28093,1,0,0:0:0:0:
192,192,28093,1,0,0:0:0:0:
448,192,28093,1,0,0:0:0:0:
64,192,28426,1,0,0:0:0:0:
192,192,29093,1,0,0:0:0:0:
64,192,29426,1,0,0:0:0:0:
320,192,29426,1,0,0:0:0:0:
192,192,29759,1,0,0:0:0:0:
448,192,29759,1,0,0:0:0:0:
448,192,30093,1,0,0:0:0:0:
320,192,30426,1,0,0:0:0:0:
192,192,30759,1,0,0:0:0:0:
64,192,31093,1,0,0:0:0:0:
192,192,31426,1,0,0:0:0:0:
320,192,31426,1,0,0:0:0:0:
320,192,31759,1,0,0:0:0:0:
448,192,31759,1,0,0:0:0:0:
448,192,32093,1,0,0:0:0:0:
320,192,32093,1,0,0:0:0:0:
320,192,32426,1,0,0:0:0:0:
192,192,32759,1,0,0:0:0:0:
64,192,33093,1,0,0:0:0:0:
192,192,33093,1,0,0:0:0:0:
192,192,33426,1,0,0:0:0:0:
320,192,33426,1,0,0:0:0:0:
448,192,33759,1,0,0:0:0:0:
320,192,34093,128,0,34426:0:0:0:0:
448,192,34426,1,0,0:0:0:0:
320,192,34759,128,0,35093:0:0:0:0:
448,192,35093,1,0,0:0:0:0:
320,192,35426,1,0,0:0:0:0:
448,192,35759,1,0,0:0:0:0:
320,192,36093,1,0,0:0:0:0:
448,192,36426,1,0,0:0:0:0:
320,192,36759,1,0,0:0:0:0:
448,192,36759,128,0,37093:0:0:0:0:
320,192,37426,1,0,0:0:0:0:
448,192,37759,1,0,0:0:0:0:
320,192,38093,1,0,0:0:0:0:
192,192,38426,1,0,0:0:0:0:
320,192,38759,1,0,0:0:0:0:
192,192,39093,128,0,39426:0:0:0:0:
320,192,39426,1,0,0:0:0:0:
192,192,39759,128,0,40093:0:0:0:0:
320,192,40093,1,0,0:0:0:0:
320,192,40426,1,0,0:0:0:0:
192,192,40759,1,0,0:0:0:0:
64,192,41093,1,0,0:0:0:0:
192,192,41426,1,0,0:0:0:0:
320,192,41759,1,0,0:0:0:0:
448,192,42093,1,0,0:0:0:0:
320,192,42426,1,0,0:0:0:0:
192,192,42759,1,0,0:0:0:0:
64,192,43093,1,0,0:0:0:0:
192,192,43426,1,0,0:0:0:0:
320,192,43426,1,0,0:0:0:0:
448,192,43759,1,0,0:0:0:0:
320,192,44093,1,0,0:0:0:0:
192,192,44093,1,0,0:0:0:0:
64,192,44426,1,0,0:0:0:0:
192,192,44759,1,0,0:0:0:0:
320,192,44759,1,0,0:0:0:0:
448,192,44759,1,0,0:0:0:0:
320,192,45093,1,0,0:0:0:0:
64,192,45093,1,0,0:0:0:0:
192,192,45426,1,0,0:0:0:0:
64,192,45759,1,0,0:0:0:0:
448,192,45759,1,0,0:0:0:0:
320,192,46093,1,0,0:0:0:0:
64,192,46093,1,0,0:0:0:0:
192,192,46426,1,0,0:0:0:0:
448,192,46759,1,0,0:0:0:0:
192,192,46759,1,0,0:0:0:0:
64,192,47093,1,0,0:0:0:0:
320,192,47426,1,0,0:0:0:0:
320,192,48093,1,0,0:0:0:0:
64,192,48759,1,0,0:0:0:0:
448,192,48759,1,0,0:0:0:0:
320,192,49093,1,0,0:0:0:0:
192,192,49093,1,0,0:0:0:0:
320,192,49426,1,0,0:0:0:0:
448,192,49759,1,0,0:0:0:0:
448,192,50093,1,0,0:0:0:0:
320,192,50426,1,0,0:0:0:0:
192,192,50759,1,0,0:0:0:0:
320,192,51093,1,0,0:0:0:0:
448,192,51426,1,0,0:0:0:0:
320,192,51759,1,0,0:0:0:0:
192,192,52093,1,0,0:0:0:0:
192,192,52426,1,0,0:0:0:0:
320,192,52759,1,0,0:0:0:0:
192,192,53093,1,0,0:0:0:0:
64,192,53426,1,0,0:0:0:0:
320,192,53759,1,0,0:0:0:0:
448,192,54093,1,0,0:0:0:0:
192,192,54426,1,0,0:0:0:0:
64,192,54759,1,0,0:0:0:0:
320,192,55093,1,0,0:0:0:0:
448,192,55426,1,0,0:0:0:0:
448,192,55759,1,0,0:0:0:0:
320,192,55759,1,0,0:0:0:0:
192,192,56093,1,0,0:0:0:0:
64,192,56093,1,0,0:0:0:0:
448,192,56426,1,0,0:0:0:0:
192,192,56759,1,0,0:0:0:0:
448,192,57093,1,0,0:0:0:0:
192,192,57426,1,0,0:0:0:0:
448,192,57759,1,0,0:0:0:0:
64,192,58093,1,0,0:0:0:0:
320,192,58426,1,0,0:0:0:0:
64,192,58759,1,0,0:0:0:0:
320,192,59093,1,0,0:0:0:0:
192,192,59426,1,0,0:0:0:0:
448,192,59759,1,0,0:0:0:0:
192,192,60093,1,0,0:0:0:0:
64,192,60426,1,0,0:0:0:0:
192,192,60759,1,0,0:0:0:0:
320,192,61093,1,0,0:0:0:0:
192,192,61426,1,0,0:0:0:0:
448,192,61759,1,0,0:0:0:0:
64,192,62093,1,0,0:0:0:0:
192,192,62426,1,0,0:0:0:0:
320,192,62426,1,0,0:0:0:0:
64,192,62759,1,0,0:0:0:0:
448,192,62759,1,0,0:0:0:0:
192,192,63093,1,0,0:0:0:0:
320,192,63093,1,0,0:0:0:0:
192,192,63426,1,0,0:0:0:0:
320,192,63426,1,0,0:0:0:0:
192,192,63759,1,0,0:0:0:0:
320,192,63759,1,0,0:0:0:0:
192,192,64093,1,0,0:0:0:0:
320,192,64093,1,0,0:0:0:0:
192,192,64426,1,0,0:0:0:0:
320,192,64426,1,0,0:0:0:0:
448,192,64759,1,0,0:0:0:0:
192,192,64759,1,0,0:0:0:0:
448,192,65093,1,0,0:0:0:0:
192,192,65093,1,0,0:0:0:0:
64,192,65426,1,0,0:0:0:0:
320,192,65426,1,0,0:0:0:0:
64,192,65759,1,0,0:0:0:0:
320,192,65759,1,0,0:0:0:0:
448,192,66093,1,0,0:0:0:0:
64,192,66093,1,0,0:0:0:0:
64,192,66426,1,0,0:0:0:0:
320,192,66426,1,0,0:0:0:0:
192,192,66759,1,0,0:0:0:0:
64,192,66759,1,0,0:0:0:0:
320,192,67093,1,0,0:0:0:0:
448,192,67093,1,0,0:0:0:0:
192,192,67426,1,0,0:0:0:0:
320,192,67426,1,0,0:0:0:0:
64,192,67759,1,0,0:0:0:0:
320,192,67759,1,0,0:0:0:0:
64,192,68093,1,0,0:0:0:0:
448,192,68093,1,0,0:0:0:0:
64,192,68426,1,0,0:0:0:0:
192,192,68426,1,0,0:0:0:0:
64,192,68759,1,0,0:0:0:0:
448,192,68759,1,0,0:0:0:0:
192,192,69093,1,0,0:0:0:0:
320,192,69093,1,0,0:0:0:0:
448,192,69093,1,0,0:0:0:0:
320,192,69426,1,0,0:0:0:0:
192,192,69426,1,0,0:0:0:0:
448,192,69759,1,0,0:0:0:0:
192,192,69759,1,0,0:0:0:0:
64,192,70093,1,0,0:0:0:0:
192,192,70093,1,0,0:0:0:0:
448,192,70426,1,0,0:0:0:0:
320,192,70426,1,0,0:0:0:0:
320,192,70759,1,0,0:0:0:0:
192,192,70759,1,0,0:0:0:0:
320,192,71093,1,0,0:0:0:0:
192,192,71093,1,0,0:0:0:0:
448,192,71426,1,0,0:0:0:0:
320,192,71426,1,0,0:0:0:0:
448,192,71759,1,0,0:0:0:0:
320,192,71759,1,0,0:0:0:0:
64,192,71759,1,0,0:0:0:0:
64,192,72093,1,0,0:0:0:0:
320,192,72093,1,0,0:0:0:0:
448,192,72426,1,0,0:0:0:0:
320,192,72426,1,0,0:0:0:0:
64,192,72426,1,0,0:0:0:0:
64,192,72759,1,0,0:0:0:0:
320,192,72759,1,0,0:0:0:0:
448,192,72759,1,0,0:0:0:0:
448,192,73093,1,0,0:0:0:0:
320,192,73093,1,0,0:0:0:0:
64,192,73426,1,0,0:0:0:0:
448,192,73759,1,0,0:0:0:0:
64,192,73759,1,0,0:0:0:0:
64,192,74093,1,0,0:0:0:0:
192,192,74426,1,0,0:0:0:0:
320,192,74426,1,0,0:0:0:0:
64,192,74426,128,0,75093:0:0:0:0:
448,192,74759,1,0,0:0:0:0:
320,192,75093,1,0,0:0:0:0:
448,192,75426,1,0,0:0:0:0:
320,192,75426,1,0,0:0:0:0:
320,192,76093,1,0,0:0:0:0:
192,192,76093,1,0,0:0:0:0:
64,192,76426,1,0,0:0:0:0:
192,192,77093,1,0,0:0:0:0:
320,192,77426,1,0,0:0:0:0:
64,192,77759,1,0,0:0:0:0:
320,192,78093,1,0,0:0:0:0:
64,192,78426,1,0,0:0:0:0:
448,192,78759,1,0,0:0:0:0:
320,192,78759,1,0,0:0:0:0:
192,192,79093,1,0,0:0:0:0:
64,192,79426,1,0,0:0:0:0:
448,192,79759,1,0,0:0:0:0:
192,192,80426,1,0,0:0:0:0:
448,192,80759,1,0,0:0:0:0:
64,192,81093,1,0,0:0:0:0:
320,192,81426,1,0,0:0:0:0:
320,192,82093,1,0,0:0:0:0:
192,192,82093,1,0,0:0:0:0:
448,192,82426,1,0,0:0:0:0:
192,192,83093,1,0,0:0:0:0:
192,192,83759,1,0,0:0:0:0:
192,192,84093,1,0,0:0:0:0:
320,192,84426,1,0,0:0:0:0:
192,192,84759,1,0,0:0:0:0:
320,192,84759,1,0,0:0:0:0:
64,192,85093,1,0,0:0:0:0:
320,192,85426,1,0,0:0:0:0:
448,192,85759,1,0,0:0:0:0:
64,192,86093,1,0,0:0:0:0:
320,192,86093,1,0,0:0:0:0:
448,192,86426,1,0,0:0:0:0:
192,192,86426,1,0,0:0:0:0:
320,192,86759,1,0,0:0:0:0:
192,192,87093,1,0,0:0:0:0:
448,192,87426,1,0,0:0:0:0:
64,192,87759,1,0,0:0:0:0:
320,192,87759,1,0,0:0:0:0:
64,192,88093,1,0,0:0:0:0:
320,192,88426,1,0,0:0:0:0:
448,192,88426,1,0,0:0:0:0:
192,192,88759,1,0,0:0:0:0:
64,192,88914,1,0,0:0:0:0:
192,192,89664,1,0,0:0:0:0:
320,192,90414,1,0,0:0:0:0:
192,192,91164,1,0,0:0:0:0:
320,192,91914,1,0,0:0:0:0:
192,192,92664,1,0,0:0:0:0:
320,192,93414,1,0,0:0:0:0:
192,192,94164,1,0,0:0:0:0:
320,192,94914,1,0,0:0:0:0:
192,192,95664,1,0,0:0:0:0:
320,192,95664,1,0,0:0:0:0:
320,192,96414,1,0,0:0:0:0:
192,192,97164,1,0,0:0:0:0:
320,192,97914,1,0,0:0:0:0:
192,192,98664,1,0,0:0:0:0:
320,192,99414,1,0,0:0:0:0:
192,192,100164,1,0,0:0:0:0:
320,192,100914,1,0,0:0:0:0:
192,192,101664,1,0,0:0:0:0:
320,192,102414,1,0,0:0:0:0:
192,192,102714,1,0,0:0:0:0:
64,192,103014,1,0,0:0:0:0:
64,192,103314,128,0,103914:0:0:0:0:
192,192,103614,128,0,104214:0:0:0:0:
320,192,103914,128,0,104514:0:0:0:0:
448,192,104214,128,0,104814:0:0:0:0:
64,192,104814,128,0,105414:0:0:0:0:
192,192,105114,128,0,105714:0:0:0:0:
320,192,105414,128,0,106014:0:0:0:0:
448,192,105714,128,0,106314:0:0:0:0:
64,192,106314,128,0,106914:0:0:0:0:
192,192,106614,128,0,107214:0:0:0:0:
320,192,106914,128,0,107514:0:0:0:0:
448,192,107214,128,0,107814:0:0:0:0:
64,192,108114,1,0,0:0:0:0:
192,192,108114,128,0,108714:0:0:0:0:
448,192,108414,128,0,109014:0:0:0:0:
64,192,109014,128,0,109614:0:0:0:0:
192,192,109014,128,0,109614:0:0:0:0:
320,192,109914,128,0,110514:0:0:0:0:
64,192,110214,128,0,111114:0:0:0:0:
448,192,111114,128,0,111714:0:0:0:0:
192,192,111414,128,0,112014:0:0:0:0:
64,192,112014,128,0,112614:0:0:0:0:
320,192,112014,128,0,112614:0:0:0:0:
448,192,112614,128,0,113814:0:0:0:0:
64,192,113514,128,0,114714:0:0:0:0:
448,192,114414,1,0,0:0:0:0:
192,192,114414,1,0,0:0:0:0:
192,192,114714,1,0,0:0:0:0:
320,192,115014,1,0,0:0:0:0:
64,192,115314,1,0,0:0:0:0:
320,192,115314,1,0,0:0:0:0:
448,192,115614,1,0,0:0:0:0:
64,192,115614,1,0,0:0:0:0:
320,192,115914,1,0,0:0:0:0:
192,192,115914,1,0,0:0:0:0:
64,192,115914,128,0,118014:0:0:0:0:
320,192,116214,1,0,0:0:0:0:
448,192,116814,1,0,0:0:0:0:
320,192,117414,1,0,0:0:0:0:
448,192,117714,1,0,0:0:0:0:
192,192,118014,1,0,0:0:0:0:
448,192,118014,1,0,0:0:0:0:
320,192,118014,1,0,0:0:0:0:
64,192,118614,1,0,0:0:0:0:
448,192,118614,1,0,0:0:0:0:
192,192,118914,1,0,0:0:0:0:
64,192,119514,1,0,0:0:0:0:
448,192,119514,1,0,0:0:0:0:
192,192,119514,1,0,0:0:0:0:
192,192,119814,1,0,0:0:0:0:
448,192,119814,1,0,0:0:0:0:
64,192,120114,1,0,0:0:0:0:
448,192,120114,1,0,0:0:0:0:
320,192,120114,1,0,0:0:0:0:
64,192,120414,1,0,0:0:0:0:
448,192,120714,1,0,0:0:0:0:
192,192,120714,1,0,0:0:0:0:
320,192,121014,1,0,0:0:0:0:
64,192,121014,1,0,0:0:0:0:
448,192,121314,1,0,0:0:0:0:
192,192,121314,1,0,0:0:0:0:
64,192,121314,1,0,0:0:0:0:
320,192,121614,1,0,0:0:0:0:
64,192,121614,1,0,0:0:0:0:
448,192,121914,1,0,0:0:0:0:
64,192,121914,1,0,0:0:0:0:
320,192,121914,1,0,0:0:0:0:
320,192,122214,1,0,0:0:0:0:
64,192,122214,1,0,0:0:0:0:
320,192,122514,1,0,0:0:0:0:
448,192,122814,1,0,0:0:0:0:
320,192,122814,1,0,0:0:0:0:
64,192,123114,1,0,0:0:0:0:
192,192,123114,1,0,0:0:0:0:
448,192,123114,1,0,0:0:0:0:
192,192,123414,1,0,0:0:0:0:
448,192,123414,1,0,0:0:0:0:
448,192,123714,1,0,0:0:0:0:
192,192,123714,1,0,0:0:0:0:
192,192,124014,1,0,0:0:0:0:
320,192,124014,1,0,0:0:0:0:
192,192,124314,1,0,0:0:0:0:
320,192,124314,1,0,0:0:0:0:
64,192,124614,1,0,0:0:0:0:
448,192,124614,1,0,0:0:0:0:
64,192,124914,1,0,0:0:0:0:
192,192,124914,1,0,0:0:0:0:
320,192,124914,1,0,0:0:0:0:
448,192,125214,1,0,0:0:0:0:
192,192,125214,1,0,0:0:0:0:
320,192,125514,1,0,0:0:0:0:
192,192,125514,1,0,0:0:0:0:
64,192,125814,1,0,0:0:0:0:
320,192,126114,1,0,0:0:0:0:
64,192,126414,1,0,0:0:0:0:
192,192,126714,1,0,0:0:0:0:
192,192,127014,1,0,0:0:0:0:
192,192,127314,1,0,0:0:0:0:
64,192,127614,1,0,0:0:0:0:
192,192,127914,1,0,0:0:0:0:
64,192,127914,1,0,0:0:0:0:
64,192,128214,1,0,0:0:0:0:
320,192,128514,1,0,0:0:0:0:
64,192,128814,1,0,0:0:0:0:
448,192,128814,1,0,0:0:0:0:
64,192,129114,1,0,0:0:0:0:
192,192,129114,1,0,0:0:0:0:
320,192,129414,1,0,0:0:0:0:
192,192,129414,1,0,0:0:0:0:
320,192,129714,1,0,0:0:0:0:
64,192,130014,1,0,0:0:0:0:
320,192,130014,1,0,0:0:0:0:
448,192,130314,1,0,0:0:0:0:
448,192,130614,1,0,0:0:0:0:
192,192,130614,1,0,0:0:0:0:
192,192,130914,1,0,0:0:0:0:
320,192,130914,1,0,0:0:0:0:
64,192,131514,1,0,0:0:0:0:
448,192,131514,1,0,0:0:0:0:
320,192,131814,1,0,0:0:0:0:
448,192,131814,1,0,0:0:0:0:
64,192,132114,1,0,0:0:0:0:
320,192,132714,1,0,0:0:0:0:
64,192,132714,1,0,0:0:0:0:
320,192,133014,1,0,0:0:0:0:
192,192,133614,1,0,0:0:0:0:
448,192,133914,1,0,0:0:0:0:
192,192,134214,1,0,0:0:0:0:
64,192,134814,1,0,0:0:0:0:
320,192,135414,1,0,0:0:0:0:
192,192,135714,1,0,0:0:0:0:
448,192,136314,1,0,0:0:0:0:
64,192,136614,1,0,0:0:0:0:
320,192,136914,1,0,0:0:0:0:
64,192,137214,1,0,0:0:0:0:
448,192,137514,1,0,0:0:0:0:
192,192,137814,1,0,0:0:0:0:
320,192,138114,1,0,0:0:0:0:
192,192,138114,1,0,0:0:0:0:
448,192,138714,1,0,0:0:0:0:
192,192,139014,1,0,0:0:0:0:
64,192,139314,1,0,0:0:0:0:
320,192,139614,1,0,0:0:0:0:
192,192,139914,1,0,0:0:0:0:
320,192,140214,1,0,0:0:0:0:
64,192,140514,1,0,0:0:0:0:
448,192,140814,1,0,0:0:0:0:
448,192,141114,1,0,0:0:0:0:
64,192,141114,1,0,0:0:0:0:
320,192,141414,1,0,0:0:0:0:
320,192,141714,1,0,0:0:0:0:
320,192,142014,1,0,0:0:0:0:
64,192,142014,1,0,0:0:0:0:
320,192,142314,1,0,0:0:0:0:
64,192,142614,1,0,0:0:0:0:
448,192,142914,1,0,0:0:0:0:
64,192,142914,1,0,0:0:0:0:
448,192,143214,1,0,0:0:0:0:
320,192,143514,1,0,0:0:0:0:
448,192,143814,1,0,0:0:0:0:
320,192,143814,1,0,0:0:0:0:
192,192,144114,1,0,0:0:0:0:
320,192,144414,1,0,0:0:0:0:
64,192,144414,1,0,0:0:0:0:
448,192,144414,1,0,0:0:0:0:
448,192,144714,1,0,0:0:0:0:
320,192,145014,1,0,0:0:0:0:
192,192,145314,1,0,0:0:0:0:
64,192,145314,1,0,0:0:0:0:
320,192,145614,1,0,0:0:0:0:
320,192,146075,1,0,0:0:0:0:
448,192,146075,1,0,0:0:0:0:
192,192,146537,1,0,0:0:0:0:
448,192,146537,1,0,0:0:0:0:
192,192,146998,1,0,0:0:0:0:
448,192,147460,1,0,0:0:0:0:
64,192,147921,1,0,0:0:0:0:
448,192,148844,1,0,0:0:0:0:
192,192,149306,1,0,0:0:0:0:
320,192,149767,1,0,0:0:0:0:
64,192,150229,1,0,0:0:0:0:
320,192,150690,1,0,0:0:0:0:
64,192,150690,1,0,0:0:0:0:
448,192,151152,1,0,0:0:0:0:
64,192,151614,1,0,0:0:0:0:
448,192,152075,1,0,0:0:0:0:
64,192,152537,1,0,0:0:0:0:
320,192,152537,1,0,0:0:0:0:
192,192,152998,1,0,0:0:0:0:
448,192,152998,1,0,0:0:0:0:
192,192,153460,1,0,0:0:0:0:
448,192,153460,1,0,0:0:0:0:
448,192,154383,1,0,0:0:0:0:
64,192,154383,1,0,0:0:0:0:
320,192,154844,1,0,0:0:0:0:
448,192,155306,1,0,0:0:0:0:
64,192,155306,1,0,0:0:0:0:
448,192,155767,1,0,0:0:0:0:
64,192,156229,1,0,0:0:0:0:
448,192,156229,1,0,0:0:0:0:
64,192,156690,1,0,0:0:0:0:
64,192,157152,1,0,0:0:0:0:
320,192,157152,1,0,0:0:0:0:
192,192,157614,1,0,0:0:0:0:
448,192,157614,1,0,0:0:0:0:
192,192,158075,1,0,0:0:0:0:
448,192,158075,1,0,0:0:0:0:
192,192,158537,1,0,0:0:0:0:
448,192,158998,1,0,0:0:0:0:
192,192,158998,1,0,0:0:0:0:
320,192,159298,1,0,0:0:0:0:
64,192,159298,1,0,0:0:0:0:
320,192,159598,1,0,0:0:0:0:
64,192,159898,1,0,0:0:0:0:
320,192,160498,1,0,0:0:0:0:
192,192,160498,1,0,0:0:0:0:
448,192,160798,1,0,0:0:0:0:
320,192,161098,1,0,0:0:0:0:
192,192,161398,1,0,0:0:0:0:
320,192,161398,1,0,0:0:0:0:
64,192,161698,1,0,0:0:0:0:
192,192,161998,1,0,0:0:0:0:
448,192,162298,128,0,163198:0:0:0:0:
320,192,162598,1,0,0:0:0:0:
64,192,162898,1,0,0:0:0:0:
192,192,163198,1,0,0:0:0:0:
448,192,163498,1,0,0:0:0:0:
64,192,163498,1,0,0:0:0:0:
192,192,164098,128,0,164698:0:0:0:0:
320,192,164698,128,0,164998:0:0:0:0:
64,192,165298,1,0,0:0:0:0:
448,192,165898,128,0,166498:0:0:0:0:
192,192,166198,128,0,167098:0:0:0:0:
448,192,167098,128,0,167998:0:0:0:0:
64,192,167698,128,0,168598:0:0:0:0:
320,192,168298,128,0,169198:0:0:0:0:
192,192,168898,128,0,169798:0:0:0:0:
64,192,170098,128,0,170698:0:0:0:0:
448,192,170398,128,0,171298:0:0:0:0:
64,192,171298,128,0,171898:0:0:0:0:
192,192,171898,128,0,172498:0:0:0:0:
448,192,172498,128,0,173398:0:0:0:0:
64,192,173398,128,0,173998:0:0:0:0:
320,192,173998,128,0,174898:0:0:0:0:
64,192,174898,128,0,175498:0:0:0:0:
448,192,175498,128,0,176098:0:0:0:0:
64,192,176098,128,0,176698:0:0:0:0:
320,192,176698,128,0,177598:0:0:0:0:
64,192,177298,128,0,178198:0:0:0:0:
320,192,178198,128,0,178798:0:0:0:0:
64,192,178498,128,0,179398:0:0:0:0:
320,192,179398,128,0,180298:0:0:0:0:
64,192,179998,128,0,180898:0:0:0:0:
320,192,180598,128,0,181498:0:0:0:0:
64,192,181198,128,0,181798:0:0:0:0:
448,192,182098,128,0,182698:0:0:0:0:
192,192,182998,128,0,183898:0:0:0:0:
448,192,183598,128,0,184498:0:0:0:0:
192,192,184498,128,0,185098:0:0:0:0:
448,192,184798,128,0,185698:0:0:0:0:
192,192,185698,128,0,186598:0:0:0:0:
448,192,186298,128,0,187198:0:0:0:0:
192,192,187198,128,0,187798:0:0:0:0:
448,192,187798,128,0,188698:0:0:0:0:
192,192,188698,128,0,189298:0:0:0:0:
448,192,189298,128,0,189898:0:0:0:0:
64,192,189598,128,0,190498:0:0:0:0:
64,192,191398,1,0,0:0:0:0:
320,192,191698,1,0,0:0:0:0:
448,192,191698,1,0,0:0:0:0:
192,192,192298,1,0,0:0:0:0:
320,192,192298,1,0,0:0:0:0:
320,192,192598,1,0,0:0:0:0:
192,192,192598,1,0,0:0:0:0:
320,192,192898,1,0,0:0:0:0:
448,192,193198,1,0,0:0:0:0:
448,192,193798,1,0,0:0:0:0:
64,192,193798,1,0,0:0:0:0:
448,192,194398,1,0,0:0:0:0:
320,192,194398,1,0,0:0:0:0:
448,192,194998,1,0,0:0:0:0:
64,192,194998,1,0,0:0:0:0:
320,192,195298,1,0,0:0:0:0:
320,192,195598,1,0,0:0:0:0:
192,192,195898,1,0,0:0:0:0:
448,192,196198,1,0,0:0:0:0:
64,192,196198,1,0,0:0:0:0:
320,192,196798,1,0,0:0:0:0:
448,192,197098,1,0,0:0:0:0:
64,192,197098,1,0,0:0:0:0:
320,192,197398,1,0,0:0:0:0:
64,192,197398,1,0,0:0:0:0:
320,192,197998,1,0,0:0:0:0:
320,192,198298,1,0,0:0:0:0:
448,192,198598,1,0,0:0:0:0:
64,192,198598,1,0,0:0:0:0:
192,192,198898,1,0,0:0:0:0:
320,192,199198,1,0,0:0:0:0:
192,192,199198,1,0,0:0:0:0:
448,192,199498,1,0,0:0:0:0:
320,192,199798,1,0,0:0:0:0:
192,192,199798,1,0,0:0:0:0:
448,192,200098,1,0,0:0:0:0:
320,192,200698,1,0,0:0:0:0:
448,192,200998,1,0,0:0:0:0:
64,192,200998,1,0,0:0:0:0:
192,192,201298,1,0,0:0:0:0:
320,192,201598,1,0,0:0:0:0:
64,192,201598,1,0,0:0:0:0:
320,192,201898,1,0,0:0:0:0:
320,192,202198,1,0,0:0:0:0:
320,192,202498,1,0,0:0:0:0:
64,192,202498,1,0,0:0:0:0:
192,192,202798,1,0,0:0:0:0:
320,192,203098,1,0,0:0:0:0:
448,192,203398,1,0,0:0:0:0:
192,192,203698,1,0,0:0:0:0:
192,192,203998,1,0,0:0:0:0:
320,192,204298,1,0,0:0:0:0:
64,192,204298,1,0,0:0:0:0:
448,192,204598,1,0,0:0:0:0:
320,192,204898,1,0,0:0:0:0:
192,192,205198,1,0,0:0:0:0:
448,192,205498,1,0,0:0:0:0:
64,192,205498,1,0,0:0:0:0:
64,192,205798,1,0,0:0:0:0:
320,192,206098,1,0,0:0:0:0:
192,192,206398,1,0,0:0:0:0:
448,192,206698,1,0,0:0:0:0:
192,192,206698,1,0,0:0:0:0:
320,192,206998,1,0,0:0:0:0:
320,192,207298,1,0,0:0:0:0:
192,192,207598,1,0,0:0:0:0:
448,192,207898,1,0,0:0:0:0:
64,192,207898,1,0,0:0:0:0:
448,192,208198,1,0,0:0:0:0:
192,192,208498,1,0,0:0:0:0:
448,192,208798,1,0,0:0:0:0:
64,192,208798,1,0,0:0:0:0:
448,192,209098,1,0,0:0:0:0:
64,192,209098,1,0,0:0:0:0:
64,192,210448,1,0,0:0:0:0:
448,192,210448,1,0,0:0:0:0:
192,192,211198,1,0,0:0:0:0:
320,192,211198,1,0,0:0:0:0:
448,192,211948,1,0,0:0:0:0:
64,192,211948,1,0,0:0:0:0:
320,192,212698,1,0,0:0:0:0:
192,192,212698,1,0,0:0:0:0:
448,192,213448,1,0,0:0:0:0:
64,192,213448,1,0,0:0:0:0:
320,192,214198,1,0,0:0:0:0:
192,192,214198,1,0,0:0:0:0:
448,192,214948,1,0,0:0:0:0:
64,192,214948,1,0,0:0:0:0:
320,192,215698,1,0,0:0:0:0:
192,192,215698,1,0,0:0:0:0:
448,192,216448,1,0,0:0:0:0:
64,192,216448,1,0,0:0:0:0:
320,192,217198,1,0,0:0:0:0:
192,192,217198,1,0,0:0:0:0:
64,192,217198,1,0,0:0:0:0:
448,192,217948,1,0,0:0:0:0:
64,192,217948,1,0,0:0:0:0:
64,192,218698,1,0,0:0:0:0:
320,192,218698,1,0,0:0:0:0:
192,192,218698,1,0,0:0:0:0:
64,192,219448,1,0,0:0:0:0:
192,192,219448,1,0,0:0:0:0:
320,192,219448,1,0,0:0:0:0:
448,192,220198,1,0,0:0:0:0:
64,192,220198,1,0,0:0:0:0:
320,192,220948,1,0,0:0:0:0:
192,192,220948,1,0,0:0:0:0:
64,192,220948,1,0,0:0:0:0:
448,192,221698,1,0,0:0:0:0:
64,192,221698,1,0,0:0:0:0:
320,192,222448,1,0,0:0:0:0:
192,192,222448,1,0,0:0:0:0:
64,192,222448,1,0,0:0:0:0:
448,192,223198,1,0,0:0:0:0:
64,192,223198,1,0,0:0:0:0:
320,192,223948,1,0,0:0:0:0:
192,192,223948,1,0,0:0:0:0:
64,192,223948,1,0,0:0:0:0:
448,192,224698,1,0,0:0:0:0:
64,192,224698,1,0,0:0:0:0:
320,192,225448,1,0,0:0:0:0:
192,192,225448,1,0,0:0:0:0:
64,192,225448,1,0,0:0:0:0:
448,192,226198,1,0,0:0:0:0:
64,192,226198,1,0,0:0:0:0:
320,192,226948,1,0,0:0:0:0:
192,192,226948,1,0,0:0:0:0:
64,192,226948,1,0,0:0:0:0:
448,192,227698,1,0,0:0:0:0:
64,192,227698,1,0,0:0:0:0:
64,192,229198,1,0,0:0:0:0:
192,192,229948,1,0,0:0:0:0:
320,192,229948,1,0,0:0:0:0:
320,192,230698,1,0,0:0:0:0:
448,192,231448,1,0,0:0:0:0:
192,192,232198,1,0,0:0:0:0:
320,192,232198,1,0,0:0:0:0:
64,192,232198,128,0,235198:0:0:0:0:
