osu file format v13

[General]
AudioFilename: Tokyo Ghoul OP - Unravel Lyrics Full.mp3
AudioLeadIn: 0
PreviewTime: -1
Countdown: 0
SampleSet: Normal
StackLeniency: 0.7
Mode: 3
LetterboxInBreaks: 1
CountdownOffset: 3
SpecialStyle: 0
WidescreenStoryboard: 1

[Editor]
Bookmarks: 85003
DistanceSpacing: 1
BeatDivisor: 8
GridSize: 4
TimelineZoom: 2.799999

[Metadata]
Title:Tokyo Ghoul - Unravel
TitleUnicode:Tokyo Ghoul - Unravel
Artist:TK
ArtistUnicode:TK
Creator:rainingsky1412
Version:Kaneki First Encounter
Source:Tokyo Ghoul
Tags:Tokyo Ghoul Unravel
BeatmapID:553450
BeatmapSetID:239414

[Difficulty]
HPDrainRate:4.5
CircleSize:4
OverallDifficulty:3
ApproachRate:5
SliderMultiplier:1.23000000596046
SliderTickRate:1

[Events]
//Background and Video events
0,0,"Kaneki With Logo.jpg",0,0
//Break Periods
2,24633,28548
2,88412,101302
2,152692,157459
2,184381,197321
//Storyboard Layer 0 (Background)
//Storyboard Layer 1 (Fail)
//Storyboard Layer 2 (Pass)
//Storyboard Layer 3 (Foreground)
//Storyboard Sound Samples
//Background Colour Transformations
3,100,163,162,255

[TimingPoints]
8489,401.123144805455,4,1,0,100,1,0
8489,-100,4,1,0,100,0,0

[HitObjects]
51,192,8489,5,4,0:0:0:0:
153,192,8489,1,4,0:0:0:0:
51,192,11998,1,4,0:0:0:0:
153,192,11998,1,4,0:0:0:0:
460,192,15508,1,4,0:0:0:0:
358,192,15508,1,4,0:0:0:0:
460,192,19118,1,4,0:0:0:0:
358,192,19118,1,4,0:0:0:0:
51,192,22628,1,4,0:0:0:0:
460,192,22628,1,4,0:0:0:0:
460,192,24433,1,4,0:0:0:0:
51,192,24433,1,4,0:0:0:0:
256,192,29748,5,4,0:0:0:0:
192,192,29748,1,0,0:0:0:0:
51,192,33358,1,4,0:0:0:0:
460,192,33759,1,4,0:0:0:0:
460,192,35063,1,4,0:0:0:0:
51,192,35514,1,4,0:0:0:0:
51,192,36868,1,4,0:0:0:0:
460,192,37269,1,4,0:0:0:0:
460,192,38573,1,4,0:0:0:0:
51,192,38974,1,4,0:0:0:0:
153,192,40378,1,4,0:0:0:0:
51,192,40378,1,4,0:0:0:0:
358,192,40378,1,4,0:0:0:0:
460,192,40378,1,4,0:0:0:0:
153,192,42183,1,4,0:0:0:0:
64,192,42183,128,0,42885:0:0:0:0:
192,192,42885,1,0,0:0:0:0:
358,192,43988,1,4,0:0:0:0:
448,192,43988,128,0,44690:0:0:0:0:
320,192,44690,1,0,0:0:0:0:
153,192,45743,1,4,0:0:0:0:
64,192,45743,128,0,46445:0:0:0:0:
192,192,46445,1,0,0:0:0:0:
358,192,47498,1,4,0:0:0:0:
448,192,47498,128,0,48200:0:0:0:0:
320,192,48200,1,0,0:0:0:0:
153,192,49303,1,4,0:0:0:0:
64,192,49303,128,0,50005:0:0:0:0:
192,192,50005,1,0,0:0:0:0:
448,192,51008,1,0,0:0:0:0:
192,192,51008,1,4,0:0:0:0:
64,192,51008,1,0,0:0:0:0:
320,192,51008,1,4,0:0:0:0:
64,192,55320,1,0,0:0:0:0:
192,192,55320,1,0,0:0:0:0:
320,192,55320,1,0,0:0:0:0:
448,192,55320,1,0,0:0:0:0:
448,192,56423,1,0,0:0:0:0:
320,192,56874,1,0,0:0:0:0:
192,192,57325,1,0,0:0:0:0:
64,192,57777,1,0,0:0:0:0:
192,192,58228,1,0,0:0:0:0:
320,192,58679,1,0,0:0:0:0:
448,192,59130,1,0,0:0:0:0:
320,192,59582,1,0,0:0:0:0:
192,192,60033,1,0,0:0:0:0:
64,192,60484,1,0,0:0:0:0:
192,192,60935,1,0,0:0:0:0:
320,192,61387,1,0,0:0:0:0:
64,192,61788,1,0,0:0:0:0:
192,192,61788,1,0,0:0:0:0:
320,192,61788,1,0,0:0:0:0:
448,192,61788,1,0,0:0:0:0:
320,192,62690,1,0,0:0:0:0:
192,192,63091,1,0,0:0:0:0:
448,192,63543,1,0,0:0:0:0:
192,192,63894,1,0,0:0:0:0:
192,192,64194,1,0,0:0:0:0:
320,192,64395,1,0,0:0:0:0:
448,192,64746,1,0,0:0:0:0:
64,192,65097,1,0,0:0:0:0:
320,192,65598,1,0,0:0:0:0:
64,192,66050,1,0,0:0:0:0:
320,192,66501,1,0,0:0:0:0:
192,192,67103,1,0,0:0:0:0:
192,192,67454,1,0,0:0:0:0:
448,192,67754,1,0,0:0:0:0:
192,192,68206,1,0,0:0:0:0:
448,192,68607,1,0,0:0:0:0:
192,192,68858,1,0,0:0:0:0:
64,192,69259,1,0,0:0:0:0:
64,192,69610,1,0,0:0:0:0:
448,192,70011,1,0,0:0:0:0:
64,192,70462,1,0,0:0:0:0:
320,192,70663,1,0,0:0:0:0:
448,192,71014,1,0,0:0:0:0:
320,192,71365,1,0,0:0:0:0:
192,192,71766,1,0,0:0:0:0:
320,192,72267,1,0,0:0:0:0:
192,192,72418,1,0,0:0:0:0:
448,192,72919,1,0,0:0:0:0:
448,192,73119,1,0,0:0:0:0:
192,192,73621,1,0,0:0:0:0:
64,192,74072,1,0,0:0:0:0:
448,192,75827,1,0,0:0:0:0:
64,192,76028,1,0,0:0:0:0:
320,192,76328,1,0,0:0:0:0:
448,192,76679,1,0,0:0:0:0:
64,192,77081,1,0,0:0:0:0:
448,192,77682,1,0,0:0:0:0:
64,192,77732,1,0,0:0:0:0:
448,192,78134,1,0,0:0:0:0:
192,192,78434,1,0,0:0:0:0:
448,192,78635,1,0,0:0:0:0:
64,192,78936,1,0,0:0:0:0:
448,192,79287,1,0,0:0:0:0:
192,192,79537,1,0,0:0:0:0:
448,192,79939,1,0,0:0:0:0:
192,192,80239,1,0,0:0:0:0:
320,192,80641,1,0,0:0:0:0:
64,192,81142,1,0,0:0:0:0:
448,192,81242,1,0,0:0:0:0:
448,192,81443,1,0,0:0:0:0:
64,192,81643,1,0,0:0:0:0:
64,192,82044,1,0,0:0:0:0:
320,192,82245,1,0,0:0:0:0:
64,192,82596,1,0,0:0:0:0:
448,192,82897,1,0,0:0:0:0:
192,192,83097,1,0,0:0:0:0:
448,192,83448,1,0,0:0:0:0:
64,192,83799,1,0,0:0:0:0:
192,192,84251,1,0,0:0:0:0:
320,192,84702,1,0,0:0:0:0:
448,192,84902,1,0,0:0:0:0:
192,192,85304,1,0,0:0:0:0:
192,192,85554,1,0,0:0:0:0:
448,192,85805,1,0,0:0:0:0:
320,192,86457,1,0,0:0:0:0:
64,192,86708,1,0,0:0:0:0:
448,192,87159,1,0,0:0:0:0:
64,192,87409,1,0,0:0:0:0:
448,192,87760,1,0,0:0:0:0:
64,192,88212,1,0,0:0:0:0:
64,192,102502,5,0,0:0:0:0:
448,192,102702,1,0,0:0:0:0:
320,192,103003,1,0,0:0:0:0:
64,192,103404,1,0,0:0:0:0:
448,192,103505,1,0,0:0:0:0:
64,192,103805,1,0,0:0:0:0:
448,192,103906,1,0,0:0:0:0:
192,192,104257,1,0,0:0:0:0:
192,192,104457,1,0,0:0:0:0:
64,192,104658,1,0,0:0:0:0:
320,192,104908,1,0,0:0:0:0:
192,192,105159,1,0,0:0:0:0:
320,192,105310,1,0,0:0:0:0:
448,192,105560,1,0,0:0:0:0:
64,192,105610,1,0,0:0:0:0:
64,192,106062,1,0,0:0:0:0:
448,192,106262,1,0,0:0:0:0:
64,192,106413,1,0,0:0:0:0:
64,192,106563,1,0,0:0:0:0:
320,192,106914,1,0,0:0:0:0:
64,192,107165,1,0,0:0:0:0:
320,192,107415,1,0,0:0:0:0:
192,192,107817,1,0,0:0:0:0:
448,192,108117,1,0,0:0:0:0:
192,192,108268,1,0,0:0:0:0:
448,192,108870,1,0,0:0:0:0:
64,192,109170,1,0,0:0:0:0:
448,192,109572,1,8,0:0:0:0:
64,192,110023,1,8,0:0:0:0:
448,192,110474,1,8,0:0:0:0:
64,192,110925,1,8,0:0:0:0:
448,192,111377,1,8,0:0:0:0:
64,192,111828,1,8,0:0:0:0:
448,192,112279,1,8,0:0:0:0:
64,192,112730,1,8,0:0:0:0:
448,192,113182,1,8,0:0:0:0:
64,192,113633,1,8,0:0:0:0:
448,192,114084,1,8,0:0:0:0:
64,192,114535,1,8,0:0:0:0:
448,192,114987,1,8,0:0:0:0:
64,192,115438,1,8,0:0:0:0:
448,192,115839,1,0,0:0:0:0:
192,192,115990,1,4,0:0:0:0:
320,192,115990,1,4,0:0:0:0:
448,192,115990,1,0,0:0:0:0:
64,192,115990,128,4,134541:0:0:0:0:
192,192,120452,128,4,134541:0:0:0:0:
320,192,124012,128,4,134541:0:0:0:0:
448,192,127622,128,4,134541:0:0:0:0:
448,192,134742,1,0,0:0:0:0:
192,192,135043,1,0,0:0:0:0:
320,192,135344,1,0,0:0:0:0:
64,192,135945,1,0,0:0:0:0:
448,192,136246,1,0,0:0:0:0:
448,192,136497,128,0,145121:0:0:0:0:
64,192,136497,1,0,0:0:0:0:
192,192,136497,1,4,0:0:0:0:
320,192,136497,1,4,0:0:0:0:
64,192,136948,1,0,0:0:0:0:
64,192,137399,1,0,0:0:0:0:
64,192,137851,1,0,0:0:0:0:
64,192,138302,1,0,0:0:0:0:
64,192,138753,1,0,0:0:0:0:
64,192,139205,1,0,0:0:0:0:
64,192,139656,1,0,0:0:0:0:
64,192,140057,1,0,0:0:0:0:
64,192,140508,1,0,0:0:0:0:
64,192,140959,1,0,0:0:0:0:
64,192,141411,1,0,0:0:0:0:
64,192,141862,1,0,0:0:0:0:
64,192,142313,1,0,0:0:0:0:
64,192,142764,1,0,0:0:0:0:
64,192,143216,1,0,0:0:0:0:
64,192,143667,1,0,0:0:0:0:
64,192,144118,1,0,0:0:0:0:
64,192,144570,1,0,0:0:0:0:
64,192,145021,1,0,0:0:0:0:
448,192,145322,1,4,0:0:0:0:
320,192,145322,1,4,0:0:0:0:
192,192,145322,1,4,0:0:0:0:
64,192,145322,1,4,0:0:0:0:
448,192,145773,1,4,0:0:0:0:
320,192,146274,1,4,0:0:0:0:
192,192,146726,1,4,0:0:0:0:
64,192,147127,1,4,0:0:0:0:
192,192,147528,1,4,0:0:0:0:
320,192,147979,1,4,0:0:0:0:
448,192,148430,1,4,0:0:0:0:
320,192,148882,1,4,0:0:0:0:
192,192,149333,1,4,0:0:0:0:
64,192,149784,1,4,0:0:0:0:
192,192,150235,1,4,0:0:0:0:
320,192,150687,1,4,0:0:0:0:
448,192,151138,1,4,0:0:0:0:
320,192,151589,1,4,0:0:0:0:
192,192,152040,1,4,0:0:0:0:
64,192,152492,1,4,0:0:0:0:
320,192,158659,5,0,0:0:0:0:
192,192,159060,1,0,0:0:0:0:
448,192,159512,1,0,0:0:0:0:
192,192,159863,1,0,0:0:0:0:
192,192,160163,1,0,0:0:0:0:
320,192,160364,1,0,0:0:0:0:
448,192,160715,1,0,0:0:0:0:
64,192,161066,1,0,0:0:0:0:
320,192,161567,1,0,0:0:0:0:
64,192,162019,1,0,0:0:0:0:
320,192,162470,1,0,0:0:0:0:
192,192,163072,1,0,0:0:0:0:
192,192,163423,1,0,0:0:0:0:
448,192,163723,1,0,0:0:0:0:
192,192,164175,1,0,0:0:0:0:
448,192,164576,1,0,0:0:0:0:
192,192,164827,1,0,0:0:0:0:
64,192,165228,1,0,0:0:0:0:
64,192,165579,1,0,0:0:0:0:
448,192,165980,1,0,0:0:0:0:
64,192,166431,1,0,0:0:0:0:
320,192,166632,1,0,0:0:0:0:
448,192,166983,1,0,0:0:0:0:
320,192,167334,1,0,0:0:0:0:
192,192,167735,1,0,0:0:0:0:
320,192,168236,1,0,0:0:0:0:
192,192,168387,1,0,0:0:0:0:
448,192,168888,1,0,0:0:0:0:
448,192,169088,1,0,0:0:0:0:
192,192,169590,1,0,0:0:0:0:
64,192,170041,1,0,0:0:0:0:
448,192,171796,1,0,0:0:0:0:
64,192,171997,1,0,0:0:0:0:
320,192,172297,1,0,0:0:0:0:
448,192,172648,1,0,0:0:0:0:
64,192,173050,1,0,0:0:0:0:
448,192,173651,1,0,0:0:0:0:
64,192,173701,1,0,0:0:0:0:
448,192,174103,1,0,0:0:0:0:
192,192,174403,1,0,0:0:0:0:
448,192,174604,1,0,0:0:0:0:
64,192,174905,1,0,0:0:0:0:
448,192,175256,1,0,0:0:0:0:
192,192,175506,1,0,0:0:0:0:
448,192,175908,1,0,0:0:0:0:
192,192,176208,1,0,0:0:0:0:
320,192,176610,1,0,0:0:0:0:
64,192,177111,1,0,0:0:0:0:
448,192,177211,1,0,0:0:0:0:
448,192,177412,1,0,0:0:0:0:
64,192,177612,1,0,0:0:0:0:
64,192,178013,1,0,0:0:0:0:
320,192,178214,1,0,0:0:0:0:
64,192,178565,1,0,0:0:0:0:
448,192,178866,1,0,0:0:0:0:
192,192,179066,1,0,0:0:0:0:
448,192,179417,1,0,0:0:0:0:
64,192,179768,1,0,0:0:0:0:
192,192,180220,1,0,0:0:0:0:
320,192,180671,1,0,0:0:0:0:
448,192,180871,1,0,0:0:0:0:
192,192,181273,1,0,0:0:0:0:
192,192,181523,1,0,0:0:0:0:
448,192,181774,1,0,0:0:0:0:
320,192,182426,1,0,0:0:0:0:
64,192,182677,1,0,0:0:0:0:
448,192,183128,1,0,0:0:0:0:
64,192,183378,1,0,0:0:0:0:
448,192,183729,1,0,0:0:0:0:
64,192,184181,1,0,0:0:0:0:
448,192,198521,5,0,0:0:0:0:
64,192,198571,1,0,0:0:0:0:
448,192,198973,1,0,0:0:0:0:
192,192,199273,1,0,0:0:0:0:
448,192,199474,1,0,0:0:0:0:
64,192,199775,1,0,0:0:0:0:
448,192,200126,1,0,0:0:0:0:
192,192,200376,1,0,0:0:0:0:
448,192,200778,1,0,0:0:0:0:
192,192,201078,1,0,0:0:0:0:
320,192,201480,1,0,0:0:0:0:
64,192,201981,1,0,0:0:0:0:
448,192,202081,1,0,0:0:0:0:
448,192,202282,1,0,0:0:0:0:
64,192,202482,1,0,0:0:0:0:
64,192,202883,1,0,0:0:0:0:
320,192,203084,1,0,0:0:0:0:
64,192,203435,1,0,0:0:0:0:
448,192,203736,1,0,0:0:0:0:
192,192,203936,1,0,0:0:0:0:
448,192,204287,1,0,0:0:0:0:
64,192,204638,1,0,0:0:0:0:
192,192,205090,1,0,0:0:0:0:
320,192,205541,1,0,0:0:0:0:
448,192,205741,1,0,0:0:0:0:
192,192,206143,1,0,0:0:0:0:
192,192,206393,1,0,0:0:0:0:
448,192,206644,1,0,0:0:0:0:
320,192,207296,1,0,0:0:0:0:
64,192,207547,1,0,0:0:0:0:
448,192,207998,1,0,0:0:0:0:
64,192,208248,1,0,0:0:0:0:
448,192,208599,1,0,0:0:0:0:
64,192,209051,1,0,0:0:0:0:
64,192,209351,1,0,0:0:0:0:
448,192,209752,1,0,0:0:0:0:
320,192,210003,1,0,0:0:0:0:
192,192,210253,1,0,0:0:0:0:
64,192,210454,1,0,0:0:0:0:
192,192,210655,1,0,0:0:0:0:
320,192,210855,1,0,0:0:0:0:
448,192,211106,1,0,0:0:0:0:
320,192,211557,1,0,0:0:0:0:
192,192,211808,1,0,0:0:0:0:
64,192,212058,1,0,0:0:0:0:
192,192,212209,1,0,0:0:0:0:
320,192,212460,1,0,0:0:0:0:
448,192,212660,1,0,0:0:0:0:
320,192,212911,1,0,0:0:0:0:
192,192,213162,1,0,0:0:0:0:
64,192,213362,1,0,0:0:0:0:
192,192,213563,1,0,0:0:0:0:
320,192,213813,1,0,0:0:0:0:
448,192,214014,1,0,0:0:0:0:
320,192,214215,1,0,0:0:0:0:
192,192,214716,1,0,0:0:0:0:
64,192,214916,1,0,0:0:0:0:
192,192,215167,1,0,0:0:0:0:
320,192,215318,1,0,0:0:0:0:
448,192,215618,1,0,0:0:0:0:
320,192,215769,1,0,0:0:0:0:
192,192,216020,1,0,0:0:0:0:
64,192,216270,1,8,0:0:0:0:
448,192,216521,1,8,0:0:0:0:
64,192,216972,1,8,0:0:0:0:
448,192,217323,1,8,0:0:0:0:
64,192,219830,1,2,0:0:0:0:
448,192,220031,1,2,0:0:0:0:
64,192,220432,1,2,0:0:0:0:
448,192,220883,1,2,0:0:0:0:
64,192,223390,1,4,0:0:0:0:
448,192,223591,1,4,0:0:0:0:
64,192,223942,1,4,0:0:0:0:
448,192,224243,1,4,0:0:0:0:
64,192,224644,1,4,0:0:0:0:
448,192,224894,1,4,0:0:0:0:
64,192,226900,1,0,0:0:0:0:
448,192,227101,1,0,0:0:0:0:
64,192,227552,1,0,0:0:0:0:
448,192,228254,1,0,0:0:0:0:
64,192,228454,1,0,0:0:0:0:
