osu file format v12

[General]
AudioFilename: Kamui.mp3
AudioLeadIn: 0
PreviewTime: 29427
Countdown: 0
SampleSet: None
StackLeniency: 0.7
Mode: 3
LetterboxInBreaks: 0
SpecialStyle: 0
WidescreenStoryboard: 1

[Editor]
DistanceSpacing: 0.6
BeatDivisor: 8
GridSize: 4

[Metadata]
Title:Kamui
TitleUnicode:Kamui
Artist:TJ.Hangneil
ArtistUnicode:TJ.Hangneil
Creator:xxbidiao
Version:Insane
Source:Ez2Dj 7th TraX Class R Codename : Violet
Tags:sasakure.UK victorica_db
BeatmapID:285623
BeatmapSetID:109438

[Difficulty]
HPDrainRate:9
CircleSize:4
OverallDifficulty:9
ApproachRate:9
SliderMultiplier:2.2
SliderTickRate:2

[Events]
//Background and Video events
Video,-1474,"KAMUI.AVI"
0,0,"BG.jpg",0,0
//Break Periods
//Storyboard Layer 0 (Background)
//Storyboard Layer 1 (Fail)
//Storyboard Layer 2 (Pass)
//Storyboard Layer 3 (Foreground)
//Storyboard Sound Samples
//Background Colour Transformations
3,100,163,162,255

[TimingPoints]
284.626818192777,285.714285714286,4,3,0,25,1,0

[Colours]
Combo1 : 255,128,0
Combo2 : 0,255,255
Combo3 : 255,0,255

[HitObjects]
64,192,2570,1,0,0:0:0:0:
192,192,2570,1,0,0:0:0:0:
448,192,2998,1,0,0:0:0:0:
192,192,2998,1,0,0:0:0:0:
192,192,3284,1,0,0:0:0:0:
64,192,3427,1,0,0:0:0:0:
192,192,3570,1,0,0:0:0:0:
448,192,3856,1,0,0:0:0:0:
192,192,3856,1,0,0:0:0:0:
192,192,4141,1,0,0:0:0:0:
64,192,4284,1,0,0:0:0:0:
192,192,4427,128,0,4856:0:0:0:0:
448,192,4713,1,0,0:0:0:0:
320,192,4856,1,0,0:0:0:0:
64,192,5141,1,0,0:0:0:0:
320,192,5284,1,0,0:0:0:0:
448,192,5570,1,0,0:0:0:0:
320,192,5570,1,0,0:0:0:0:
320,192,5856,1,0,0:0:0:0:
64,192,5998,1,0,0:0:0:0:
320,192,6141,1,0,0:0:0:0:
448,192,6427,1,0,0:0:0:0:
320,192,6427,1,0,0:0:0:0:
320,192,6713,128,0,7141:0:0:0:0:
64,192,6856,1,0,0:0:0:0:
192,192,7141,1,0,0:0:0:0:
448,192,7284,1,0,0:0:0:0:
192,192,7570,1,0,0:0:0:0:
64,192,7713,1,0,0:0:0:0:
192,192,7856,1,0,0:0:0:0:
448,192,8141,1,0,0:0:0:0:
192,192,8141,1,0,0:0:0:0:
192,192,8427,1,0,0:0:0:0:
64,192,8570,1,0,0:0:0:0:
192,192,8713,1,0,0:0:0:0:
448,192,8998,1,0,0:0:0:0:
192,192,8998,128,0,9427:0:0:0:0:
64,192,9427,1,0,0:0:0:0:
320,192,9427,1,0,0:0:0:0:
448,192,9856,1,0,0:0:0:0:
320,192,9856,1,0,0:0:0:0:
320,192,10141,1,0,0:0:0:0:
64,192,10284,1,0,0:0:0:0:
320,192,10427,1,0,0:0:0:0:
64,192,10570,128,0,11713:0:0:0:0:
448,192,10570,128,0,11713:0:0:0:0:
192,192,11713,1,0,0:0:0:0:
320,192,11713,128,0,11998:0:0:0:0:
448,192,11998,1,0,0:0:0:0:
64,192,11998,1,0,0:0:0:0:
448,192,12141,1,0,0:0:0:0:
192,192,12141,1,0,0:0:0:0:
320,192,12213,1,0,0:0:0:0:
64,192,12284,1,0,0:0:0:0:
448,192,12284,1,0,0:0:0:0:
320,192,12427,1,0,0:0:0:0:
448,192,12570,1,0,0:0:0:0:
192,192,12570,1,0,0:0:0:0:
448,192,12713,1,0,0:0:0:0:
64,192,12713,1,0,0:0:0:0:
320,192,12784,1,0,0:0:0:0:
192,192,12856,1,0,0:0:0:0:
448,192,12856,1,0,0:0:0:0:
192,192,12998,1,0,0:0:0:0:
448,192,13141,1,0,0:0:0:0:
64,192,13141,1,0,0:0:0:0:
448,192,13284,1,0,0:0:0:0:
192,192,13284,1,0,0:0:0:0:
320,192,13356,1,0,0:0:0:0:
64,192,13427,1,0,0:0:0:0:
448,192,13427,1,0,0:0:0:0:
320,192,13570,1,0,0:0:0:0:
192,192,13570,128,0,13998:0:0:0:0:
448,192,13713,1,0,0:0:0:0:
320,192,13856,1,0,0:0:0:0:
64,192,13998,1,0,0:0:0:0:
448,192,13998,1,0,0:0:0:0:
320,192,13998,128,0,14284:0:0:0:0:
448,192,14284,1,0,0:0:0:0:
64,192,14284,1,0,0:0:0:0:
192,192,14427,1,0,0:0:0:0:
320,192,14427,1,0,0:0:0:0:
448,192,14498,1,0,0:0:0:0:
64,192,14570,1,0,0:0:0:0:
192,192,14570,1,0,0:0:0:0:
320,192,14713,1,0,0:0:0:0:
448,192,14856,1,0,0:0:0:0:
192,192,14856,1,0,0:0:0:0:
192,192,14998,1,0,0:0:0:0:
320,192,14998,1,0,0:0:0:0:
448,192,15070,1,0,0:0:0:0:
64,192,15141,1,0,0:0:0:0:
320,192,15141,1,0,0:0:0:0:
192,192,15284,1,0,0:0:0:0:
448,192,15427,1,0,0:0:0:0:
64,192,15427,1,0,0:0:0:0:
192,192,15570,1,0,0:0:0:0:
320,192,15570,1,0,0:0:0:0:
448,192,15641,1,0,0:0:0:0:
64,192,15713,1,0,0:0:0:0:
320,192,15713,1,0,0:0:0:0:
192,192,15713,128,0,15998:0:0:0:0:
320,192,15856,1,0,0:0:0:0:
448,192,15998,1,0,0:0:0:0:
64,192,16141,1,0,0:0:0:0:
192,192,16213,1,0,0:0:0:0:
64,192,16284,1,0,0:0:0:0:
448,192,16284,1,0,0:0:0:0:
320,192,16284,128,0,16570:0:0:0:0:
448,192,16570,1,0,0:0:0:0:
192,192,16570,1,0,0:0:0:0:
64,192,16713,1,0,0:0:0:0:
320,192,16713,1,0,0:0:0:0:
448,192,16784,1,0,0:0:0:0:
64,192,16856,1,0,0:0:0:0:
192,192,16856,1,0,0:0:0:0:
192,192,16998,1,0,0:0:0:0:
448,192,17141,1,0,0:0:0:0:
320,192,17141,1,0,0:0:0:0:
320,192,17284,1,0,0:0:0:0:
192,192,17284,1,0,0:0:0:0:
448,192,17356,1,0,0:0:0:0:
64,192,17427,1,0,0:0:0:0:
192,192,17427,1,0,0:0:0:0:
320,192,17570,1,0,0:0:0:0:
448,192,17713,1,0,0:0:0:0:
320,192,17713,1,0,0:0:0:0:
64,192,17856,1,0,0:0:0:0:
192,192,17856,1,0,0:0:0:0:
448,192,17927,1,0,0:0:0:0:
64,192,17998,1,0,0:0:0:0:
192,192,18141,128,0,18570:0:0:0:0:
64,192,18284,1,0,0:0:0:0:
448,192,18284,1,0,0:0:0:0:
64,192,18427,1,0,0:0:0:0:
448,192,18498,1,0,0:0:0:0:
320,192,18570,128,0,18856:0:0:0:0:
64,192,18570,1,0,0:0:0:0:
448,192,18856,1,0,0:0:0:0:
320,192,18998,1,0,0:0:0:0:
448,192,18998,1,0,0:0:0:0:
192,192,19070,1,0,0:0:0:0:
64,192,19141,1,0,0:0:0:0:
320,192,19284,1,0,0:0:0:0:
64,192,19427,1,0,0:0:0:0:
320,192,19570,1,0,0:0:0:0:
192,192,19570,1,0,0:0:0:0:
64,192,19641,1,0,0:0:0:0:
448,192,19713,1,0,0:0:0:0:
192,192,19713,1,0,0:0:0:0:
64,192,19784,1,0,0:0:0:0:
320,192,19856,1,0,0:0:0:0:
448,192,19856,1,0,0:0:0:0:
192,192,19927,1,0,0:0:0:0:
448,192,19998,1,0,0:0:0:0:
64,192,19998,1,0,0:0:0:0:
320,192,20070,1,0,0:0:0:0:
192,192,20141,1,0,0:0:0:0:
64,192,20141,1,0,0:0:0:0:
448,192,20213,1,0,0:0:0:0:
320,192,20213,1,0,0:0:0:0:
64,192,20284,1,0,0:0:0:0:
192,192,20284,1,0,0:0:0:0:
448,192,20356,1,0,0:0:0:0:
320,192,20427,1,0,0:0:0:0:
192,192,20427,1,0,0:0:0:0:
64,192,20498,1,0,0:0:0:0:
448,192,20570,1,0,0:0:0:0:
192,192,20570,1,0,0:0:0:0:
320,192,20641,1,0,0:0:0:0:
64,192,20713,1,0,0:0:0:0:
192,192,20713,1,0,0:0:0:0:
448,192,20784,1,0,0:0:0:0:
320,192,20784,1,0,0:0:0:0:
64,192,20856,1,0,0:0:0:0:
192,192,20856,128,0,21284:0:0:0:0:
448,192,21141,1,0,0:0:0:0:
320,192,21284,1,0,0:0:0:0:
448,192,21356,1,0,0:0:0:0:
64,192,21427,128,0,21998:0:0:0:0:
192,192,21427,1,0,0:0:0:0:
320,192,21570,1,0,0:0:0:0:
448,192,21713,1,0,0:0:0:0:
192,192,21856,1,0,0:0:0:0:
320,192,21856,1,0,0:0:0:0:
448,192,21927,1,0,0:0:0:0:
320,192,21998,128,0,22570:0:0:0:0:
192,192,21998,1,0,0:0:0:0:
192,192,22141,1,0,0:0:0:0:
64,192,22284,1,0,0:0:0:0:
448,192,22427,1,0,0:0:0:0:
192,192,22427,1,0,0:0:0:0:
64,192,22498,1,0,0:0:0:0:
192,192,22570,128,0,23141:0:0:0:0:
448,192,22570,1,0,0:0:0:0:
448,192,22713,1,0,0:0:0:0:
320,192,22856,1,0,0:0:0:0:
448,192,22998,1,0,0:0:0:0:
64,192,23070,1,0,0:0:0:0:
448,192,23141,128,0,23713:0:0:0:0:
320,192,23141,1,0,0:0:0:0:
192,192,23427,1,0,0:0:0:0:
320,192,23570,1,0,0:0:0:0:
64,192,23570,1,0,0:0:0:0:
192,192,23641,1,0,0:0:0:0:
320,192,23713,128,0,24284:0:0:0:0:
64,192,23713,1,0,0:0:0:0:
192,192,23856,1,0,0:0:0:0:
448,192,23998,1,0,0:0:0:0:
64,192,24141,1,0,0:0:0:0:
192,192,24141,1,0,0:0:0:0:
448,192,24213,1,0,0:0:0:0:
192,192,24284,128,0,24856:0:0:0:0:
64,192,24284,1,0,0:0:0:0:
320,192,24427,1,0,0:0:0:0:
448,192,24570,1,0,0:0:0:0:
64,192,24713,1,0,0:0:0:0:
320,192,24713,1,0,0:0:0:0:
448,192,24784,1,0,0:0:0:0:
320,192,24856,128,0,25427:0:0:0:0:
64,192,24856,1,0,0:0:0:0:
448,192,24927,1,0,0:0:0:0:
192,192,24998,1,0,0:0:0:0:
448,192,25141,1,0,0:0:0:0:
192,192,25284,1,0,0:0:0:0:
448,192,25356,1,0,0:0:0:0:
64,192,25427,1,0,0:0:0:0:
192,192,25427,1,0,0:0:0:0:
448,192,25522,1,0,0:0:0:0:
64,192,25617,1,0,0:0:0:0:
448,192,25713,1,0,0:0:0:0:
320,192,25713,1,0,0:0:0:0:
64,192,25808,1,0,0:0:0:0:
192,192,25856,1,0,0:0:0:0:
448,192,25903,1,0,0:0:0:0:
320,192,25927,1,0,0:0:0:0:
64,192,25998,1,0,0:0:0:0:
192,192,25998,1,0,0:0:0:0:
448,192,26094,1,0,0:0:0:0:
64,192,26189,1,0,0:0:0:0:
448,192,26284,1,0,0:0:0:0:
320,192,26284,1,0,0:0:0:0:
64,192,26379,1,0,0:0:0:0:
320,192,26427,1,0,0:0:0:0:
448,192,26475,1,0,0:0:0:0:
192,192,26498,1,0,0:0:0:0:
64,192,26570,1,0,0:0:0:0:
320,192,26570,1,0,0:0:0:0:
448,192,26665,1,0,0:0:0:0:
64,192,26760,1,0,0:0:0:0:
448,192,26856,1,0,0:0:0:0:
320,192,26856,1,0,0:0:0:0:
64,192,26951,1,0,0:0:0:0:
192,192,26998,1,0,0:0:0:0:
448,192,27046,1,0,0:0:0:0:
320,192,27070,1,0,0:0:0:0:
64,192,27141,1,0,0:0:0:0:
192,192,27141,1,0,0:0:0:0:
448,192,27237,1,0,0:0:0:0:
64,192,27332,1,0,0:0:0:0:
448,192,27427,1,0,0:0:0:0:
320,192,27427,1,0,0:0:0:0:
64,192,27522,1,0,0:0:0:0:
320,192,27570,1,0,0:0:0:0:
448,192,27617,1,0,0:0:0:0:
192,192,27641,1,0,0:0:0:0:
64,192,27713,1,0,0:0:0:0:
448,192,27713,1,0,0:0:0:0:
320,192,27784,1,0,0:0:0:0:
192,192,27856,1,0,0:0:0:0:
320,192,27927,1,0,0:0:0:0:
192,192,27998,1,0,0:0:0:0:
320,192,28070,1,0,0:0:0:0:
192,192,28141,1,0,0:0:0:0:
320,192,28213,1,0,0:0:0:0:
192,192,28284,1,0,0:0:0:0:
320,192,28356,1,0,0:0:0:0:
192,192,28427,1,0,0:0:0:0:
320,192,28498,1,0,0:0:0:0:
192,192,28570,1,0,0:0:0:0:
320,192,28641,1,0,0:0:0:0:
192,192,28713,1,0,0:0:0:0:
320,192,28784,1,0,0:0:0:0:
192,192,28856,1,0,0:0:0:0:
64,192,28856,1,0,0:0:0:0:
320,192,28927,1,0,0:0:0:0:
448,192,28927,1,0,0:0:0:0:
192,192,28998,1,0,0:0:0:0:
64,192,28998,1,0,0:0:0:0:
320,192,29070,1,0,0:0:0:0:
448,192,29070,1,0,0:0:0:0:
192,192,29141,1,0,0:0:0:0:
64,192,29141,1,0,0:0:0:0:
320,192,29213,1,0,0:0:0:0:
448,192,29213,1,0,0:0:0:0:
192,192,29284,1,0,0:0:0:0:
320,192,29356,1,0,0:0:0:0:
192,192,29427,1,0,0:0:0:0:
64,192,29427,128,0,29998:0:0:0:0:
448,192,29427,128,0,29998:0:0:0:0:
320,192,29498,1,0,0:0:0:0:
192,192,29570,1,0,0:0:0:0:
320,192,29641,1,0,0:0:0:0:
192,192,29713,1,0,0:0:0:0:
320,192,29784,1,0,0:0:0:0:
192,192,29856,1,0,0:0:0:0:
320,192,29927,1,0,0:0:0:0:
192,192,29998,128,0,30856:0:0:0:0:
448,192,30284,1,0,0:0:0:0:
64,192,30427,1,0,0:0:0:0:
320,192,30427,1,0,0:0:0:0:
448,192,30498,1,0,0:0:0:0:
64,192,30570,1,0,0:0:0:0:
320,192,30713,1,0,0:0:0:0:
448,192,30856,128,0,31713:0:0:0:0:
320,192,30856,1,0,0:0:0:0:
64,192,30998,1,0,0:0:0:0:
192,192,30998,1,0,0:0:0:0:
320,192,31070,1,0,0:0:0:0:
64,192,31141,1,0,0:0:0:0:
192,192,31284,1,0,0:0:0:0:
320,192,31427,1,0,0:0:0:0:
64,192,31570,1,0,0:0:0:0:
320,192,31570,1,0,0:0:0:0:
192,192,31641,1,0,0:0:0:0:
320,192,31713,128,0,31998:0:0:0:0:
64,192,31713,1,0,0:0:0:0:
64,192,31856,1,0,0:0:0:0:
448,192,31998,128,0,32284:0:0:0:0:
192,192,31998,1,0,0:0:0:0:
320,192,32141,1,0,0:0:0:0:
64,192,32213,1,0,0:0:0:0:
320,192,32284,128,0,32713:0:0:0:0:
192,192,32284,1,0,0:0:0:0:
64,192,32427,1,0,0:0:0:0:
192,192,32498,1,0,0:0:0:0:
448,192,32570,1,0,0:0:0:0:
192,192,32713,128,0,33141:0:0:0:0:
64,192,32713,1,0,0:0:0:0:
448,192,32784,1,0,0:0:0:0:
64,192,32856,1,0,0:0:0:0:
448,192,32998,1,0,0:0:0:0:
64,192,33141,128,0,33998:0:0:0:0:
320,192,33141,1,0,0:0:0:0:
448,192,33284,1,0,0:0:0:0:
192,192,33284,1,0,0:0:0:0:
320,192,33356,1,0,0:0:0:0:
192,192,33427,1,0,0:0:0:0:
320,192,33570,1,0,0:0:0:0:
448,192,33713,1,0,0:0:0:0:
320,192,33856,1,0,0:0:0:0:
192,192,33856,1,0,0:0:0:0:
448,192,33927,1,0,0:0:0:0:
192,192,33998,128,0,34284:0:0:0:0:
320,192,33998,1,0,0:0:0:0:
448,192,34141,1,0,0:0:0:0:
320,192,34284,128,0,34570:0:0:0:0:
64,192,34284,1,0,0:0:0:0:
448,192,34427,1,0,0:0:0:0:
64,192,34498,1,0,0:0:0:0:
192,192,34570,128,0,34998:0:0:0:0:
448,192,34570,1,0,0:0:0:0:
320,192,34713,1,0,0:0:0:0:
64,192,34784,1,0,0:0:0:0:
448,192,34856,1,0,0:0:0:0:
320,192,34998,128,0,35427:0:0:0:0:
64,192,34998,1,0,0:0:0:0:
448,192,35070,1,0,0:0:0:0:
64,192,35141,1,0,0:0:0:0:
192,192,35284,1,0,0:0:0:0:
64,192,35427,128,0,36284:0:0:0:0:
448,192,35427,1,0,0:0:0:0:
192,192,35570,1,0,0:0:0:0:
448,192,35570,1,0,0:0:0:0:
320,192,35641,1,0,0:0:0:0:
448,192,35713,1,0,0:0:0:0:
192,192,35856,1,0,0:0:0:0:
448,192,35998,1,0,0:0:0:0:
192,192,36141,1,0,0:0:0:0:
320,192,36141,1,0,0:0:0:0:
448,192,36213,1,0,0:0:0:0:
192,192,36284,128,0,36570:0:0:0:0:
320,192,36284,1,0,0:0:0:0:
64,192,36427,1,0,0:0:0:0:
320,192,36570,128,0,36856:0:0:0:0:
448,192,36570,1,0,0:0:0:0:
64,192,36713,1,0,0:0:0:0:
448,192,36784,1,0,0:0:0:0:
192,192,36856,128,0,37284:0:0:0:0:
64,192,36856,1,0,0:0:0:0:
320,192,36998,1,0,0:0:0:0:
64,192,37070,1,0,0:0:0:0:
448,192,37141,1,0,0:0:0:0:
320,192,37284,128,0,37713:0:0:0:0:
64,192,37284,1,0,0:0:0:0:
448,192,37356,1,0,0:0:0:0:
64,192,37427,1,0,0:0:0:0:
192,192,37570,1,0,0:0:0:0:
64,192,37713,128,0,38570:0:0:0:0:
448,192,37713,1,0,0:0:0:0:
448,192,37856,1,0,0:0:0:0:
192,192,37856,1,0,0:0:0:0:
320,192,37927,1,0,0:0:0:0:
192,192,37998,1,0,0:0:0:0:
448,192,38141,1,0,0:0:0:0:
192,192,38284,1,0,0:0:0:0:
192,192,38427,1,0,0:0:0:0:
448,192,38427,1,0,0:0:0:0:
320,192,38498,1,0,0:0:0:0:
448,192,38570,128,0,39141:0:0:0:0:
192,192,38570,1,0,0:0:0:0:
192,192,38713,1,0,0:0:0:0:
320,192,38856,1,0,0:0:0:0:
64,192,38998,1,0,0:0:0:0:
192,192,39070,1,0,0:0:0:0:
64,192,39141,128,0,39998:0:0:0:0:
320,192,39141,128,0,39427:0:0:0:0:
448,192,39427,1,0,0:0:0:0:
192,192,39570,1,0,0:0:0:0:
448,192,39570,1,0,0:0:0:0:
320,192,39641,1,0,0:0:0:0:
448,192,39713,1,0,0:0:0:0:
192,192,39856,1,0,0:0:0:0:
448,192,39998,128,0,40856:0:0:0:0:
320,192,39998,1,0,0:0:0:0:
64,192,40141,1,0,0:0:0:0:
192,192,40141,1,0,0:0:0:0:
320,192,40213,1,0,0:0:0:0:
192,192,40284,1,0,0:0:0:0:
320,192,40427,1,0,0:0:0:0:
64,192,40570,1,0,0:0:0:0:
320,192,40713,1,0,0:0:0:0:
192,192,40713,1,0,0:0:0:0:
64,192,40784,1,0,0:0:0:0:
192,192,40856,128,0,41141:0:0:0:0:
320,192,40856,1,0,0:0:0:0:
64,192,40998,1,0,0:0:0:0:
320,192,41141,128,0,41427:0:0:0:0:
448,192,41141,1,0,0:0:0:0:
64,192,41284,1,0,0:0:0:0:
192,192,41427,128,0,41856:0:0:0:0:
64,192,41427,1,0,0:0:0:0:
448,192,41427,128,0,41713:0:0:0:0:
320,192,41713,1,0,0:0:0:0:
64,192,41856,128,0,42284:0:0:0:0:
320,192,41856,1,0,0:0:0:0:
448,192,41927,1,0,0:0:0:0:
192,192,41998,1,0,0:0:0:0:
192,192,42141,1,0,0:0:0:0:
320,192,42284,128,0,43141:0:0:0:0:
448,192,42284,1,0,0:0:0:0:
64,192,42427,1,0,0:0:0:0:
192,192,42427,1,0,0:0:0:0:
448,192,42498,1,0,0:0:0:0:
64,192,42570,1,0,0:0:0:0:
448,192,42713,1,0,0:0:0:0:
64,192,42856,1,0,0:0:0:0:
448,192,42998,1,0,0:0:0:0:
192,192,42998,1,0,0:0:0:0:
64,192,43070,1,0,0:0:0:0:
192,192,43141,128,0,43427:0:0:0:0:
448,192,43141,1,0,0:0:0:0:
64,192,43284,1,0,0:0:0:0:
320,192,43427,128,0,43713:0:0:0:0:
448,192,43427,1,0,0:0:0:0:
64,192,43570,1,0,0:0:0:0:
192,192,43641,1,0,0:0:0:0:
64,192,43713,128,0,44141:0:0:0:0:
448,192,43713,128,0,43998:0:0:0:0:
320,192,43998,1,0,0:0:0:0:
448,192,44141,128,0,44570:0:0:0:0:
192,192,44141,1,0,0:0:0:0:
320,192,44213,1,0,0:0:0:0:
64,192,44284,1,0,0:0:0:0:
320,192,44427,1,0,0:0:0:0:
64,192,44570,128,0,45427:0:0:0:0:
192,192,44570,1,0,0:0:0:0:
448,192,44713,1,0,0:0:0:0:
320,192,44713,1,0,0:0:0:0:
192,192,44784,1,0,0:0:0:0:
320,192,44856,1,0,0:0:0:0:
192,192,44998,1,0,0:0:0:0:
448,192,45141,1,0,0:0:0:0:
448,192,45284,1,0,0:0:0:0:
192,192,45284,1,0,0:0:0:0:
320,192,45356,1,0,0:0:0:0:
192,192,45427,128,0,45713:0:0:0:0:
448,192,45427,1,0,0:0:0:0:
320,192,45570,1,0,0:0:0:0:
320,192,45713,128,0,45998:0:0:0:0:
448,192,45713,1,0,0:0:0:0:
448,192,45856,1,0,0:0:0:0:
64,192,45927,1,0,0:0:0:0:
192,192,45998,128,0,46427:0:0:0:0:
448,192,45998,128,0,46856:0:0:0:0:
320,192,46427,128,0,46856:0:0:0:0:
64,192,46856,128,0,48284:0:0:0:0:
448,192,47141,128,0,48284:0:0:0:0:
192,192,48284,1,0,0:0:0:0:
320,192,48356,1,0,0:0:0:0:
192,192,48427,1,0,0:0:0:0:
320,192,48498,1,0,0:0:0:0:
192,192,48570,1,0,0:0:0:0:
64,192,48570,128,0,48641:0:0:0:0:
320,192,48641,1,0,0:0:0:0:
192,192,48713,1,0,0:0:0:0:
448,192,48713,128,0,48784:0:0:0:0:
320,192,48784,1,0,0:0:0:0:
192,192,48856,1,0,0:0:0:0:
320,192,48927,1,0,0:0:0:0:
192,192,48998,1,0,0:0:0:0:
64,192,48998,128,0,49070:0:0:0:0:
320,192,49070,1,0,0:0:0:0:
192,192,49141,1,0,0:0:0:0:
64,192,49141,128,0,49213:0:0:0:0:
320,192,49213,1,0,0:0:0:0:
192,192,49284,1,0,0:0:0:0:
448,192,49284,128,0,49356:0:0:0:0:
320,192,49356,1,0,0:0:0:0:
192,192,49427,1,0,0:0:0:0:
320,192,49498,1,0,0:0:0:0:
192,192,49570,1,0,0:0:0:0:
320,192,49641,1,0,0:0:0:0:
192,192,49713,1,0,0:0:0:0:
448,192,49713,128,0,49784:0:0:0:0:
320,192,49784,1,0,0:0:0:0:
192,192,49856,1,0,0:0:0:0:
320,192,49927,1,0,0:0:0:0:
192,192,49998,1,0,0:0:0:0:
448,192,49998,128,0,50070:0:0:0:0:
320,192,50070,1,0,0:0:0:0:
192,192,50141,1,0,0:0:0:0:
320,192,50213,1,0,0:0:0:0:
192,192,50284,1,0,0:0:0:0:
64,192,50284,1,0,0:0:0:0:
320,192,50356,1,0,0:0:0:0:
192,192,50427,1,0,0:0:0:0:
448,192,50427,1,0,0:0:0:0:
320,192,50498,1,0,0:0:0:0:
192,192,50570,1,0,0:0:0:0:
320,192,50641,1,0,0:0:0:0:
192,192,50713,1,0,0:0:0:0:
448,192,50713,128,0,50784:0:0:0:0:
320,192,50784,1,0,0:0:0:0:
192,192,50856,1,0,0:0:0:0:
320,192,50927,1,0,0:0:0:0:
192,192,50998,1,0,0:0:0:0:
64,192,50998,128,0,51070:0:0:0:0:
320,192,51070,1,0,0:0:0:0:
192,192,51141,1,0,0:0:0:0:
64,192,51141,128,0,51213:0:0:0:0:
320,192,51213,1,0,0:0:0:0:
192,192,51284,1,0,0:0:0:0:
448,192,51284,128,0,51356:0:0:0:0:
320,192,51356,1,0,0:0:0:0:
192,192,51427,1,0,0:0:0:0:
320,192,51498,1,0,0:0:0:0:
192,192,51570,1,0,0:0:0:0:
64,192,51570,128,0,51641:0:0:0:0:
320,192,51641,1,0,0:0:0:0:
192,192,51713,1,0,0:0:0:0:
64,192,51713,128,0,51784:0:0:0:0:
320,192,51784,1,0,0:0:0:0:
192,192,51856,1,0,0:0:0:0:
448,192,51856,128,0,51927:0:0:0:0:
320,192,51927,1,0,0:0:0:0:
192,192,51998,1,0,0:0:0:0:
320,192,52070,1,0,0:0:0:0:
192,192,52141,1,0,0:0:0:0:
320,192,52213,1,0,0:0:0:0:
192,192,52284,1,0,0:0:0:0:
64,192,52284,1,0,0:0:0:0:
320,192,52356,1,0,0:0:0:0:
192,192,52427,1,0,0:0:0:0:
448,192,52427,1,0,0:0:0:0:
320,192,52498,1,0,0:0:0:0:
192,192,52570,1,0,0:0:0:0:
64,192,52570,1,0,0:0:0:0:
320,192,52641,1,0,0:0:0:0:
192,192,52713,1,0,0:0:0:0:
320,192,52784,1,0,0:0:0:0:
192,192,52856,1,0,0:0:0:0:
448,192,52856,128,0,52927:0:0:0:0:
320,192,52927,1,0,0:0:0:0:
192,192,52998,1,0,0:0:0:0:
320,192,53070,1,0,0:0:0:0:
192,192,53141,1,0,0:0:0:0:
64,192,53141,128,0,53213:0:0:0:0:
320,192,53213,1,0,0:0:0:0:
192,192,53284,1,0,0:0:0:0:
448,192,53284,128,0,53356:0:0:0:0:
320,192,53356,1,0,0:0:0:0:
192,192,53427,1,0,0:0:0:0:
320,192,53498,1,0,0:0:0:0:
192,192,53570,1,0,0:0:0:0:
64,192,53570,128,0,53641:0:0:0:0:
320,192,53641,1,0,0:0:0:0:
192,192,53713,1,0,0:0:0:0:
64,192,53713,128,0,53784:0:0:0:0:
320,192,53784,1,0,0:0:0:0:
192,192,53856,1,0,0:0:0:0:
448,192,53856,128,0,53927:0:0:0:0:
320,192,53927,1,0,0:0:0:0:
192,192,53998,1,0,0:0:0:0:
320,192,54070,1,0,0:0:0:0:
192,192,54141,1,0,0:0:0:0:
320,192,54213,1,0,0:0:0:0:
192,192,54284,1,0,0:0:0:0:
448,192,54284,128,0,54356:0:0:0:0:
320,192,54356,1,0,0:0:0:0:
192,192,54427,1,0,0:0:0:0:
320,192,54498,1,0,0:0:0:0:
192,192,54570,1,0,0:0:0:0:
448,192,54570,128,0,54641:0:0:0:0:
320,192,54641,1,0,0:0:0:0:
192,192,54713,1,0,0:0:0:0:
64,192,54713,1,0,0:0:0:0:
320,192,54784,1,0,0:0:0:0:
192,192,54856,1,0,0:0:0:0:
448,192,54856,1,0,0:0:0:0:
320,192,54927,1,0,0:0:0:0:
192,192,54998,1,0,0:0:0:0:
64,192,54998,1,0,0:0:0:0:
320,192,55070,1,0,0:0:0:0:
192,192,55141,1,0,0:0:0:0:
320,192,55213,1,0,0:0:0:0:
192,192,55284,1,0,0:0:0:0:
448,192,55284,128,0,55356:0:0:0:0:
320,192,55356,1,0,0:0:0:0:
192,192,55427,1,0,0:0:0:0:
320,192,55498,1,0,0:0:0:0:
192,192,55570,1,0,0:0:0:0:
64,192,55570,128,0,55641:0:0:0:0:
320,192,55641,1,0,0:0:0:0:
192,192,55713,1,0,0:0:0:0:
64,192,55713,128,0,55784:0:0:0:0:
320,192,55784,1,0,0:0:0:0:
192,192,55856,1,0,0:0:0:0:
448,192,55856,128,0,55927:0:0:0:0:
320,192,55927,1,0,0:0:0:0:
192,192,55998,1,0,0:0:0:0:
320,192,56070,1,0,0:0:0:0:
192,192,56141,1,0,0:0:0:0:
64,192,56141,128,0,56213:0:0:0:0:
320,192,56213,1,0,0:0:0:0:
192,192,56284,1,0,0:0:0:0:
64,192,56284,128,0,56356:0:0:0:0:
320,192,56356,1,0,0:0:0:0:
192,192,56427,1,0,0:0:0:0:
448,192,56427,128,0,56498:0:0:0:0:
320,192,56498,1,0,0:0:0:0:
192,192,56570,1,0,0:0:0:0:
320,192,56641,1,0,0:0:0:0:
192,192,56713,1,0,0:0:0:0:
320,192,56784,1,0,0:0:0:0:
192,192,56856,1,0,0:0:0:0:
64,192,56856,1,0,0:0:0:0:
320,192,56927,1,0,0:0:0:0:
448,192,56927,1,0,0:0:0:0:
192,192,56998,1,0,0:0:0:0:
64,192,56998,1,0,0:0:0:0:
320,192,57070,1,0,0:0:0:0:
448,192,57070,1,0,0:0:0:0:
192,192,57141,1,0,0:0:0:0:
64,192,57141,1,0,0:0:0:0:
320,192,57213,1,0,0:0:0:0:
448,192,57213,1,0,0:0:0:0:
192,192,57284,1,0,0:0:0:0:
64,192,57284,1,0,0:0:0:0:
320,192,57356,1,0,0:0:0:0:
448,192,57356,1,0,0:0:0:0:
192,192,59713,1,0,0:0:0:0:
320,192,59784,1,0,0:0:0:0:
64,192,59856,1,0,0:0:0:0:
448,192,59927,1,0,0:0:0:0:
192,192,59998,1,0,0:0:0:0:
320,192,60070,1,0,0:0:0:0:
64,192,60141,1,0,0:0:0:0:
448,192,60213,1,0,0:0:0:0:
320,192,60284,1,0,0:0:0:0:
192,192,60356,1,0,0:0:0:0:
448,192,60427,1,0,0:0:0:0:
64,192,60498,1,0,0:0:0:0:
320,192,60570,1,0,0:0:0:0:
192,192,60641,1,0,0:0:0:0:
448,192,60713,1,0,0:0:0:0:
64,192,60784,1,0,0:0:0:0:
448,192,60856,1,0,0:0:0:0:
320,192,60891,1,0,0:0:0:0:
192,192,60927,1,0,0:0:0:0:
64,192,60963,1,0,0:0:0:0:
448,192,60998,1,0,0:0:0:0:
320,192,61034,1,0,0:0:0:0:
192,192,61070,1,0,0:0:0:0:
64,192,61106,1,0,0:0:0:0:
448,192,61141,1,0,0:0:0:0:
320,192,61177,1,0,0:0:0:0:
192,192,61213,1,0,0:0:0:0:
64,192,61248,1,0,0:0:0:0:
448,192,61284,1,0,0:0:0:0:
320,192,61320,1,0,0:0:0:0:
192,192,61356,1,0,0:0:0:0:
64,192,61391,1,0,0:0:0:0:
448,192,61427,1,0,0:0:0:0:
320,192,61463,1,0,0:0:0:0:
192,192,61498,1,0,0:0:0:0:
64,192,61534,1,0,0:0:0:0:
448,192,61570,1,0,0:0:0:0:
320,192,61606,1,0,0:0:0:0:
192,192,61641,1,0,0:0:0:0:
64,192,61677,1,0,0:0:0:0:
448,192,61713,1,0,0:0:0:0:
320,192,61748,1,0,0:0:0:0:
192,192,61784,1,0,0:0:0:0:
64,192,61820,1,0,0:0:0:0:
192,192,61856,1,0,0:0:0:0:
320,192,61891,1,0,0:0:0:0:
448,192,61927,1,0,0:0:0:0:
320,192,61963,1,0,0:0:0:0:
192,192,61998,1,0,0:0:0:0:
320,192,62141,1,0,0:0:0:0:
448,192,62284,1,0,0:0:0:0:
64,192,62284,1,0,0:0:0:0:
192,192,62427,1,0,0:0:0:0:
320,192,62570,1,0,0:0:0:0:
64,192,62570,1,0,0:0:0:0:
448,192,62713,1,0,0:0:0:0:
192,192,62856,1,0,0:0:0:0:
448,192,62856,1,0,0:0:0:0:
320,192,62998,1,0,0:0:0:0:
448,192,63141,1,0,0:0:0:0:
64,192,63141,1,0,0:0:0:0:
192,192,63284,1,0,0:0:0:0:
320,192,63427,1,0,0:0:0:0:
64,192,63427,1,0,0:0:0:0:
448,192,63570,1,0,0:0:0:0:
64,192,63713,1,0,0:0:0:0:
320,192,63713,1,0,0:0:0:0:
192,192,63856,1,0,0:0:0:0:
320,192,63998,1,0,0:0:0:0:
64,192,63998,1,0,0:0:0:0:
448,192,64141,1,0,0:0:0:0:
320,192,64284,1,0,0:0:0:0:
64,192,64284,1,0,0:0:0:0:
192,192,64427,1,0,0:0:0:0:
64,192,64570,1,0,0:0:0:0:
448,192,64570,1,0,0:0:0:0:
192,192,64713,1,0,0:0:0:0:
320,192,64856,1,0,0:0:0:0:
64,192,64856,1,0,0:0:0:0:
448,192,64998,1,0,0:0:0:0:
320,192,65141,1,0,0:0:0:0:
64,192,65141,1,0,0:0:0:0:
192,192,65284,1,0,0:0:0:0:
64,192,65427,1,0,0:0:0:0:
448,192,65427,1,0,0:0:0:0:
320,192,65427,1,0,0:0:0:0:
192,192,65570,1,0,0:0:0:0:
320,192,65713,1,0,0:0:0:0:
64,192,65713,1,0,0:0:0:0:
448,192,65856,1,0,0:0:0:0:
64,192,65856,1,0,0:0:0:0:
448,192,65998,1,0,0:0:0:0:
192,192,65998,1,0,0:0:0:0:
320,192,66141,1,0,0:0:0:0:
64,192,66141,1,0,0:0:0:0:
192,192,66284,1,0,0:0:0:0:
448,192,66284,1,0,0:0:0:0:
64,192,66427,1,0,0:0:0:0:
448,192,66427,1,0,0:0:0:0:
64,192,66570,1,0,0:0:0:0:
320,192,66570,1,0,0:0:0:0:
192,192,66713,1,0,0:0:0:0:
320,192,66856,1,0,0:0:0:0:
448,192,66856,1,0,0:0:0:0:
64,192,66998,1,0,0:0:0:0:
192,192,67141,1,0,0:0:0:0:
448,192,67141,1,0,0:0:0:0:
320,192,67284,1,0,0:0:0:0:
64,192,67427,1,0,0:0:0:0:
448,192,67427,1,0,0:0:0:0:
192,192,67570,1,0,0:0:0:0:
320,192,67713,1,0,0:0:0:0:
448,192,67713,1,0,0:0:0:0:
64,192,67856,1,0,0:0:0:0:
192,192,67998,1,0,0:0:0:0:
448,192,67998,1,0,0:0:0:0:
320,192,68141,1,0,0:0:0:0:
64,192,68284,1,0,0:0:0:0:
448,192,68284,1,0,0:0:0:0:
192,192,68427,1,0,0:0:0:0:
320,192,68570,1,0,0:0:0:0:
64,192,68570,1,0,0:0:0:0:
448,192,68713,1,0,0:0:0:0:
320,192,68856,1,0,0:0:0:0:
64,192,68856,1,0,0:0:0:0:
192,192,68998,1,0,0:0:0:0:
64,192,69141,1,0,0:0:0:0:
448,192,69141,1,0,0:0:0:0:
192,192,69284,1,0,0:0:0:0:
320,192,69427,1,0,0:0:0:0:
64,192,69427,1,0,0:0:0:0:
448,192,69570,1,0,0:0:0:0:
320,192,69713,1,0,0:0:0:0:
64,192,69713,1,0,0:0:0:0:
192,192,69856,1,0,0:0:0:0:
64,192,69998,1,0,0:0:0:0:
448,192,69998,1,0,0:0:0:0:
192,192,69998,1,0,0:0:0:0:
320,192,70070,1,0,0:0:0:0:
192,192,70141,1,0,0:0:0:0:
64,192,70141,1,0,0:0:0:0:
448,192,70213,1,0,0:0:0:0:
320,192,70284,1,0,0:0:0:0:
64,192,70284,1,0,0:0:0:0:
192,192,70284,1,0,0:0:0:0:
448,192,70356,1,0,0:0:0:0:
320,192,70427,1,0,0:0:0:0:
192,192,70427,1,0,0:0:0:0:
64,192,70498,1,0,0:0:0:0:
448,192,70570,1,0,0:0:0:0:
192,192,70570,1,0,0:0:0:0:
320,192,70570,1,0,0:0:0:0:
64,192,70641,1,0,0:0:0:0:
320,192,70713,1,0,0:0:0:0:
192,192,70713,1,0,0:0:0:0:
448,192,70784,1,0,0:0:0:0:
192,192,70856,1,0,0:0:0:0:
64,192,70856,1,0,0:0:0:0:
320,192,70856,1,0,0:0:0:0:
448,192,70927,1,0,0:0:0:0:
192,192,70998,1,0,0:0:0:0:
320,192,70998,1,0,0:0:0:0:
64,192,71141,1,0,0:0:0:0:
448,192,71213,1,0,0:0:0:0:
64,192,71284,1,0,0:0:0:0:
448,192,71356,1,0,0:0:0:0:
64,192,71427,1,0,0:0:0:0:
448,192,71498,1,0,0:0:0:0:
64,192,71570,1,0,0:0:0:0:
448,192,71641,1,0,0:0:0:0:
64,192,71713,1,0,0:0:0:0:
192,192,71713,1,0,0:0:0:0:
448,192,71784,1,0,0:0:0:0:
64,192,71856,1,0,0:0:0:0:
448,192,71927,1,0,0:0:0:0:
64,192,71998,1,0,0:0:0:0:
448,192,72070,1,0,0:0:0:0:
64,192,72141,1,0,0:0:0:0:
448,192,72213,1,0,0:0:0:0:
64,192,72284,1,0,0:0:0:0:
320,192,72284,1,0,0:0:0:0:
448,192,72356,1,0,0:0:0:0:
64,192,72427,1,0,0:0:0:0:
448,192,72498,1,0,0:0:0:0:
64,192,72570,1,0,0:0:0:0:
448,192,72641,1,0,0:0:0:0:
64,192,72713,1,0,0:0:0:0:
448,192,72784,1,0,0:0:0:0:
64,192,72856,1,0,0:0:0:0:
192,192,72856,1,0,0:0:0:0:
448,192,72927,1,0,0:0:0:0:
64,192,72998,1,0,0:0:0:0:
448,192,73070,1,0,0:0:0:0:
64,192,73141,1,0,0:0:0:0:
448,192,73213,1,0,0:0:0:0:
64,192,73284,1,0,0:0:0:0:
448,192,73356,1,0,0:0:0:0:
64,192,73427,1,0,0:0:0:0:
320,192,73427,1,0,0:0:0:0:
448,192,73498,1,0,0:0:0:0:
64,192,73570,1,0,0:0:0:0:
448,192,73641,1,0,0:0:0:0:
64,192,73713,1,0,0:0:0:0:
448,192,73784,1,0,0:0:0:0:
64,192,73856,1,0,0:0:0:0:
448,192,73927,1,0,0:0:0:0:
64,192,73998,1,0,0:0:0:0:
192,192,73998,1,0,0:0:0:0:
448,192,74070,1,0,0:0:0:0:
64,192,74141,1,0,0:0:0:0:
448,192,74213,1,0,0:0:0:0:
64,192,74284,1,0,0:0:0:0:
448,192,74356,1,0,0:0:0:0:
64,192,74427,1,0,0:0:0:0:
448,192,74498,1,0,0:0:0:0:
64,192,74570,1,0,0:0:0:0:
320,192,74570,1,0,0:0:0:0:
448,192,74641,1,0,0:0:0:0:
64,192,74713,1,0,0:0:0:0:
448,192,74784,1,0,0:0:0:0:
64,192,74856,1,0,0:0:0:0:
448,192,74927,1,0,0:0:0:0:
64,192,74998,1,0,0:0:0:0:
448,192,75070,1,0,0:0:0:0:
64,192,75141,1,0,0:0:0:0:
192,192,75141,1,0,0:0:0:0:
448,192,75213,1,0,0:0:0:0:
64,192,75284,1,0,0:0:0:0:
448,192,75356,1,0,0:0:0:0:
64,192,75427,1,0,0:0:0:0:
448,192,75498,1,0,0:0:0:0:
64,192,75570,1,0,0:0:0:0:
448,192,75641,1,0,0:0:0:0:
192,192,75713,128,0,76284:0:0:0:0:
64,192,75713,1,0,0:0:0:0:
320,192,75856,1,0,0:0:0:0:
448,192,75998,1,0,0:0:0:0:
64,192,75998,1,0,0:0:0:0:
320,192,76141,1,0,0:0:0:0:
64,192,76284,1,0,0:0:0:0:
448,192,76427,1,0,0:0:0:0:
64,192,76570,1,0,0:0:0:0:
320,192,76570,1,0,0:0:0:0:
192,192,76713,1,0,0:0:0:0:
320,192,76856,1,0,0:0:0:0:
448,192,76856,128,0,77427:0:0:0:0:
64,192,76998,1,0,0:0:0:0:
192,192,77141,1,0,0:0:0:0:
320,192,77284,1,0,0:0:0:0:
64,192,77427,1,0,0:0:0:0:
192,192,77570,1,0,0:0:0:0:
320,192,77713,1,0,0:0:0:0:
64,192,77713,1,0,0:0:0:0:
448,192,77856,1,0,0:0:0:0:
64,192,77998,1,0,0:0:0:0:
320,192,77998,128,0,78070:0:0:0:0:
192,192,78141,1,0,0:0:0:0:
64,192,78284,1,0,0:0:0:0:
320,192,78284,1,0,0:0:0:0:
448,192,78427,1,0,0:0:0:0:
192,192,78427,128,0,78498:0:0:0:0:
320,192,78570,1,0,0:0:0:0:
448,192,78713,1,0,0:0:0:0:
320,192,78856,1,0,0:0:0:0:
64,192,78856,1,0,0:0:0:0:
192,192,78998,1,0,0:0:0:0:
448,192,79070,128,0,79141:0:0:0:0:
64,192,79141,1,0,0:0:0:0:
192,192,79284,1,0,0:0:0:0:
320,192,79427,1,0,0:0:0:0:
64,192,79427,1,0,0:0:0:0:
192,192,79498,1,0,0:0:0:0:
448,192,79570,1,0,0:0:0:0:
448,192,79713,1,0,0:0:0:0:
192,192,79713,128,0,79784:0:0:0:0:
320,192,79856,1,0,0:0:0:0:
192,192,79998,1,0,0:0:0:0:
448,192,79998,1,0,0:0:0:0:
64,192,80141,1,0,0:0:0:0:
320,192,80141,1,0,0:0:0:0:
64,192,80284,128,0,80713:0:0:0:0:
192,192,80284,1,0,0:0:0:0:
320,192,80427,1,0,0:0:0:0:
448,192,80570,1,0,0:0:0:0:
192,192,80570,1,0,0:0:0:0:
448,192,80713,128,0,81141:0:0:0:0:
320,192,80713,1,0,0:0:0:0:
64,192,80856,1,0,0:0:0:0:
192,192,80998,1,0,0:0:0:0:
192,192,81141,128,0,81998:0:0:0:0:
64,192,81141,1,0,0:0:0:0:
320,192,81141,1,0,0:0:0:0:
448,192,81284,1,0,0:0:0:0:
320,192,81427,1,0,0:0:0:0:
448,192,81570,1,0,0:0:0:0:
320,192,81713,1,0,0:0:0:0:
64,192,81713,1,0,0:0:0:0:
448,192,81856,1,0,0:0:0:0:
448,192,81998,128,0,82570:0:0:0:0:
64,192,81998,1,0,0:0:0:0:
192,192,82141,1,0,0:0:0:0:
320,192,82284,1,0,0:0:0:0:
64,192,82284,1,0,0:0:0:0:
192,192,82427,1,0,0:0:0:0:
64,192,82570,128,0,82998:0:0:0:0:
320,192,82570,1,0,0:0:0:0:
192,192,82713,1,0,0:0:0:0:
448,192,82856,1,0,0:0:0:0:
320,192,82856,1,0,0:0:0:0:
320,192,82998,128,0,83427:0:0:0:0:
192,192,82998,1,0,0:0:0:0:
448,192,83141,1,0,0:0:0:0:
64,192,83284,1,0,0:0:0:0:
64,192,83427,128,0,84284:0:0:0:0:
192,192,83427,1,0,0:0:0:0:
448,192,83427,1,0,0:0:0:0:
320,192,83570,1,0,0:0:0:0:
192,192,83713,1,0,0:0:0:0:
448,192,83713,1,0,0:0:0:0:
320,192,83856,1,0,0:0:0:0:
448,192,83998,1,0,0:0:0:0:
192,192,83998,1,0,0:0:0:0:
320,192,84141,1,0,0:0:0:0:
448,192,84141,1,0,0:0:0:0:
192,192,84284,128,0,84570:0:0:0:0:
448,192,84284,1,0,0:0:0:0:
320,192,84427,1,0,0:0:0:0:
64,192,84427,1,0,0:0:0:0:
320,192,84570,128,0,84856:0:0:0:0:
64,192,84570,1,0,0:0:0:0:
448,192,84570,1,0,0:0:0:0:
192,192,84713,1,0,0:0:0:0:
448,192,84713,1,0,0:0:0:0:
448,192,84856,128,0,85284:0:0:0:0:
64,192,84856,1,0,0:0:0:0:
192,192,84998,1,0,0:0:0:0:
320,192,85141,1,0,0:0:0:0:
64,192,85141,1,0,0:0:0:0:
320,192,85284,128,0,85713:0:0:0:0:
192,192,85284,1,0,0:0:0:0:
448,192,85427,1,0,0:0:0:0:
192,192,85570,1,0,0:0:0:0:
192,192,85713,128,0,86570:0:0:0:0:
64,192,85713,1,0,0:0:0:0:
448,192,85713,1,0,0:0:0:0:
320,192,85856,1,0,0:0:0:0:
448,192,85998,1,0,0:0:0:0:
64,192,86141,1,0,0:0:0:0:
320,192,86284,1,0,0:0:0:0:
448,192,86284,1,0,0:0:0:0:
64,192,86427,1,0,0:0:0:0:
64,192,86570,128,0,86856:0:0:0:0:
448,192,86570,1,0,0:0:0:0:
192,192,86713,1,0,0:0:0:0:
192,192,86856,128,0,87141:0:0:0:0:
320,192,86856,1,0,0:0:0:0:
448,192,86856,1,0,0:0:0:0:
64,192,86998,1,0,0:0:0:0:
320,192,87141,128,0,87570:0:0:0:0:
448,192,87141,1,0,0:0:0:0:
192,192,87284,1,0,0:0:0:0:
64,192,87427,1,0,0:0:0:0:
448,192,87427,1,0,0:0:0:0:
448,192,87570,128,0,87998:0:0:0:0:
192,192,87570,1,0,0:0:0:0:
64,192,87713,1,0,0:0:0:0:
192,192,87856,1,0,0:0:0:0:
192,192,87998,128,0,88856:0:0:0:0:
64,192,87998,1,0,0:0:0:0:
320,192,87998,1,0,0:0:0:0:
448,192,88141,1,0,0:0:0:0:
64,192,88284,1,0,0:0:0:0:
320,192,88427,1,0,0:0:0:0:
448,192,88570,1,0,0:0:0:0:
64,192,88570,1,0,0:0:0:0:
320,192,88713,1,0,0:0:0:0:
64,192,88856,128,0,89427:0:0:0:0:
448,192,88856,1,0,0:0:0:0:
320,192,88998,1,0,0:0:0:0:
192,192,89141,1,0,0:0:0:0:
448,192,89141,1,0,0:0:0:0:
320,192,89284,1,0,0:0:0:0:
320,192,89427,128,0,89856:0:0:0:0:
192,192,89427,128,0,89713:0:0:0:0:
448,192,89427,1,0,0:0:0:0:
448,192,89713,1,0,0:0:0:0:
448,192,89856,128,0,90284:0:0:0:0:
64,192,89856,128,0,90141:0:0:0:0:
64,192,90284,128,0,91141:0:0:0:0:
320,192,90284,128,0,90570:0:0:0:0:
192,192,90284,1,0,0:0:0:0:
192,192,90713,128,0,90998:0:0:0:0:
448,192,90856,1,0,0:0:0:0:
448,192,91141,128,0,91713:0:0:0:0:
320,192,91141,128,0,91427:0:0:0:0:
192,192,91427,1,0,0:0:0:0:
64,192,91570,128,0,91856:0:0:0:0:
192,192,91713,128,0,92141:0:0:0:0:
448,192,91998,128,0,92284:0:0:0:0:
64,192,91998,1,0,0:0:0:0:
320,192,92141,128,0,92570:0:0:0:0:
192,192,92427,128,0,92713:0:0:0:0:
64,192,92570,128,0,93141:0:0:0:0:
448,192,92570,1,0,0:0:0:0:
448,192,92856,128,0,93141:0:0:0:0:
192,192,93141,128,0,93427:0:0:0:0:
320,192,93141,1,0,0:0:0:0:
64,192,93284,128,0,93570:0:0:0:0:
320,192,93427,128,0,93713:0:0:0:0:
448,192,93713,128,0,93998:0:0:0:0:
192,192,93713,128,0,93998:0:0:0:0:
64,192,93713,1,0,0:0:0:0:
320,192,93998,128,0,94427:0:0:0:0:
64,192,94141,128,0,94427:0:0:0:0:
448,192,94284,1,0,0:0:0:0:
192,192,94427,128,0,94856:0:0:0:0:
448,192,94570,128,0,94856:0:0:0:0:
64,192,94856,128,0,95713:0:0:0:0:
320,192,94856,1,0,0:0:0:0:
320,192,94998,128,0,95284:0:0:0:0:
448,192,95141,128,0,95713:0:0:0:0:
192,192,95427,128,0,95713:0:0:0:0:
320,192,95427,1,0,0:0:0:0:
320,192,95713,128,0,95998:0:0:0:0:
64,192,95856,128,0,96141:0:0:0:0:
448,192,95998,128,0,96284:0:0:0:0:
192,192,95998,1,0,0:0:0:0:
192,192,96284,128,0,96713:0:0:0:0:
64,192,96284,128,0,96570:0:0:0:0:
320,192,96284,1,0,0:0:0:0:
320,192,96570,1,0,0:0:0:0:
320,192,96713,128,0,97141:0:0:0:0:
448,192,96713,128,0,96998:0:0:0:0:
64,192,96713,1,0,0:0:0:0:
64,192,97141,128,0,97998:0:0:0:0:
192,192,97141,128,0,97427:0:0:0:0:
448,192,97141,1,0,0:0:0:0:
320,192,97284,1,0,0:0:0:0:
320,192,97570,128,0,97856:0:0:0:0:
192,192,97713,1,0,0:0:0:0:
448,192,97713,1,0,0:0:0:0:
448,192,97998,128,0,98570:0:0:0:0:
192,192,97998,128,0,98284:0:0:0:0:
320,192,97998,1,0,0:0:0:0:
64,192,98284,1,0,0:0:0:0:
320,192,98284,1,0,0:0:0:0:
192,192,98427,1,0,0:0:0:0:
320,192,98427,128,0,98713:0:0:0:0:
64,192,98570,1,0,0:0:0:0:
192,192,98570,1,0,0:0:0:0:
448,192,98856,1,0,0:0:0:0:
320,192,98856,1,0,0:0:0:0:
192,192,98998,1,0,0:0:0:0:
448,192,99070,1,0,0:0:0:0:
64,192,99141,1,0,0:0:0:0:
192,192,99141,1,0,0:0:0:0:
192,192,99284,1,0,0:0:0:0:
320,192,99356,1,0,0:0:0:0:
448,192,99427,1,0,0:0:0:0:
448,192,99570,1,0,0:0:0:0:
320,192,99641,1,0,0:0:0:0:
64,192,99713,1,0,0:0:0:0:
192,192,99713,1,0,0:0:0:0:
64,192,99856,1,0,0:0:0:0:
320,192,99927,1,0,0:0:0:0:
448,192,99998,1,0,0:0:0:0:
448,192,100141,1,0,0:0:0:0:
320,192,100213,1,0,0:0:0:0:
64,192,100284,1,0,0:0:0:0:
192,192,100284,1,0,0:0:0:0:
64,192,100427,1,0,0:0:0:0:
192,192,100498,1,0,0:0:0:0:
448,192,100570,1,0,0:0:0:0:
320,192,100570,1,0,0:0:0:0:
320,192,100713,1,0,0:0:0:0:
448,192,100784,1,0,0:0:0:0:
64,192,100856,1,0,0:0:0:0:
192,192,100856,1,0,0:0:0:0:
64,192,100998,1,0,0:0:0:0:
192,192,101070,1,0,0:0:0:0:
448,192,101141,1,0,0:0:0:0:
320,192,101141,1,0,0:0:0:0:
320,192,101284,1,0,0:0:0:0:
448,192,101356,1,0,0:0:0:0:
64,192,101427,1,0,0:0:0:0:
192,192,101427,1,0,0:0:0:0:
64,192,101570,1,0,0:0:0:0:
320,192,101641,1,0,0:0:0:0:
448,192,101713,1,0,0:0:0:0:
192,192,101713,1,0,0:0:0:0:
320,192,101856,1,0,0:0:0:0:
448,192,101927,1,0,0:0:0:0:
64,192,101998,1,0,0:0:0:0:
192,192,101998,1,0,0:0:0:0:
64,192,102141,1,0,0:0:0:0:
192,192,102213,1,0,0:0:0:0:
448,192,102284,1,0,0:0:0:0:
320,192,102284,1,0,0:0:0:0:
320,192,102427,1,0,0:0:0:0:
448,192,102498,1,0,0:0:0:0:
64,192,102570,1,0,0:0:0:0:
192,192,102570,1,0,0:0:0:0:
448,192,102641,1,0,0:0:0:0:
320,192,102713,1,0,0:0:0:0:
448,192,102856,1,0,0:0:0:0:
192,192,102856,1,0,0:0:0:0:
320,192,102927,1,0,0:0:0:0:
192,192,102998,1,0,0:0:0:0:
64,192,103141,1,0,0:0:0:0:
192,192,103141,1,0,0:0:0:0:
320,192,103213,1,0,0:0:0:0:
448,192,103284,1,0,0:0:0:0:
448,192,103427,1,0,0:0:0:0:
320,192,103427,1,0,0:0:0:0:
320,192,103570,1,0,0:0:0:0:
448,192,103641,1,0,0:0:0:0:
64,192,103713,1,0,0:0:0:0:
192,192,103713,1,0,0:0:0:0:
192,192,103856,1,0,0:0:0:0:
64,192,103927,1,0,0:0:0:0:
448,192,103998,1,0,0:0:0:0:
320,192,103998,1,0,0:0:0:0:
320,192,104141,1,0,0:0:0:0:
448,192,104213,1,0,0:0:0:0:
64,192,104284,1,0,0:0:0:0:
192,192,104284,1,0,0:0:0:0:
64,192,104427,1,0,0:0:0:0:
320,192,104498,1,0,0:0:0:0:
448,192,104570,1,0,0:0:0:0:
192,192,104570,1,0,0:0:0:0:
320,192,104713,1,0,0:0:0:0:
448,192,104784,1,0,0:0:0:0:
64,192,104856,1,0,0:0:0:0:
192,192,104856,1,0,0:0:0:0:
64,192,104998,1,0,0:0:0:0:
192,192,105070,1,0,0:0:0:0:
448,192,105141,1,0,0:0:0:0:
320,192,105141,1,0,0:0:0:0:
448,192,105284,1,0,0:0:0:0:
320,192,105356,1,0,0:0:0:0:
64,192,105427,1,0,0:0:0:0:
192,192,105427,1,0,0:0:0:0:
320,192,105498,1,0,0:0:0:0:
448,192,105570,1,0,0:0:0:0:
448,192,105713,1,0,0:0:0:0:
320,192,105713,1,0,0:0:0:0:
192,192,105784,1,0,0:0:0:0:
64,192,105856,1,0,0:0:0:0:
64,192,105998,1,0,0:0:0:0:
192,192,105998,1,0,0:0:0:0:
320,192,106070,1,0,0:0:0:0:
192,192,106141,1,0,0:0:0:0:
448,192,106284,1,0,0:0:0:0:
320,192,106284,1,0,0:0:0:0:
192,192,106356,1,0,0:0:0:0:
320,192,106427,1,0,0:0:0:0:
64,192,106570,1,0,0:0:0:0:
192,192,106570,1,0,0:0:0:0:
320,192,106641,1,0,0:0:0:0:
448,192,106713,1,0,0:0:0:0:
448,192,106856,1,0,0:0:0:0:
320,192,106856,1,0,0:0:0:0:
192,192,106927,1,0,0:0:0:0:
320,192,106998,1,0,0:0:0:0:
64,192,107141,1,0,0:0:0:0:
192,192,107141,1,0,0:0:0:0:
320,192,107213,1,0,0:0:0:0:
192,192,107284,1,0,0:0:0:0:
448,192,107427,1,0,0:0:0:0:
320,192,107427,1,0,0:0:0:0:
192,192,107570,1,0,0:0:0:0:
64,192,107713,1,0,0:0:0:0:
192,192,107713,128,0,108141:0:0:0:0:
448,192,107998,1,0,0:0:0:0:
320,192,108141,128,0,108570:0:0:0:0:
64,192,108284,1,0,0:0:0:0:
448,192,108570,1,0,0:0:0:0:
192,192,108570,128,0,109427:0:0:0:0:
64,192,108856,1,0,0:0:0:0:
448,192,109141,1,0,0:0:0:0:
64,192,109427,1,0,0:0:0:0:
320,192,109427,128,0,109998:0:0:0:0:
448,192,109713,1,0,0:0:0:0:
64,192,109998,1,0,0:0:0:0:
192,192,109998,128,0,110427:0:0:0:0:
448,192,110284,1,0,0:0:0:0:
320,192,110427,128,0,110856:0:0:0:0:
64,192,110570,1,0,0:0:0:0:
448,192,110856,1,0,0:0:0:0:
192,192,110856,128,0,111356:0:0:0:0:
64,192,111141,1,0,0:0:0:0:
448,192,111427,1,0,0:0:0:0:
320,192,111427,128,0,111713:0:0:0:0:
64,192,111713,1,0,0:0:0:0:
192,192,111713,128,0,111998:0:0:0:0:
448,192,111998,1,0,0:0:0:0:
320,192,111998,128,0,112213:0:0:0:0:
320,192,112284,128,0,112713:0:0:0:0:
448,192,112284,1,0,0:0:0:0:
64,192,112356,1,0,0:0:0:0:
448,192,112427,1,0,0:0:0:0:
192,192,112427,1,0,0:0:0:0:
64,192,112498,1,0,0:0:0:0:
448,192,112570,1,0,0:0:0:0:
64,192,112641,1,0,0:0:0:0:
192,192,112713,128,0,113141:0:0:0:0:
448,192,112713,1,0,0:0:0:0:
64,192,112784,1,0,0:0:0:0:
448,192,112856,1,0,0:0:0:0:
320,192,112856,1,0,0:0:0:0:
64,192,112927,1,0,0:0:0:0:
448,192,112998,1,0,0:0:0:0:
64,192,113070,1,0,0:0:0:0:
320,192,113141,128,0,113998:0:0:0:0:
448,192,113141,1,0,0:0:0:0:
64,192,113213,1,0,0:0:0:0:
448,192,113284,1,0,0:0:0:0:
192,192,113284,1,0,0:0:0:0:
64,192,113356,1,0,0:0:0:0:
448,192,113427,1,0,0:0:0:0:
64,192,113498,1,0,0:0:0:0:
448,192,113570,1,0,0:0:0:0:
64,192,113641,1,0,0:0:0:0:
448,192,113713,1,0,0:0:0:0:
192,192,113713,1,0,0:0:0:0:
64,192,113784,1,0,0:0:0:0:
448,192,113856,1,0,0:0:0:0:
64,192,113927,1,0,0:0:0:0:
192,192,113998,128,0,114284:0:0:0:0:
448,192,113998,1,0,0:0:0:0:
64,192,114070,1,0,0:0:0:0:
448,192,114141,1,0,0:0:0:0:
320,192,114141,1,0,0:0:0:0:
64,192,114213,1,0,0:0:0:0:
320,192,114284,128,0,114570:0:0:0:0:
448,192,114284,1,0,0:0:0:0:
64,192,114356,1,0,0:0:0:0:
448,192,114427,1,0,0:0:0:0:
64,192,114498,1,0,0:0:0:0:
192,192,114570,128,0,114998:0:0:0:0:
448,192,114570,1,0,0:0:0:0:
64,192,114641,1,0,0:0:0:0:
448,192,114713,1,0,0:0:0:0:
64,192,114784,1,0,0:0:0:0:
448,192,114856,1,0,0:0:0:0:
64,192,114927,1,0,0:0:0:0:
320,192,114998,128,0,115427:0:0:0:0:
448,192,114998,1,0,0:0:0:0:
64,192,115070,1,0,0:0:0:0:
448,192,115141,1,0,0:0:0:0:
64,192,115213,1,0,0:0:0:0:
448,192,115284,1,0,0:0:0:0:
64,192,115356,1,0,0:0:0:0:
192,192,115427,128,0,116570:0:0:0:0:
448,192,115427,1,0,0:0:0:0:
64,192,115498,1,0,0:0:0:0:
448,192,115570,1,0,0:0:0:0:
64,192,115641,1,0,0:0:0:0:
448,192,115713,1,0,0:0:0:0:
64,192,115784,1,0,0:0:0:0:
448,192,115856,1,0,0:0:0:0:
320,192,115856,1,0,0:0:0:0:
64,192,115927,1,0,0:0:0:0:
448,192,115998,1,0,0:0:0:0:
64,192,116070,1,0,0:0:0:0:
448,192,116141,1,0,0:0:0:0:
64,192,116213,1,0,0:0:0:0:
448,192,116284,1,0,0:0:0:0:
320,192,116284,1,0,0:0:0:0:
64,192,116356,1,0,0:0:0:0:
448,192,116427,1,0,0:0:0:0:
64,192,116498,1,0,0:0:0:0:
448,192,116570,1,0,0:0:0:0:
64,192,116641,1,0,0:0:0:0:
448,192,116713,1,0,0:0:0:0:
320,192,116713,1,0,0:0:0:0:
320,192,116856,128,0,119427:0:0:0:0:
448,192,116856,128,0,119427:0:0:0:0:
64,192,116856,128,0,119427:0:0:0:0:
192,192,116856,128,0,119427:0:0:0:0:
