osu file format v14

[General]
AudioFilename: Kamui.mp3
AudioLeadIn: 0
PreviewTime: 80285
Countdown: 0
SampleSet: None
StackLeniency: 0.7
Mode: 3
LetterboxInBreaks: 0
SpecialStyle: 0
WidescreenStoryboard: 0

[Editor]
DistanceSpacing: 1
BeatDivisor: 4
GridSize: 4
TimelineZoom: 1

[Metadata]
Title:Kamui
TitleUnicode:Kamui
Artist:TJ.Hangneil
ArtistUnicode:TJ.Hangneil
Creator:Marirose
Version:5K SHD
Source:Ez2Dj 7th TraX Class R Codename : Violet
Tags:sasakure.UK
BeatmapID:983705
BeatmapSetID:459161

[Difficulty]
HPDrainRate:9
CircleSize:5
OverallDifficulty:9
ApproachRate:5
SliderMultiplier:1.4
SliderTickRate:1

[Events]
//Background and Video events
0,0,"BG.jpg",0,0
//Break Periods
//Storyboard Layer 0 (Background)
//Storyboard Layer 1 (Fail)
//Storyboard Layer 2 (Pass)
//Storyboard Layer 3 (Foreground)
//Storyboard Sound Samples

[TimingPoints]
571,285.714285714286,4,1,0,15,1,0

[HitObjects]
153,192,571,5,0,0:0:0:0:
358,192,714,1,0,0:0:0:0:
256,192,1142,1,0,0:0:0:0:
460,192,1499,1,0,0:0:0:0:
460,192,1713,1,0,0:0:0:0:
460,192,1928,1,0,0:0:0:0:
460,192,2142,1,0,0:0:0:0:
460,192,2356,1,0,0:0:0:0:
460,192,2571,128,0,2999:0:0:0:0:
153,192,2571,128,0,4428:0:0:0:0:
358,192,2999,1,0,0:0:0:0:
51,192,2999,1,0,0:0:0:0:
358,192,3285,1,0,0:0:0:0:
358,192,3571,1,0,0:0:0:0:
358,192,3856,1,0,0:0:0:0:
358,192,4142,1,0,0:0:0:0:
358,192,4428,128,0,4856:0:0:0:0:
256,192,4856,1,0,0:0:0:0:
460,192,4856,128,0,6642:0:0:0:0:
51,192,4856,128,0,7142:0:0:0:0:
256,192,5285,1,0,0:0:0:0:
256,192,5571,1,0,0:0:0:0:
256,192,5856,1,0,0:0:0:0:
256,192,6142,1,0,0:0:0:0:
256,192,6428,1,0,0:0:0:0:
256,192,6713,128,0,7142:0:0:0:0:
358,192,6713,1,0,0:0:0:0:
153,192,7142,1,0,0:0:0:0:
358,192,7142,128,0,8928:0:0:0:0:
460,192,7142,128,0,9428:0:0:0:0:
153,192,7571,1,0,0:0:0:0:
153,192,7856,1,0,0:0:0:0:
153,192,8142,1,0,0:0:0:0:
153,192,8428,1,0,0:0:0:0:
153,192,8713,1,0,0:0:0:0:
153,192,8999,128,0,9428:0:0:0:0:
256,192,9428,1,0,0:0:0:0:
358,192,9428,1,0,0:0:0:0:
51,192,9428,128,0,11642:0:0:0:0:
358,192,9856,1,0,0:0:0:0:
358,192,10142,1,0,0:0:0:0:
358,192,10428,1,0,0:0:0:0:
460,192,10571,128,0,11642:0:0:0:0:
256,192,10571,128,0,11642:0:0:0:0:
153,192,11713,1,0,0:0:0:0:
51,192,11713,1,0,0:0:0:0:
358,192,11713,1,0,0:0:0:0:
460,192,11999,1,0,0:0:0:0:
51,192,11999,1,0,0:0:0:0:
358,192,11999,1,0,0:0:0:0:
153,192,12142,1,0,0:0:0:0:
51,192,12213,1,0,0:0:0:0:
358,192,12285,1,0,0:0:0:0:
256,192,12285,1,0,0:0:0:0:
460,192,12428,1,0,0:0:0:0:
51,192,12571,1,0,0:0:0:0:
358,192,12571,1,0,0:0:0:0:
153,192,12571,1,0,0:0:0:0:
460,192,12713,1,0,0:0:0:0:
256,192,12785,1,0,0:0:0:0:
153,192,12856,1,0,0:0:0:0:
358,192,12856,1,0,0:0:0:0:
51,192,12999,1,0,0:0:0:0:
256,192,13071,1,0,0:0:0:0:
460,192,13142,1,0,0:0:0:0:
51,192,13142,1,0,0:0:0:0:
358,192,13142,1,0,0:0:0:0:
153,192,13285,1,0,0:0:0:0:
51,192,13356,1,0,0:0:0:0:
256,192,13428,1,0,0:0:0:0:
460,192,13428,1,0,0:0:0:0:
153,192,13571,1,0,0:0:0:0:
358,192,13571,128,0,13999:0:0:0:0:
256,192,13642,1,0,0:0:0:0:
51,192,13713,1,0,0:0:0:0:
460,192,13713,1,0,0:0:0:0:
153,192,13856,1,0,0:0:0:0:
256,192,13928,1,0,0:0:0:0:
460,192,13999,1,0,0:0:0:0:
153,192,13999,1,0,0:0:0:0:
51,192,13999,1,0,0:0:0:0:
256,192,14142,1,0,0:0:0:0:
153,192,14285,1,0,0:0:0:0:
460,192,14285,1,0,0:0:0:0:
51,192,14285,1,0,0:0:0:0:
358,192,14356,1,0,0:0:0:0:
153,192,14428,1,0,0:0:0:0:
256,192,14499,1,0,0:0:0:0:
51,192,14571,1,0,0:0:0:0:
460,192,14571,1,0,0:0:0:0:
256,192,14713,1,0,0:0:0:0:
460,192,14856,1,0,0:0:0:0:
153,192,14856,1,0,0:0:0:0:
51,192,14856,1,0,0:0:0:0:
358,192,14999,1,0,0:0:0:0:
460,192,15071,1,0,0:0:0:0:
51,192,15142,1,0,0:0:0:0:
358,192,15142,1,0,0:0:0:0:
256,192,15285,1,0,0:0:0:0:
460,192,15356,1,0,0:0:0:0:
153,192,15428,1,0,0:0:0:0:
51,192,15428,1,0,0:0:0:0:
358,192,15428,1,0,0:0:0:0:
460,192,15571,1,0,0:0:0:0:
153,192,15642,1,0,0:0:0:0:
256,192,15713,1,0,0:0:0:0:
51,192,15785,1,0,0:0:0:0:
460,192,15856,1,0,0:0:0:0:
358,192,15856,128,0,16285:0:0:0:0:
153,192,15928,1,0,0:0:0:0:
51,192,15999,1,0,0:0:0:0:
460,192,15999,1,0,0:0:0:0:
256,192,15999,1,0,0:0:0:0:
153,192,16142,1,0,0:0:0:0:
256,192,16213,1,0,0:0:0:0:
51,192,16285,1,0,0:0:0:0:
460,192,16356,1,0,0:0:0:0:
256,192,16428,1,0,0:0:0:0:
153,192,16571,1,0,0:0:0:0:
51,192,16571,1,0,0:0:0:0:
460,192,16571,1,0,0:0:0:0:
358,192,16642,1,0,0:0:0:0:
153,192,16713,1,0,0:0:0:0:
358,192,16785,1,0,0:0:0:0:
256,192,16856,1,0,0:0:0:0:
460,192,16856,1,0,0:0:0:0:
153,192,16999,1,0,0:0:0:0:
256,192,17071,1,0,0:0:0:0:
358,192,17142,1,0,0:0:0:0:
460,192,17142,1,0,0:0:0:0:
51,192,17142,1,0,0:0:0:0:
153,192,17285,1,0,0:0:0:0:
51,192,17356,1,0,0:0:0:0:
256,192,17428,1,0,0:0:0:0:
358,192,17428,1,0,0:0:0:0:
153,192,17571,1,0,0:0:0:0:
358,192,17642,1,0,0:0:0:0:
256,192,17713,1,0,0:0:0:0:
51,192,17713,1,0,0:0:0:0:
460,192,17713,1,0,0:0:0:0:
358,192,17856,1,0,0:0:0:0:
460,192,17928,1,0,0:0:0:0:
51,192,17999,1,0,0:0:0:0:
153,192,17999,1,0,0:0:0:0:
460,192,18071,1,0,0:0:0:0:
358,192,18142,128,0,18571:0:0:0:0:
256,192,18285,1,0,0:0:0:0:
460,192,18285,1,0,0:0:0:0:
51,192,18285,1,0,0:0:0:0:
153,192,18428,1,0,0:0:0:0:
256,192,18499,1,0,0:0:0:0:
460,192,18571,1,0,0:0:0:0:
51,192,18571,1,0,0:0:0:0:
153,192,18571,1,0,0:0:0:0:
256,192,18713,1,0,0:0:0:0:
460,192,18856,1,0,0:0:0:0:
51,192,18856,1,0,0:0:0:0:
358,192,18856,1,0,0:0:0:0:
153,192,18999,1,0,0:0:0:0:
51,192,19071,1,0,0:0:0:0:
256,192,19142,1,0,0:0:0:0:
358,192,19142,1,0,0:0:0:0:
51,192,19285,1,0,0:0:0:0:
153,192,19428,1,0,0:0:0:0:
460,192,19428,1,0,0:0:0:0:
460,192,19571,1,0,0:0:0:0:
358,192,19642,1,0,0:0:0:0:
51,192,19713,1,0,0:0:0:0:
256,192,19785,1,0,0:0:0:0:
51,192,19856,1,0,0:0:0:0:
256,192,19928,1,0,0:0:0:0:
460,192,19999,1,0,0:0:0:0:
51,192,19999,1,0,0:0:0:0:
153,192,19999,1,0,0:0:0:0:
256,192,20071,1,0,0:0:0:0:
51,192,20142,1,0,0:0:0:0:
256,192,20213,1,0,0:0:0:0:
51,192,20285,1,0,0:0:0:0:
256,192,20356,1,0,0:0:0:0:
358,192,20356,1,0,0:0:0:0:
460,192,20428,128,0,20856:0:0:0:0:
153,192,20428,1,0,0:0:0:0:
358,192,20499,1,0,0:0:0:0:
51,192,20571,1,0,0:0:0:0:
153,192,20571,1,0,0:0:0:0:
358,192,20642,1,0,0:0:0:0:
153,192,20713,1,0,0:0:0:0:
256,192,20785,1,0,0:0:0:0:
51,192,20856,1,0,0:0:0:0:
358,192,20856,1,0,0:0:0:0:
460,192,20999,1,0,0:0:0:0:
153,192,21142,1,0,0:0:0:0:
256,192,21142,1,0,0:0:0:0:
460,192,21285,1,0,0:0:0:0:
256,192,21356,1,0,0:0:0:0:
358,192,21428,128,0,21999:0:0:0:0:
51,192,21428,1,0,0:0:0:0:
153,192,21571,1,0,0:0:0:0:
256,192,21713,1,0,0:0:0:0:
460,192,21713,1,0,0:0:0:0:
51,192,21856,1,0,0:0:0:0:
256,192,21928,1,0,0:0:0:0:
460,192,21999,128,0,22571:0:0:0:0:
153,192,21999,1,0,0:0:0:0:
358,192,22142,1,0,0:0:0:0:
51,192,22285,1,0,0:0:0:0:
256,192,22285,1,0,0:0:0:0:
153,192,22428,1,0,0:0:0:0:
51,192,22499,1,0,0:0:0:0:
256,192,22571,128,0,23142:0:0:0:0:
358,192,22571,1,0,0:0:0:0:
153,192,22713,1,0,0:0:0:0:
51,192,22856,1,0,0:0:0:0:
460,192,22856,1,0,0:0:0:0:
153,192,22999,1,0,0:0:0:0:
460,192,23071,1,0,0:0:0:0:
51,192,23142,128,0,23713:0:0:0:0:
358,192,23142,1,0,0:0:0:0:
256,192,23285,1,0,0:0:0:0:
460,192,23428,1,0,0:0:0:0:
153,192,23428,1,0,0:0:0:0:
358,192,23571,1,0,0:0:0:0:
460,192,23642,1,0,0:0:0:0:
153,192,23713,128,0,24285:0:0:0:0:
256,192,23713,1,0,0:0:0:0:
460,192,23856,1,0,0:0:0:0:
51,192,23999,1,0,0:0:0:0:
358,192,23999,1,0,0:0:0:0:
460,192,24142,1,0,0:0:0:0:
51,192,24213,1,0,0:0:0:0:
256,192,24285,128,0,24856:0:0:0:0:
358,192,24285,1,0,0:0:0:0:
51,192,24428,1,0,0:0:0:0:
460,192,24571,1,0,0:0:0:0:
153,192,24571,1,0,0:0:0:0:
51,192,24713,1,0,0:0:0:0:
153,192,24785,1,0,0:0:0:0:
358,192,24856,128,0,25428:0:0:0:0:
460,192,24856,1,0,0:0:0:0:
51,192,24928,1,0,0:0:0:0:
153,192,24999,1,0,0:0:0:0:
51,192,25142,1,0,0:0:0:0:
460,192,25142,1,0,0:0:0:0:
256,192,25142,1,0,0:0:0:0:
153,192,25285,1,0,0:0:0:0:
256,192,25356,1,0,0:0:0:0:
51,192,25428,128,0,27713:0:0:0:0:
460,192,25428,1,0,0:0:0:0:
153,192,25499,1,0,0:0:0:0:
256,192,25499,1,0,0:0:0:0:
460,192,25571,1,0,0:0:0:0:
256,192,25642,1,0,0:0:0:0:
358,192,25713,1,0,0:0:0:0:
460,192,25713,1,0,0:0:0:0:
153,192,25785,1,0,0:0:0:0:
358,192,25856,1,0,0:0:0:0:
153,192,25928,1,0,0:0:0:0:
460,192,25999,1,0,0:0:0:0:
256,192,26071,1,0,0:0:0:0:
358,192,26142,1,0,0:0:0:0:
256,192,26213,1,0,0:0:0:0:
153,192,26285,1,0,0:0:0:0:
460,192,26285,1,0,0:0:0:0:
358,192,26356,1,0,0:0:0:0:
153,192,26428,1,0,0:0:0:0:
358,192,26499,1,0,0:0:0:0:
460,192,26571,1,0,0:0:0:0:
256,192,26642,1,0,0:0:0:0:
460,192,26713,1,0,0:0:0:0:
256,192,26785,1,0,0:0:0:0:
153,192,26785,1,0,0:0:0:0:
460,192,26856,1,0,0:0:0:0:
153,192,26928,1,0,0:0:0:0:
460,192,26999,1,0,0:0:0:0:
358,192,26999,1,0,0:0:0:0:
153,192,27142,1,0,0:0:0:0:
256,192,27213,1,0,0:0:0:0:
358,192,27285,1,0,0:0:0:0:
460,192,27428,1,0,0:0:0:0:
460,192,27571,128,0,29356:0:0:0:0:
256,192,27571,1,0,0:0:0:0:
358,192,27642,1,0,0:0:0:0:
153,192,27713,1,0,0:0:0:0:
358,192,27785,1,0,0:0:0:0:
153,192,27856,1,0,0:0:0:0:
358,192,27928,1,0,0:0:0:0:
153,192,27999,1,0,0:0:0:0:
358,192,28071,1,0,0:0:0:0:
153,192,28142,1,0,0:0:0:0:
358,192,28213,1,0,0:0:0:0:
153,192,28285,1,0,0:0:0:0:
51,192,28285,1,0,0:0:0:0:
358,192,28356,1,0,0:0:0:0:
51,192,28428,1,0,0:0:0:0:
358,192,28499,1,0,0:0:0:0:
51,192,28571,1,0,0:0:0:0:
358,192,28642,1,0,0:0:0:0:
51,192,28713,1,0,0:0:0:0:
358,192,28785,1,0,0:0:0:0:
153,192,28856,1,0,0:0:0:0:
256,192,28856,1,0,0:0:0:0:
358,192,28928,1,0,0:0:0:0:
153,192,28999,1,0,0:0:0:0:
358,192,29071,1,0,0:0:0:0:
153,192,29142,1,0,0:0:0:0:
358,192,29213,1,0,0:0:0:0:
153,192,29285,1,0,0:0:0:0:
358,192,29356,1,0,0:0:0:0:
153,192,29428,1,0,0:0:0:0:
51,192,29428,1,0,0:0:0:0:
256,192,29428,128,0,29999:0:0:0:0:
358,192,29499,1,0,0:0:0:0:
460,192,29499,1,0,0:0:0:0:
153,192,29571,1,0,0:0:0:0:
51,192,29571,1,0,0:0:0:0:
358,192,29642,1,0,0:0:0:0:
460,192,29642,1,0,0:0:0:0:
153,192,29713,1,0,0:0:0:0:
51,192,29713,1,0,0:0:0:0:
460,192,29785,1,0,0:0:0:0:
358,192,29785,1,0,0:0:0:0:
153,192,29856,1,0,0:0:0:0:
51,192,29856,1,0,0:0:0:0:
460,192,29928,1,0,0:0:0:0:
358,192,29928,1,0,0:0:0:0:
51,192,29999,128,0,30785:0:0:0:0:
153,192,29999,1,0,0:0:0:0:
460,192,30285,1,0,0:0:0:0:
256,192,30285,1,0,0:0:0:0:
358,192,30428,1,0,0:0:0:0:
153,192,30571,1,0,0:0:0:0:
358,192,30713,1,0,0:0:0:0:
153,192,30856,128,0,31713:0:0:0:0:
256,192,30856,1,0,0:0:0:0:
358,192,30999,1,0,0:0:0:0:
51,192,31142,1,0,0:0:0:0:
358,192,31285,1,0,0:0:0:0:
51,192,31428,1,0,0:0:0:0:
358,192,31571,1,0,0:0:0:0:
51,192,31713,128,0,31999:0:0:0:0:
256,192,31713,1,0,0:0:0:0:
358,192,31856,1,0,0:0:0:0:
460,192,31856,128,0,32285:0:0:0:0:
153,192,31999,128,0,32285:0:0:0:0:
256,192,31999,1,0,0:0:0:0:
256,192,32285,128,0,32713:0:0:0:0:
51,192,32285,128,0,32642:0:0:0:0:
358,192,32285,1,0,0:0:0:0:
460,192,32571,1,0,0:0:0:0:
153,192,32713,128,0,33142:0:0:0:0:
358,192,32713,1,0,0:0:0:0:
51,192,32856,1,0,0:0:0:0:
358,192,32999,1,0,0:0:0:0:
460,192,33142,128,0,33999:0:0:0:0:
51,192,33142,1,0,0:0:0:0:
256,192,33142,1,0,0:0:0:0:
358,192,33285,1,0,0:0:0:0:
51,192,33428,128,0,33571:0:0:0:0:
153,192,33428,1,0,0:0:0:0:
358,192,33571,1,0,0:0:0:0:
256,192,33713,1,0,0:0:0:0:
51,192,33856,128,0,33999:0:0:0:0:
358,192,33856,1,0,0:0:0:0:
256,192,33999,128,0,34285:0:0:0:0:
153,192,33999,1,0,0:0:0:0:
51,192,34142,128,0,34285:0:0:0:0:
358,192,34285,128,0,34571:0:0:0:0:
460,192,34285,1,0,0:0:0:0:
51,192,34428,128,0,34571:0:0:0:0:
153,192,34428,1,0,0:0:0:0:
460,192,34499,1,0,0:0:0:0:
153,192,34571,128,0,34999:0:0:0:0:
256,192,34571,1,0,0:0:0:0:
51,192,34713,1,0,0:0:0:0:
460,192,34856,1,0,0:0:0:0:
358,192,34856,1,0,0:0:0:0:
256,192,34999,128,0,35428:0:0:0:0:
51,192,34999,1,0,0:0:0:0:
153,192,35142,1,0,0:0:0:0:
460,192,35285,1,0,0:0:0:0:
51,192,35285,1,0,0:0:0:0:
460,192,35428,128,0,36285:0:0:0:0:
358,192,35428,1,0,0:0:0:0:
153,192,35428,1,0,0:0:0:0:
51,192,35571,1,0,0:0:0:0:
358,192,35713,1,0,0:0:0:0:
153,192,35785,1,0,0:0:0:0:
51,192,35856,1,0,0:0:0:0:
153,192,35999,1,0,0:0:0:0:
256,192,35999,1,0,0:0:0:0:
358,192,36071,1,0,0:0:0:0:
51,192,36142,1,0,0:0:0:0:
256,192,36213,1,0,0:0:0:0:
358,192,36285,128,0,36571:0:0:0:0:
153,192,36285,1,0,0:0:0:0:
51,192,36428,128,0,36856:0:0:0:0:
460,192,36428,1,0,0:0:0:0:
256,192,36571,128,0,36856:0:0:0:0:
153,192,36571,1,0,0:0:0:0:
460,192,36713,1,0,0:0:0:0:
153,192,36785,1,0,0:0:0:0:
358,192,36856,128,0,37285:0:0:0:0:
460,192,36856,1,0,0:0:0:0:
51,192,37142,1,0,0:0:0:0:
460,192,37142,1,0,0:0:0:0:
256,192,37285,128,0,37713:0:0:0:0:
153,192,37285,1,0,0:0:0:0:
460,192,37428,1,0,0:0:0:0:
153,192,37571,1,0,0:0:0:0:
358,192,37713,128,0,38571:0:0:0:0:
51,192,37713,1,0,0:0:0:0:
153,192,37856,1,0,0:0:0:0:
460,192,37999,1,0,0:0:0:0:
51,192,37999,1,0,0:0:0:0:
256,192,38071,1,0,0:0:0:0:
153,192,38142,1,0,0:0:0:0:
460,192,38213,1,0,0:0:0:0:
51,192,38285,1,0,0:0:0:0:
256,192,38285,1,0,0:0:0:0:
460,192,38356,1,0,0:0:0:0:
153,192,38428,1,0,0:0:0:0:
51,192,38499,1,0,0:0:0:0:
460,192,38571,128,0,39142:0:0:0:0:
256,192,38571,1,0,0:0:0:0:
51,192,38642,1,0,0:0:0:0:
153,192,38713,128,0,39142:0:0:0:0:
358,192,38713,1,0,0:0:0:0:
256,192,38785,1,0,0:0:0:0:
51,192,38856,1,0,0:0:0:0:
358,192,38928,1,0,0:0:0:0:
256,192,38999,1,0,0:0:0:0:
51,192,39071,1,0,0:0:0:0:
256,192,39142,128,0,39999:0:0:0:0:
358,192,39142,1,0,0:0:0:0:
51,192,39428,1,0,0:0:0:0:
358,192,39428,1,0,0:0:0:0:
460,192,39571,1,0,0:0:0:0:
153,192,39713,1,0,0:0:0:0:
460,192,39856,1,0,0:0:0:0:
358,192,39999,128,0,40856:0:0:0:0:
51,192,39999,1,0,0:0:0:0:
153,192,39999,1,0,0:0:0:0:
460,192,40142,1,0,0:0:0:0:
153,192,40285,1,0,0:0:0:0:
460,192,40428,1,0,0:0:0:0:
256,192,40428,1,0,0:0:0:0:
153,192,40571,1,0,0:0:0:0:
51,192,40571,1,0,0:0:0:0:
460,192,40713,1,0,0:0:0:0:
256,192,40713,1,0,0:0:0:0:
51,192,40856,128,0,41142:0:0:0:0:
153,192,40856,1,0,0:0:0:0:
460,192,40999,128,0,41428:0:0:0:0:
256,192,40999,1,0,0:0:0:0:
358,192,41142,128,0,41428:0:0:0:0:
153,192,41142,1,0,0:0:0:0:
256,192,41285,1,0,0:0:0:0:
51,192,41356,1,0,0:0:0:0:
256,192,41428,128,0,41856:0:0:0:0:
153,192,41428,1,0,0:0:0:0:
51,192,41571,1,0,0:0:0:0:
460,192,41713,1,0,0:0:0:0:
153,192,41713,1,0,0:0:0:0:
51,192,41856,128,0,42285:0:0:0:0:
358,192,41856,1,0,0:0:0:0:
153,192,41999,1,0,0:0:0:0:
358,192,42142,1,0,0:0:0:0:
460,192,42285,128,0,43142:0:0:0:0:
256,192,42285,1,0,0:0:0:0:
153,192,42285,1,0,0:0:0:0:
358,192,42428,1,0,0:0:0:0:
51,192,42571,1,0,0:0:0:0:
358,192,42713,1,0,0:0:0:0:
153,192,42713,1,0,0:0:0:0:
256,192,42856,1,0,0:0:0:0:
51,192,42856,1,0,0:0:0:0:
358,192,42999,1,0,0:0:0:0:
256,192,43142,128,0,43428:0:0:0:0:
153,192,43142,1,0,0:0:0:0:
51,192,43213,1,0,0:0:0:0:
358,192,43285,128,0,43713:0:0:0:0:
153,192,43285,1,0,0:0:0:0:
51,192,43428,128,0,43713:0:0:0:0:
460,192,43428,1,0,0:0:0:0:
153,192,43571,1,0,0:0:0:0:
460,192,43642,1,0,0:0:0:0:
153,192,43713,128,0,44142:0:0:0:0:
256,192,43713,1,0,0:0:0:0:
51,192,43856,1,0,0:0:0:0:
460,192,43999,1,0,0:0:0:0:
358,192,43999,1,0,0:0:0:0:
358,192,44142,128,0,44571:0:0:0:0:
256,192,44142,1,0,0:0:0:0:
51,192,44213,1,0,0:0:0:0:
460,192,44285,1,0,0:0:0:0:
256,192,44428,1,0,0:0:0:0:
460,192,44571,128,0,45428:0:0:0:0:
153,192,44571,1,0,0:0:0:0:
51,192,44571,1,0,0:0:0:0:
256,192,44713,1,0,0:0:0:0:
358,192,44856,1,0,0:0:0:0:
51,192,44928,1,0,0:0:0:0:
256,192,44999,1,0,0:0:0:0:
358,192,45071,1,0,0:0:0:0:
153,192,45142,1,0,0:0:0:0:
51,192,45213,1,0,0:0:0:0:
256,192,45285,1,0,0:0:0:0:
153,192,45356,1,0,0:0:0:0:
358,192,45428,128,0,45713:0:0:0:0:
51,192,45428,1,0,0:0:0:0:
153,192,45499,1,0,0:0:0:0:
256,192,45571,128,0,45999:0:0:0:0:
460,192,45571,1,0,0:0:0:0:
51,192,45642,1,0,0:0:0:0:
153,192,45713,128,0,45999:0:0:0:0:
460,192,45713,1,0,0:0:0:0:
51,192,45785,1,0,0:0:0:0:
460,192,45856,1,0,0:0:0:0:
358,192,45928,1,0,0:0:0:0:
51,192,45999,128,0,46428:0:0:0:0:
460,192,45999,128,0,46856:0:0:0:0:
256,192,46142,1,0,0:0:0:0:
358,192,46285,1,0,0:0:0:0:
153,192,46356,1,0,0:0:0:0:
256,192,46428,128,0,46856:0:0:0:0:
358,192,46428,1,0,0:0:0:0:
153,192,46499,1,0,0:0:0:0:
51,192,46571,1,0,0:0:0:0:
153,192,46713,1,0,0:0:0:0:
153,192,46856,128,0,47428:0:0:0:0:
51,192,46856,1,0,0:0:0:0:
358,192,46856,1,0,0:0:0:0:
460,192,46999,1,0,0:0:0:0:
256,192,47071,1,0,0:0:0:0:
51,192,47142,128,0,48285:0:0:0:0:
358,192,47142,128,0,48285:0:0:0:0:
460,192,47142,1,0,0:0:0:0:
460,192,47285,1,0,0:0:0:0:
256,192,47428,1,0,0:0:0:0:
460,192,47571,1,0,0:0:0:0:
153,192,47713,1,0,0:0:0:0:
256,192,47856,1,0,0:0:0:0:
460,192,47999,1,0,0:0:0:0:
153,192,48142,1,0,0:0:0:0:
256,192,48285,1,0,0:0:0:0:
460,192,48285,1,0,0:0:0:0:
153,192,48285,1,0,0:0:0:0:
256,192,48571,1,0,0:0:0:0:
51,192,48571,1,0,0:0:0:0:
460,192,48713,1,0,0:0:0:0:
153,192,48856,128,0,49428:0:0:0:0:
51,192,48856,1,0,0:0:0:0:
256,192,48856,1,0,0:0:0:0:
358,192,48856,1,0,0:0:0:0:
460,192,48928,1,0,0:0:0:0:
51,192,48999,1,0,0:0:0:0:
460,192,49071,1,0,0:0:0:0:
51,192,49142,1,0,0:0:0:0:
460,192,49213,1,0,0:0:0:0:
51,192,49285,1,0,0:0:0:0:
460,192,49356,1,0,0:0:0:0:
358,192,49428,128,0,49999:0:0:0:0:
256,192,49428,1,0,0:0:0:0:
51,192,49428,1,0,0:0:0:0:
153,192,49499,1,0,0:0:0:0:
51,192,49571,1,0,0:0:0:0:
153,192,49642,1,0,0:0:0:0:
51,192,49713,1,0,0:0:0:0:
153,192,49785,1,0,0:0:0:0:
51,192,49856,1,0,0:0:0:0:
153,192,49928,1,0,0:0:0:0:
51,192,49999,128,0,50571:0:0:0:0:
460,192,49999,1,0,0:0:0:0:
256,192,50071,1,0,0:0:0:0:
460,192,50142,1,0,0:0:0:0:
256,192,50213,1,0,0:0:0:0:
460,192,50285,1,0,0:0:0:0:
256,192,50356,1,0,0:0:0:0:
460,192,50428,1,0,0:0:0:0:
256,192,50499,1,0,0:0:0:0:
256,192,50571,128,0,51142:0:0:0:0:
358,192,50571,1,0,0:0:0:0:
153,192,50642,1,0,0:0:0:0:
358,192,50713,1,0,0:0:0:0:
153,192,50785,1,0,0:0:0:0:
358,192,50856,1,0,0:0:0:0:
153,192,50928,1,0,0:0:0:0:
358,192,50999,1,0,0:0:0:0:
153,192,51071,1,0,0:0:0:0:
460,192,51142,128,0,51713:0:0:0:0:
358,192,51142,1,0,0:0:0:0:
51,192,51142,1,0,0:0:0:0:
256,192,51213,1,0,0:0:0:0:
51,192,51285,1,0,0:0:0:0:
256,192,51356,1,0,0:0:0:0:
51,192,51428,1,0,0:0:0:0:
256,192,51499,1,0,0:0:0:0:
51,192,51571,1,0,0:0:0:0:
256,192,51642,1,0,0:0:0:0:
358,192,51713,128,0,52285:0:0:0:0:
153,192,51713,1,0,0:0:0:0:
460,192,51785,1,0,0:0:0:0:
153,192,51856,1,0,0:0:0:0:
460,192,51928,1,0,0:0:0:0:
153,192,51999,1,0,0:0:0:0:
460,192,52071,1,0,0:0:0:0:
153,192,52142,1,0,0:0:0:0:
460,192,52213,1,0,0:0:0:0:
153,192,52285,128,0,52856:0:0:0:0:
51,192,52285,1,0,0:0:0:0:
256,192,52285,1,0,0:0:0:0:
358,192,52356,1,0,0:0:0:0:
51,192,52428,1,0,0:0:0:0:
460,192,52428,1,0,0:0:0:0:
358,192,52499,1,0,0:0:0:0:
51,192,52571,1,0,0:0:0:0:
460,192,52571,1,0,0:0:0:0:
358,192,52642,1,0,0:0:0:0:
51,192,52713,1,0,0:0:0:0:
460,192,52713,1,0,0:0:0:0:
358,192,52785,1,0,0:0:0:0:
51,192,52856,1,0,0:0:0:0:
460,192,52856,1,0,0:0:0:0:
256,192,52856,1,0,0:0:0:0:
358,192,52928,1,0,0:0:0:0:
153,192,52999,1,0,0:0:0:0:
358,192,53071,1,0,0:0:0:0:
51,192,53142,1,0,0:0:0:0:
153,192,53142,1,0,0:0:0:0:
358,192,53213,1,0,0:0:0:0:
51,192,53285,1,0,0:0:0:0:
153,192,53285,1,0,0:0:0:0:
358,192,53356,1,0,0:0:0:0:
256,192,53428,1,0,0:0:0:0:
460,192,53428,1,0,0:0:0:0:
153,192,53499,1,0,0:0:0:0:
51,192,53571,1,0,0:0:0:0:
153,192,53642,1,0,0:0:0:0:
51,192,53713,1,0,0:0:0:0:
153,192,53785,1,0,0:0:0:0:
51,192,53856,1,0,0:0:0:0:
256,192,53928,1,0,0:0:0:0:
358,192,53999,1,0,0:0:0:0:
153,192,53999,1,0,0:0:0:0:
460,192,54071,1,0,0:0:0:0:
51,192,54142,1,0,0:0:0:0:
358,192,54142,1,0,0:0:0:0:
460,192,54213,1,0,0:0:0:0:
51,192,54285,1,0,0:0:0:0:
358,192,54285,1,0,0:0:0:0:
460,192,54356,1,0,0:0:0:0:
256,192,54428,1,0,0:0:0:0:
153,192,54428,1,0,0:0:0:0:
358,192,54499,1,0,0:0:0:0:
256,192,54571,1,0,0:0:0:0:
51,192,54571,1,0,0:0:0:0:
358,192,54642,1,0,0:0:0:0:
153,192,54642,1,0,0:0:0:0:
460,192,54713,1,0,0:0:0:0:
256,192,54713,1,0,0:0:0:0:
358,192,54785,1,0,0:0:0:0:
153,192,54785,1,0,0:0:0:0:
51,192,54856,1,0,0:0:0:0:
256,192,54928,1,0,0:0:0:0:
460,192,54999,128,0,56571:0:0:0:0:
51,192,54999,1,0,0:0:0:0:
358,192,54999,1,0,0:0:0:0:
256,192,55071,1,0,0:0:0:0:
51,192,55142,1,0,0:0:0:0:
358,192,55142,1,0,0:0:0:0:
153,192,55142,1,0,0:0:0:0:
256,192,55213,1,0,0:0:0:0:
51,192,55285,1,0,0:0:0:0:
256,192,55356,1,0,0:0:0:0:
358,192,55428,1,0,0:0:0:0:
51,192,55428,1,0,0:0:0:0:
153,192,55499,1,0,0:0:0:0:
51,192,55571,1,0,0:0:0:0:
153,192,55642,1,0,0:0:0:0:
51,192,55713,1,0,0:0:0:0:
256,192,55713,1,0,0:0:0:0:
358,192,55713,1,0,0:0:0:0:
153,192,55785,1,0,0:0:0:0:
51,192,55856,1,0,0:0:0:0:
358,192,55928,1,0,0:0:0:0:
153,192,55999,1,0,0:0:0:0:
256,192,55999,1,0,0:0:0:0:
358,192,56071,1,0,0:0:0:0:
51,192,56142,1,0,0:0:0:0:
153,192,56142,1,0,0:0:0:0:
358,192,56213,1,0,0:0:0:0:
51,192,56285,1,0,0:0:0:0:
153,192,56285,1,0,0:0:0:0:
358,192,56356,1,0,0:0:0:0:
153,192,56428,1,0,0:0:0:0:
51,192,56499,1,0,0:0:0:0:
256,192,56499,1,0,0:0:0:0:
358,192,56571,1,0,0:0:0:0:
153,192,56571,1,0,0:0:0:0:
51,192,56713,128,0,56856:0:0:0:0:
153,192,56713,1,0,0:0:0:0:
460,192,56713,1,0,0:0:0:0:
358,192,56785,1,0,0:0:0:0:
153,192,56856,1,0,0:0:0:0:
256,192,56856,1,0,0:0:0:0:
358,192,56928,1,0,0:0:0:0:
460,192,56928,1,0,0:0:0:0:
51,192,56999,1,0,0:0:0:0:
153,192,56999,1,0,0:0:0:0:
256,192,57071,1,0,0:0:0:0:
460,192,57071,1,0,0:0:0:0:
51,192,57142,1,0,0:0:0:0:
153,192,57142,1,0,0:0:0:0:
358,192,57213,1,0,0:0:0:0:
256,192,57213,1,0,0:0:0:0:
51,192,57285,1,0,0:0:0:0:
153,192,57285,1,0,0:0:0:0:
460,192,57356,1,0,0:0:0:0:
358,192,57356,1,0,0:0:0:0:
256,192,57356,1,0,0:0:0:0:
153,192,57713,1,0,0:0:0:0:
358,192,57856,1,0,0:0:0:0:
256,192,58142,1,0,0:0:0:0:
460,192,58213,1,0,0:0:0:0:
358,192,58606,1,0,0:0:0:0:
358,192,58856,1,0,0:0:0:0:
358,192,59106,1,0,0:0:0:0:
358,192,59321,1,0,0:0:0:0:
460,192,59463,1,0,0:0:0:0:
358,192,59499,1,0,0:0:0:0:
256,192,59535,1,0,0:0:0:0:
153,192,59571,1,0,0:0:0:0:
51,192,59606,1,0,0:0:0:0:
153,192,59642,1,0,0:0:0:0:
256,192,59678,1,0,0:0:0:0:
358,192,59713,1,0,0:0:0:0:
460,192,59749,1,0,0:0:0:0:
358,192,59785,1,0,0:0:0:0:
256,192,59821,1,0,0:0:0:0:
153,192,59856,1,0,0:0:0:0:
51,192,59892,1,0,0:0:0:0:
153,192,59928,1,0,0:0:0:0:
256,192,59963,1,0,0:0:0:0:
358,192,59999,1,0,0:0:0:0:
460,192,60035,1,0,0:0:0:0:
358,192,60071,1,0,0:0:0:0:
256,192,60106,1,0,0:0:0:0:
153,192,60142,1,0,0:0:0:0:
51,192,60178,1,0,0:0:0:0:
153,192,60213,1,0,0:0:0:0:
256,192,60249,1,0,0:0:0:0:
358,192,60285,1,0,0:0:0:0:
460,192,60321,1,0,0:0:0:0:
358,192,60356,1,0,0:0:0:0:
256,192,60392,1,0,0:0:0:0:
153,192,60428,1,0,0:0:0:0:
51,192,60463,1,0,0:0:0:0:
153,192,60499,1,0,0:0:0:0:
256,192,60535,1,0,0:0:0:0:
358,192,60571,1,0,0:0:0:0:
460,192,60606,1,0,0:0:0:0:
358,192,60642,1,0,0:0:0:0:
256,192,60678,1,0,0:0:0:0:
153,192,60713,1,0,0:0:0:0:
51,192,60749,1,0,0:0:0:0:
153,192,60785,1,0,0:0:0:0:
256,192,60821,1,0,0:0:0:0:
358,192,60856,1,0,0:0:0:0:
460,192,60892,1,0,0:0:0:0:
358,192,60928,1,0,0:0:0:0:
256,192,60963,1,0,0:0:0:0:
153,192,60999,1,0,0:0:0:0:
51,192,61035,1,0,0:0:0:0:
153,192,61071,1,0,0:0:0:0:
256,192,61106,1,0,0:0:0:0:
358,192,61142,1,0,0:0:0:0:
460,192,61178,1,0,0:0:0:0:
51,192,61213,1,0,0:0:0:0:
153,192,61249,1,0,0:0:0:0:
256,192,61285,1,0,0:0:0:0:
358,192,61321,1,0,0:0:0:0:
460,192,61356,1,0,0:0:0:0:
51,192,61392,1,0,0:0:0:0:
153,192,61428,1,0,0:0:0:0:
256,192,61463,1,0,0:0:0:0:
358,192,61499,1,0,0:0:0:0:
460,192,61535,1,0,0:0:0:0:
51,192,61571,1,0,0:0:0:0:
153,192,61606,1,0,0:0:0:0:
256,192,61642,1,0,0:0:0:0:
358,192,61678,1,0,0:0:0:0:
460,192,61713,1,0,0:0:0:0:
358,192,61749,1,0,0:0:0:0:
256,192,61785,1,0,0:0:0:0:
153,192,61821,1,0,0:0:0:0:
51,192,61856,1,0,0:0:0:0:
153,192,61892,1,0,0:0:0:0:
256,192,61928,1,0,0:0:0:0:
358,192,61963,1,0,0:0:0:0:
51,192,61999,1,0,0:0:0:0:
460,192,61999,1,0,0:0:0:0:
153,192,61999,1,0,0:0:0:0:
358,192,62142,1,0,0:0:0:0:
460,192,62285,1,0,0:0:0:0:
256,192,62285,1,0,0:0:0:0:
358,192,62428,1,0,0:0:0:0:
51,192,62571,1,0,0:0:0:0:
256,192,62571,1,0,0:0:0:0:
153,192,62713,1,0,0:0:0:0:
358,192,62856,1,0,0:0:0:0:
460,192,62856,1,0,0:0:0:0:
51,192,62856,1,0,0:0:0:0:
153,192,62999,1,0,0:0:0:0:
256,192,63142,1,0,0:0:0:0:
358,192,63142,1,0,0:0:0:0:
460,192,63285,1,0,0:0:0:0:
51,192,63428,1,0,0:0:0:0:
256,192,63428,1,0,0:0:0:0:
153,192,63428,1,0,0:0:0:0:
358,192,63571,1,0,0:0:0:0:
460,192,63713,1,0,0:0:0:0:
256,192,63713,1,0,0:0:0:0:
358,192,63856,1,0,0:0:0:0:
51,192,63999,1,0,0:0:0:0:
153,192,63999,1,0,0:0:0:0:
460,192,63999,1,0,0:0:0:0:
256,192,64142,1,0,0:0:0:0:
460,192,64285,1,0,0:0:0:0:
153,192,64285,1,0,0:0:0:0:
358,192,64428,1,0,0:0:0:0:
256,192,64571,1,0,0:0:0:0:
460,192,64571,1,0,0:0:0:0:
153,192,64571,1,0,0:0:0:0:
51,192,64713,1,0,0:0:0:0:
358,192,64856,1,0,0:0:0:0:
256,192,64999,1,0,0:0:0:0:
358,192,65142,1,0,0:0:0:0:
460,192,65142,1,0,0:0:0:0:
51,192,65142,1,0,0:0:0:0:
153,192,65285,1,0,0:0:0:0:
153,192,65428,128,0,65571:0:0:0:0:
358,192,65428,1,0,0:0:0:0:
51,192,65571,1,0,0:0:0:0:
256,192,65713,1,0,0:0:0:0:
460,192,65713,1,0,0:0:0:0:
153,192,65856,128,0,65999:0:0:0:0:
358,192,65856,1,0,0:0:0:0:
51,192,65999,1,0,0:0:0:0:
256,192,66071,1,0,0:0:0:0:
153,192,66142,128,0,66285:0:0:0:0:
358,192,66142,1,0,0:0:0:0:
256,192,66285,1,0,0:0:0:0:
460,192,66285,1,0,0:0:0:0:
51,192,66285,1,0,0:0:0:0:
153,192,66428,128,0,66571:0:0:0:0:
460,192,66499,1,0,0:0:0:0:
51,192,66571,1,0,0:0:0:0:
358,192,66571,1,0,0:0:0:0:
153,192,66713,1,0,0:0:0:0:
256,192,66856,1,0,0:0:0:0:
51,192,66856,1,0,0:0:0:0:
358,192,66856,1,0,0:0:0:0:
153,192,66999,1,0,0:0:0:0:
358,192,67142,1,0,0:0:0:0:
256,192,67285,1,0,0:0:0:0:
358,192,67428,1,0,0:0:0:0:
460,192,67428,1,0,0:0:0:0:
153,192,67428,1,0,0:0:0:0:
256,192,67571,1,0,0:0:0:0:
51,192,67713,1,0,0:0:0:0:
153,192,67713,1,0,0:0:0:0:
358,192,67856,1,0,0:0:0:0:
256,192,67999,1,0,0:0:0:0:
460,192,67999,1,0,0:0:0:0:
51,192,67999,1,0,0:0:0:0:
358,192,68142,1,0,0:0:0:0:
153,192,68285,1,0,0:0:0:0:
460,192,68428,1,0,0:0:0:0:
256,192,68571,1,0,0:0:0:0:
51,192,68571,1,0,0:0:0:0:
358,192,68571,1,0,0:0:0:0:
153,192,68713,1,0,0:0:0:0:
460,192,68856,1,0,0:0:0:0:
358,192,68856,1,0,0:0:0:0:
153,192,68999,1,0,0:0:0:0:
51,192,69142,1,0,0:0:0:0:
256,192,69142,1,0,0:0:0:0:
358,192,69142,1,0,0:0:0:0:
153,192,69285,1,0,0:0:0:0:
51,192,69356,1,0,0:0:0:0:
460,192,69428,1,0,0:0:0:0:
256,192,69428,1,0,0:0:0:0:
153,192,69571,1,0,0:0:0:0:
460,192,69713,1,0,0:0:0:0:
358,192,69713,1,0,0:0:0:0:
51,192,69713,1,0,0:0:0:0:
256,192,69856,1,0,0:0:0:0:
460,192,69999,1,0,0:0:0:0:
51,192,69999,1,0,0:0:0:0:
256,192,70071,1,0,0:0:0:0:
460,192,70142,1,0,0:0:0:0:
256,192,70213,1,0,0:0:0:0:
153,192,70285,1,0,0:0:0:0:
460,192,70285,1,0,0:0:0:0:
51,192,70285,1,0,0:0:0:0:
256,192,70356,1,0,0:0:0:0:
460,192,70428,1,0,0:0:0:0:
51,192,70499,1,0,0:0:0:0:
358,192,70571,1,0,0:0:0:0:
256,192,70642,1,0,0:0:0:0:
358,192,70713,1,0,0:0:0:0:
51,192,70785,1,0,0:0:0:0:
256,192,70856,1,0,0:0:0:0:
460,192,70856,1,0,0:0:0:0:
153,192,70856,1,0,0:0:0:0:
51,192,70928,1,0,0:0:0:0:
358,192,70999,1,0,0:0:0:0:
153,192,71071,1,0,0:0:0:0:
460,192,71142,1,0,0:0:0:0:
51,192,71142,1,0,0:0:0:0:
256,192,71142,1,0,0:0:0:0:
358,192,71213,1,0,0:0:0:0:
153,192,71285,1,0,0:0:0:0:
358,192,71356,1,0,0:0:0:0:
153,192,71428,1,0,0:0:0:0:
358,192,71499,1,0,0:0:0:0:
153,192,71571,1,0,0:0:0:0:
358,192,71642,1,0,0:0:0:0:
153,192,71713,128,0,72285:0:0:0:0:
51,192,71713,1,0,0:0:0:0:
460,192,71713,1,0,0:0:0:0:
256,192,71713,1,0,0:0:0:0:
358,192,71785,1,0,0:0:0:0:
51,192,71856,1,0,0:0:0:0:
358,192,71928,1,0,0:0:0:0:
51,192,71999,1,0,0:0:0:0:
358,192,72071,1,0,0:0:0:0:
51,192,72142,1,0,0:0:0:0:
358,192,72213,1,0,0:0:0:0:
256,192,72285,128,0,72856:0:0:0:0:
460,192,72285,1,0,0:0:0:0:
51,192,72285,1,0,0:0:0:0:
153,192,72356,1,0,0:0:0:0:
358,192,72428,1,0,0:0:0:0:
153,192,72499,1,0,0:0:0:0:
358,192,72571,1,0,0:0:0:0:
153,192,72642,1,0,0:0:0:0:
358,192,72713,1,0,0:0:0:0:
153,192,72785,1,0,0:0:0:0:
358,192,72856,128,0,73428:0:0:0:0:
460,192,72856,1,0,0:0:0:0:
51,192,72856,1,0,0:0:0:0:
153,192,72928,1,0,0:0:0:0:
51,192,72999,1,0,0:0:0:0:
153,192,73071,1,0,0:0:0:0:
51,192,73142,1,0,0:0:0:0:
153,192,73213,1,0,0:0:0:0:
51,192,73285,1,0,0:0:0:0:
153,192,73356,1,0,0:0:0:0:
460,192,73428,128,0,73999:0:0:0:0:
51,192,73428,1,0,0:0:0:0:
153,192,73499,1,0,0:0:0:0:
358,192,73571,1,0,0:0:0:0:
153,192,73642,1,0,0:0:0:0:
358,192,73713,1,0,0:0:0:0:
153,192,73785,1,0,0:0:0:0:
358,192,73856,1,0,0:0:0:0:
153,192,73928,1,0,0:0:0:0:
358,192,73999,128,0,74571:0:0:0:0:
51,192,73999,1,0,0:0:0:0:
256,192,73999,1,0,0:0:0:0:
153,192,74071,1,0,0:0:0:0:
460,192,74142,1,0,0:0:0:0:
153,192,74213,1,0,0:0:0:0:
460,192,74285,1,0,0:0:0:0:
153,192,74356,1,0,0:0:0:0:
460,192,74428,1,0,0:0:0:0:
153,192,74499,1,0,0:0:0:0:
256,192,74571,128,0,75142:0:0:0:0:
460,192,74571,1,0,0:0:0:0:
51,192,74571,1,0,0:0:0:0:
358,192,74642,1,0,0:0:0:0:
460,192,74713,1,0,0:0:0:0:
358,192,74785,1,0,0:0:0:0:
460,192,74856,1,0,0:0:0:0:
358,192,74928,1,0,0:0:0:0:
460,192,74999,1,0,0:0:0:0:
358,192,75071,1,0,0:0:0:0:
153,192,75142,128,0,75713:0:0:0:0:
51,192,75142,1,0,0:0:0:0:
460,192,75142,1,0,0:0:0:0:
358,192,75213,1,0,0:0:0:0:
51,192,75285,1,0,0:0:0:0:
358,192,75356,1,0,0:0:0:0:
51,192,75428,1,0,0:0:0:0:
358,192,75499,1,0,0:0:0:0:
51,192,75571,1,0,0:0:0:0:
358,192,75642,1,0,0:0:0:0:
51,192,75713,128,0,76571:0:0:0:0:
256,192,75713,128,0,76856:0:0:0:0:
460,192,75713,1,0,0:0:0:0:
358,192,75713,1,0,0:0:0:0:
153,192,75856,1,0,0:0:0:0:
460,192,75999,1,0,0:0:0:0:
358,192,76142,1,0,0:0:0:0:
153,192,76285,1,0,0:0:0:0:
460,192,76428,1,0,0:0:0:0:
358,192,76571,1,0,0:0:0:0:
153,192,76571,1,0,0:0:0:0:
460,192,76713,1,0,0:0:0:0:
460,192,76856,128,0,77999:0:0:0:0:
358,192,76856,1,0,0:0:0:0:
51,192,76856,1,0,0:0:0:0:
153,192,76999,1,0,0:0:0:0:
51,192,77142,1,0,0:0:0:0:
358,192,77142,1,0,0:0:0:0:
256,192,77285,1,0,0:0:0:0:
358,192,77428,1,0,0:0:0:0:
51,192,77571,1,0,0:0:0:0:
358,192,77713,1,0,0:0:0:0:
256,192,77713,1,0,0:0:0:0:
153,192,77856,1,0,0:0:0:0:
51,192,77999,1,0,0:0:0:0:
358,192,77999,128,0,80285:0:0:0:0:
256,192,77999,1,0,0:0:0:0:
153,192,78142,1,0,0:0:0:0:
460,192,78285,1,0,0:0:0:0:
51,192,78428,1,0,0:0:0:0:
256,192,78428,1,0,0:0:0:0:
153,192,78571,1,0,0:0:0:0:
460,192,78713,1,0,0:0:0:0:
256,192,78856,1,0,0:0:0:0:
153,192,78856,1,0,0:0:0:0:
51,192,78999,1,0,0:0:0:0:
460,192,78999,1,0,0:0:0:0:
153,192,79142,1,0,0:0:0:0:
256,192,79285,1,0,0:0:0:0:
51,192,79428,1,0,0:0:0:0:
460,192,79428,1,0,0:0:0:0:
153,192,79428,1,0,0:0:0:0:
256,192,79571,1,0,0:0:0:0:
51,192,79713,1,0,0:0:0:0:
460,192,79785,1,0,0:0:0:0:
153,192,79856,1,0,0:0:0:0:
51,192,79999,1,0,0:0:0:0:
460,192,79999,1,0,0:0:0:0:
51,192,80142,1,0,0:0:0:0:
256,192,80142,1,0,0:0:0:0:
256,192,80285,128,0,80713:0:0:0:0:
51,192,80285,1,0,0:0:0:0:
460,192,80285,1,0,0:0:0:0:
153,192,80285,1,0,0:0:0:0:
358,192,80428,1,0,0:0:0:0:
460,192,80571,1,0,0:0:0:0:
51,192,80571,1,0,0:0:0:0:
460,192,80713,128,0,81142:0:0:0:0:
153,192,80713,1,0,0:0:0:0:
358,192,80713,1,0,0:0:0:0:
256,192,80856,1,0,0:0:0:0:
153,192,80999,1,0,0:0:0:0:
358,192,81142,1,0,0:0:0:0:
51,192,81142,1,0,0:0:0:0:
256,192,81142,128,0,81999:0:0:0:0:
153,192,81285,1,0,0:0:0:0:
460,192,81285,1,0,0:0:0:0:
358,192,81428,1,0,0:0:0:0:
153,192,81571,1,0,0:0:0:0:
460,192,81571,1,0,0:0:0:0:
358,192,81713,1,0,0:0:0:0:
51,192,81713,1,0,0:0:0:0:
153,192,81856,1,0,0:0:0:0:
51,192,81999,128,0,82571:0:0:0:0:
460,192,81999,1,0,0:0:0:0:
153,192,82142,128,0,82571:0:0:0:0:
358,192,82142,1,0,0:0:0:0:
460,192,82285,1,0,0:0:0:0:
256,192,82285,1,0,0:0:0:0:
358,192,82428,1,0,0:0:0:0:
256,192,82571,128,0,82999:0:0:0:0:
460,192,82571,1,0,0:0:0:0:
153,192,82713,1,0,0:0:0:0:
460,192,82856,1,0,0:0:0:0:
51,192,82856,1,0,0:0:0:0:
358,192,82999,1,0,0:0:0:0:
460,192,82999,128,0,83428:0:0:0:0:
153,192,83142,1,0,0:0:0:0:
358,192,83285,1,0,0:0:0:0:
153,192,83428,128,0,84285:0:0:0:0:
51,192,83428,1,0,0:0:0:0:
256,192,83428,1,0,0:0:0:0:
358,192,83571,1,0,0:0:0:0:
51,192,83713,128,0,83856:0:0:0:0:
460,192,83713,1,0,0:0:0:0:
256,192,83713,1,0,0:0:0:0:
358,192,83856,1,0,0:0:0:0:
51,192,83999,1,0,0:0:0:0:
358,192,84142,1,0,0:0:0:0:
51,192,84142,128,0,84285:0:0:0:0:
256,192,84285,128,0,84571:0:0:0:0:
460,192,84285,1,0,0:0:0:0:
51,192,84428,128,0,84571:0:0:0:0:
153,192,84428,1,0,0:0:0:0:
153,192,84571,128,0,84856:0:0:0:0:
358,192,84571,1,0,0:0:0:0:
51,192,84713,128,0,84856:0:0:0:0:
460,192,84713,1,0,0:0:0:0:
358,192,84856,128,0,85142:0:0:0:0:
256,192,84856,128,0,85142:0:0:0:0:
51,192,84999,1,0,0:0:0:0:
460,192,85142,1,0,0:0:0:0:
51,192,85142,128,0,85713:0:0:0:0:
153,192,85142,1,0,0:0:0:0:
358,192,85285,1,0,0:0:0:0:
153,192,85428,1,0,0:0:0:0:
256,192,85428,1,0,0:0:0:0:
460,192,85571,1,0,0:0:0:0:
256,192,85713,128,0,86571:0:0:0:0:
358,192,85713,1,0,0:0:0:0:
153,192,85713,1,0,0:0:0:0:
460,192,85856,1,0,0:0:0:0:
51,192,85999,1,0,0:0:0:0:
358,192,85999,1,0,0:0:0:0:
460,192,86142,1,0,0:0:0:0:
51,192,86285,1,0,0:0:0:0:
358,192,86285,1,0,0:0:0:0:
460,192,86428,1,0,0:0:0:0:
51,192,86571,128,0,86856:0:0:0:0:
153,192,86571,1,0,0:0:0:0:
460,192,86713,128,0,87142:0:0:0:0:
256,192,86713,1,0,0:0:0:0:
153,192,86856,128,0,87142:0:0:0:0:
358,192,86856,1,0,0:0:0:0:
256,192,87142,1,0,0:0:0:0:
358,192,87142,128,0,87571:0:0:0:0:
51,192,87142,1,0,0:0:0:0:
460,192,87285,1,0,0:0:0:0:
153,192,87428,1,0,0:0:0:0:
51,192,87428,1,0,0:0:0:0:
256,192,87571,1,0,0:0:0:0:
460,192,87571,128,0,87999:0:0:0:0:
358,192,87713,1,0,0:0:0:0:
256,192,87856,1,0,0:0:0:0:
358,192,87999,128,0,88856:0:0:0:0:
51,192,87999,1,0,0:0:0:0:
153,192,87999,1,0,0:0:0:0:
256,192,88142,1,0,0:0:0:0:
460,192,88285,1,0,0:0:0:0:
256,192,88428,1,0,0:0:0:0:
153,192,88571,1,0,0:0:0:0:
460,192,88571,1,0,0:0:0:0:
256,192,88713,128,0,89428:0:0:0:0:
51,192,88713,1,0,0:0:0:0:
460,192,88856,128,0,89428:0:0:0:0:
153,192,88856,1,0,0:0:0:0:
358,192,88999,1,0,0:0:0:0:
153,192,89142,1,0,0:0:0:0:
51,192,89142,1,0,0:0:0:0:
358,192,89285,1,0,0:0:0:0:
153,192,89428,1,0,0:0:0:0:
51,192,89428,128,0,89856:0:0:0:0:
358,192,89571,1,0,0:0:0:0:
256,192,89713,1,0,0:0:0:0:
460,192,89713,1,0,0:0:0:0:
256,192,89856,128,0,90285:0:0:0:0:
153,192,89856,1,0,0:0:0:0:
358,192,89999,1,0,0:0:0:0:
153,192,90142,1,0,0:0:0:0:
358,192,90285,128,0,91142:0:0:0:0:
51,192,90285,1,0,0:0:0:0:
460,192,90285,1,0,0:0:0:0:
153,192,90428,1,0,0:0:0:0:
460,192,90571,1,0,0:0:0:0:
153,192,90713,1,0,0:0:0:0:
51,192,90856,1,0,0:0:0:0:
256,192,90856,1,0,0:0:0:0:
153,192,90999,128,0,91713:0:0:0:0:
460,192,90999,1,0,0:0:0:0:
256,192,91142,1,0,0:0:0:0:
460,192,91142,128,0,91713:0:0:0:0:
51,192,91285,1,0,0:0:0:0:
256,192,91428,1,0,0:0:0:0:
358,192,91428,1,0,0:0:0:0:
51,192,91713,1,0,0:0:0:0:
358,192,91713,1,0,0:0:0:0:
256,192,91713,128,0,92142:0:0:0:0:
153,192,91856,1,0,0:0:0:0:
460,192,91999,1,0,0:0:0:0:
358,192,91999,1,0,0:0:0:0:
51,192,92142,1,0,0:0:0:0:
153,192,92142,128,0,92571:0:0:0:0:
460,192,92285,1,0,0:0:0:0:
51,192,92428,1,0,0:0:0:0:
358,192,92428,1,0,0:0:0:0:
358,192,92571,128,0,93142:0:0:0:0:
256,192,92571,1,0,0:0:0:0:
460,192,92571,1,0,0:0:0:0:
51,192,92713,1,0,0:0:0:0:
460,192,92856,1,0,0:0:0:0:
51,192,92999,1,0,0:0:0:0:
460,192,93142,128,0,93428:0:0:0:0:
256,192,93142,1,0,0:0:0:0:
153,192,93142,1,0,0:0:0:0:
51,192,93285,128,0,93713:0:0:0:0:
358,192,93285,1,0,0:0:0:0:
358,192,93428,128,0,93713:0:0:0:0:
153,192,93428,1,0,0:0:0:0:
256,192,93571,1,0,0:0:0:0:
153,192,93713,1,0,0:0:0:0:
460,192,93713,1,0,0:0:0:0:
256,192,93713,128,0,93928:0:0:0:0:
358,192,93856,1,0,0:0:0:0:
460,192,93999,128,0,94428:0:0:0:0:
256,192,93999,128,0,94428:0:0:0:0:
51,192,93999,1,0,0:0:0:0:
358,192,93999,1,0,0:0:0:0:
153,192,94142,1,0,0:0:0:0:
51,192,94285,1,0,0:0:0:0:
358,192,94285,1,0,0:0:0:0:
153,192,94428,128,0,94856:0:0:0:0:
51,192,94571,1,0,0:0:0:0:
358,192,94713,1,0,0:0:0:0:
51,192,94856,128,0,95713:0:0:0:0:
256,192,94856,1,0,0:0:0:0:
460,192,94856,1,0,0:0:0:0:
358,192,94999,1,0,0:0:0:0:
153,192,95142,128,0,96213:0:0:0:0:
256,192,95142,1,0,0:0:0:0:
358,192,95285,1,0,0:0:0:0:
460,192,95428,1,0,0:0:0:0:
358,192,95571,1,0,0:0:0:0:
256,192,95713,128,0,95999:0:0:0:0:
460,192,95713,1,0,0:0:0:0:
358,192,95856,128,0,96285:0:0:0:0:
460,192,95999,128,0,96285:0:0:0:0:
51,192,95999,1,0,0:0:0:0:
256,192,96142,1,0,0:0:0:0:
51,192,96285,1,0,0:0:0:0:
256,192,96285,128,0,96713:0:0:0:0:
153,192,96428,1,0,0:0:0:0:
358,192,96571,1,0,0:0:0:0:
51,192,96713,1,0,0:0:0:0:
460,192,96713,1,0,0:0:0:0:
153,192,96713,128,0,97142:0:0:0:0:
358,192,96856,1,0,0:0:0:0:
460,192,96999,1,0,0:0:0:0:
51,192,96999,1,0,0:0:0:0:
256,192,97142,128,0,97999:0:0:0:0:
358,192,97142,1,0,0:0:0:0:
51,192,97285,1,0,0:0:0:0:
460,192,97285,1,0,0:0:0:0:
153,192,97428,1,0,0:0:0:0:
460,192,97571,1,0,0:0:0:0:
51,192,97713,1,0,0:0:0:0:
358,192,97713,1,0,0:0:0:0:
460,192,97856,1,0,0:0:0:0:
51,192,97999,1,0,0:0:0:0:
358,192,97999,128,0,98571:0:0:0:0:
153,192,98071,1,0,0:0:0:0:
51,192,98142,1,0,0:0:0:0:
460,192,98142,128,0,98428:0:0:0:0:
51,192,98285,1,0,0:0:0:0:
256,192,98285,1,0,0:0:0:0:
51,192,98428,1,0,0:0:0:0:
153,192,98499,1,0,0:0:0:0:
256,192,98571,1,0,0:0:0:0:
460,192,98571,1,0,0:0:0:0:
51,192,98571,128,0,98999:0:0:0:0:
153,192,98713,1,0,0:0:0:0:
358,192,98856,1,0,0:0:0:0:
256,192,98856,1,0,0:0:0:0:
153,192,98999,128,0,99428:0:0:0:0:
460,192,98999,1,0,0:0:0:0:
256,192,99142,1,0,0:0:0:0:
358,192,99285,1,0,0:0:0:0:
256,192,99428,128,0,100285:0:0:0:0:
460,192,99428,1,0,0:0:0:0:
51,192,99428,1,0,0:0:0:0:
153,192,99571,1,0,0:0:0:0:
358,192,99713,1,0,0:0:0:0:
51,192,99713,1,0,0:0:0:0:
460,192,99856,1,0,0:0:0:0:
51,192,99999,1,0,0:0:0:0:
153,192,99999,1,0,0:0:0:0:
358,192,100142,1,0,0:0:0:0:
358,192,100285,128,0,100856:0:0:0:0:
460,192,100285,1,0,0:0:0:0:
51,192,100285,1,0,0:0:0:0:
153,192,100428,1,0,0:0:0:0:
460,192,100571,1,0,0:0:0:0:
256,192,100571,1,0,0:0:0:0:
153,192,100713,1,0,0:0:0:0:
460,192,100856,128,0,101285:0:0:0:0:
256,192,100856,1,0,0:0:0:0:
51,192,100856,1,0,0:0:0:0:
358,192,100999,1,0,0:0:0:0:
153,192,101142,1,0,0:0:0:0:
51,192,101142,1,0,0:0:0:0:
256,192,101285,128,0,101713:0:0:0:0:
358,192,101285,1,0,0:0:0:0:
460,192,101428,1,0,0:0:0:0:
153,192,101428,1,0,0:0:0:0:
358,192,101571,1,0,0:0:0:0:
153,192,101713,128,0,102499:0:0:0:0:
460,192,101713,1,0,0:0:0:0:
51,192,101713,1,0,0:0:0:0:
358,192,101856,1,0,0:0:0:0:
256,192,101999,1,0,0:0:0:0:
460,192,101999,1,0,0:0:0:0:
51,192,102142,1,0,0:0:0:0:
256,192,102285,1,0,0:0:0:0:
358,192,102285,1,0,0:0:0:0:
460,192,102428,1,0,0:0:0:0:
51,192,102499,1,0,0:0:0:0:
358,192,102571,128,0,102856:0:0:0:0:
256,192,102571,1,0,0:0:0:0:
51,192,102713,1,0,0:0:0:0:
256,192,102856,128,0,103142:0:0:0:0:
153,192,102856,1,0,0:0:0:0:
460,192,102856,1,0,0:0:0:0:
51,192,102999,1,0,0:0:0:0:
153,192,103142,128,0,103571:0:0:0:0:
358,192,103142,1,0,0:0:0:0:
460,192,103285,1,0,0:0:0:0:
51,192,103428,1,0,0:0:0:0:
358,192,103428,1,0,0:0:0:0:
51,192,103571,128,0,103999:0:0:0:0:
256,192,103571,1,0,0:0:0:0:
358,192,103713,1,0,0:0:0:0:
153,192,103856,1,0,0:0:0:0:
256,192,103999,128,0,104785:0:0:0:0:
358,192,103999,1,0,0:0:0:0:
460,192,103999,1,0,0:0:0:0:
51,192,104142,1,0,0:0:0:0:
153,192,104285,1,0,0:0:0:0:
358,192,104428,1,0,0:0:0:0:
460,192,104571,1,0,0:0:0:0:
153,192,104571,1,0,0:0:0:0:
358,192,104713,1,0,0:0:0:0:
358,192,104856,128,0,105142:0:0:0:0:
51,192,104856,1,0,0:0:0:0:
153,192,104856,1,0,0:0:0:0:
460,192,104999,1,0,0:0:0:0:
153,192,105142,128,0,105428:0:0:0:0:
256,192,105142,1,0,0:0:0:0:
51,192,105142,1,0,0:0:0:0:
460,192,105285,1,0,0:0:0:0:
460,192,105428,128,0,105856:0:0:0:0:
358,192,105428,1,0,0:0:0:0:
51,192,105428,1,0,0:0:0:0:
256,192,105428,1,0,0:0:0:0:
153,192,105571,1,0,0:0:0:0:
358,192,105713,1,0,0:0:0:0:
51,192,105713,1,0,0:0:0:0:
358,192,105856,128,0,106285:0:0:0:0:
256,192,105856,1,0,0:0:0:0:
51,192,105999,1,0,0:0:0:0:
256,192,106142,1,0,0:0:0:0:
51,192,106285,128,0,107142:0:0:0:0:
153,192,106285,1,0,0:0:0:0:
460,192,106285,1,0,0:0:0:0:
358,192,106428,1,0,0:0:0:0:
256,192,106571,1,0,0:0:0:0:
460,192,106571,1,0,0:0:0:0:
358,192,106713,1,0,0:0:0:0:
460,192,106856,1,0,0:0:0:0:
153,192,106856,1,0,0:0:0:0:
358,192,106999,1,0,0:0:0:0:
153,192,107142,128,0,107713:0:0:0:0:
256,192,107142,1,0,0:0:0:0:
358,192,107213,1,0,0:0:0:0:
460,192,107285,1,0,0:0:0:0:
358,192,107428,1,0,0:0:0:0:
256,192,107428,1,0,0:0:0:0:
51,192,107571,1,0,0:0:0:0:
358,192,107713,128,0,108142:0:0:0:0:
460,192,107713,1,0,0:0:0:0:
256,192,107713,1,0,0:0:0:0:
51,192,107856,1,0,0:0:0:0:
460,192,107999,1,0,0:0:0:0:
153,192,107999,1,0,0:0:0:0:
256,192,108142,128,0,108571:0:0:0:0:
51,192,108142,1,0,0:0:0:0:
460,192,108285,1,0,0:0:0:0:
153,192,108428,1,0,0:0:0:0:
460,192,108571,128,0,109428:0:0:0:0:
358,192,108571,1,0,0:0:0:0:
51,192,108571,1,0,0:0:0:0:
256,192,108713,1,0,0:0:0:0:
51,192,108856,1,0,0:0:0:0:
256,192,108999,1,0,0:0:0:0:
358,192,109142,1,0,0:0:0:0:
51,192,109142,1,0,0:0:0:0:
153,192,109285,1,0,0:0:0:0:
358,192,109428,128,0,109999:0:0:0:0:
256,192,109428,1,0,0:0:0:0:
51,192,109428,1,0,0:0:0:0:
460,192,109571,1,0,0:0:0:0:
153,192,109713,1,0,0:0:0:0:
256,192,109713,1,0,0:0:0:0:
51,192,109856,1,0,0:0:0:0:
256,192,109999,128,0,110428:0:0:0:0:
460,192,109999,1,0,0:0:0:0:
153,192,109999,1,0,0:0:0:0:
358,192,110142,1,0,0:0:0:0:
460,192,110285,1,0,0:0:0:0:
51,192,110285,1,0,0:0:0:0:
358,192,110428,128,0,110856:0:0:0:0:
153,192,110428,1,0,0:0:0:0:
460,192,110571,1,0,0:0:0:0:
51,192,110571,1,0,0:0:0:0:
153,192,110713,1,0,0:0:0:0:
153,192,110856,128,0,111428:0:0:0:0:
256,192,110856,1,0,0:0:0:0:
51,192,110856,1,0,0:0:0:0:
358,192,110999,1,0,0:0:0:0:
460,192,111142,1,0,0:0:0:0:
256,192,111142,1,0,0:0:0:0:
358,192,111285,1,0,0:0:0:0:
51,192,111428,128,0,111713:0:0:0:0:
256,192,111428,1,0,0:0:0:0:
460,192,111571,1,0,0:0:0:0:
256,192,111713,128,0,111999:0:0:0:0:
153,192,111713,1,0,0:0:0:0:
358,192,111713,1,0,0:0:0:0:
460,192,111785,1,0,0:0:0:0:
153,192,111856,1,0,0:0:0:0:
358,192,111999,128,0,112285:0:0:0:0:
460,192,111999,1,0,0:0:0:0:
51,192,111999,1,0,0:0:0:0:
153,192,112142,1,0,0:0:0:0:
460,192,112285,128,0,112713:0:0:0:0:
256,192,112285,1,0,0:0:0:0:
51,192,112285,1,0,0:0:0:0:
153,192,112356,1,0,0:0:0:0:
51,192,112428,1,0,0:0:0:0:
153,192,112499,1,0,0:0:0:0:
51,192,112571,1,0,0:0:0:0:
358,192,112571,1,0,0:0:0:0:
153,192,112642,1,0,0:0:0:0:
358,192,112713,128,0,113142:0:0:0:0:
51,192,112713,1,0,0:0:0:0:
256,192,112713,1,0,0:0:0:0:
153,192,112785,1,0,0:0:0:0:
51,192,112856,1,0,0:0:0:0:
460,192,112856,1,0,0:0:0:0:
153,192,112928,1,0,0:0:0:0:
51,192,112999,1,0,0:0:0:0:
256,192,112999,1,0,0:0:0:0:
153,192,113071,1,0,0:0:0:0:
256,192,113142,128,0,113999:0:0:0:0:
51,192,113142,1,0,0:0:0:0:
460,192,113142,1,0,0:0:0:0:
153,192,113213,1,0,0:0:0:0:
358,192,113285,1,0,0:0:0:0:
51,192,113285,1,0,0:0:0:0:
153,192,113356,1,0,0:0:0:0:
460,192,113428,1,0,0:0:0:0:
51,192,113428,1,0,0:0:0:0:
153,192,113499,1,0,0:0:0:0:
51,192,113571,1,0,0:0:0:0:
358,192,113571,1,0,0:0:0:0:
153,192,113642,1,0,0:0:0:0:
51,192,113713,1,0,0:0:0:0:
460,192,113713,1,0,0:0:0:0:
153,192,113785,1,0,0:0:0:0:
51,192,113856,1,0,0:0:0:0:
358,192,113856,1,0,0:0:0:0:
153,192,113928,1,0,0:0:0:0:
51,192,113999,128,0,114285:0:0:0:0:
460,192,113999,1,0,0:0:0:0:
358,192,114071,1,0,0:0:0:0:
256,192,114142,1,0,0:0:0:0:
358,192,114213,1,0,0:0:0:0:
460,192,114285,128,0,114571:0:0:0:0:
256,192,114285,1,0,0:0:0:0:
153,192,114285,1,0,0:0:0:0:
358,192,114356,1,0,0:0:0:0:
256,192,114428,1,0,0:0:0:0:
358,192,114499,1,0,0:0:0:0:
153,192,114571,128,0,114999:0:0:0:0:
51,192,114571,1,0,0:0:0:0:
256,192,114571,1,0,0:0:0:0:
358,192,114642,1,0,0:0:0:0:
460,192,114713,1,0,0:0:0:0:
358,192,114785,1,0,0:0:0:0:
51,192,114856,1,0,0:0:0:0:
460,192,114856,1,0,0:0:0:0:
358,192,114928,1,0,0:0:0:0:
256,192,114999,128,0,115571:0:0:0:0:
460,192,114999,1,0,0:0:0:0:
358,192,115071,1,0,0:0:0:0:
460,192,115142,1,0,0:0:0:0:
51,192,115142,1,0,0:0:0:0:
358,192,115213,1,0,0:0:0:0:
153,192,115285,1,0,0:0:0:0:
460,192,115285,1,0,0:0:0:0:
358,192,115356,1,0,0:0:0:0:
51,192,115428,1,0,0:0:0:0:
460,192,115428,1,0,0:0:0:0:
358,192,115499,1,0,0:0:0:0:
358,192,115571,128,0,116285:0:0:0:0:
153,192,115571,1,0,0:0:0:0:
51,192,115642,1,0,0:0:0:0:
460,192,115713,1,0,0:0:0:0:
153,192,115713,1,0,0:0:0:0:
51,192,115785,1,0,0:0:0:0:
153,192,115856,1,0,0:0:0:0:
51,192,115928,1,0,0:0:0:0:
460,192,115999,1,0,0:0:0:0:
153,192,115999,1,0,0:0:0:0:
51,192,116071,1,0,0:0:0:0:
460,192,116142,1,0,0:0:0:0:
153,192,116142,1,0,0:0:0:0:
51,192,116213,1,0,0:0:0:0:
256,192,116285,1,0,0:0:0:0:
153,192,116285,1,0,0:0:0:0:
460,192,116356,1,0,0:0:0:0:
358,192,116356,1,0,0:0:0:0:
51,192,116428,1,0,0:0:0:0:
153,192,116428,1,0,0:0:0:0:
358,192,116499,1,0,0:0:0:0:
256,192,116499,1,0,0:0:0:0:
51,192,116571,1,0,0:0:0:0:
153,192,116571,1,0,0:0:0:0:
460,192,116642,1,0,0:0:0:0:
256,192,116642,1,0,0:0:0:0:
51,192,116713,1,0,0:0:0:0:
153,192,116713,1,0,0:0:0:0:
358,192,116785,1,0,0:0:0:0:
460,192,116785,1,0,0:0:0:0:
256,192,116785,1,0,0:0:0:0:
358,192,116856,128,0,119642:0:0:0:0:
460,192,116856,128,0,121142:0:0:0:0:
153,192,116856,128,0,118142:0:0:0:0:
256,192,116856,128,0,118713:0:0:0:0:
51,192,116856,128,0,117571:0:0:0:0:
