osu file format v14

[General]
AudioFilename: Kamui.mp3
AudioLeadIn: 0
PreviewTime: 80285
Countdown: 0
SampleSet: None
StackLeniency: 0.7
Mode: 3
LetterboxInBreaks: 0
SpecialStyle: 1
WidescreenStoryboard: 1

[Editor]
DistanceSpacing: 1
BeatDivisor: 4
GridSize: 4
TimelineZoom: 1

[Metadata]
Title:Kamui
TitleUnicode:Kamui
Artist:TJ.Hangneil
ArtistUnicode:TJ.Hangneil
Creator:Marirose
Version:4K SHD
Source:Ez2Dj 7th TraX Class R Codename : Violet
Tags:sasakure.UK
BeatmapID:983704
BeatmapSetID:459161

[Difficulty]
HPDrainRate:9
CircleSize:4
OverallDifficulty:9
ApproachRate:5
SliderMultiplier:1.4
SliderTickRate:1

[Events]
//Background and Video events
0,0,"BG.jpg",0,0
//Break Periods
//Storyboard Layer 0 (Background)
//Storyboard Layer 1 (Fail)
//Storyboard Layer 2 (Pass)
//Storyboard Layer 3 (Foreground)
//Storyboard Sound Samples

[TimingPoints]
571,285.712925176547,4,1,0,15,1,0
31999,285.740138393474,4,1,0,15,1,0

[HitObjects]
192,192,571,5,0,0:0:0:1:
320,192,714,1,0,0:0:0:1:
192,192,928,1,0,0:0:0:1:
320,192,1071,1,0,0:0:0:1:
64,192,1428,1,0,0:0:0:1:
64,192,1642,1,0,0:0:0:1:
64,192,1857,1,0,0:0:0:1:
64,192,2071,1,0,0:0:0:1:
64,192,2285,1,0,0:0:0:1:
64,192,2571,1,0,0:0:0:1:
320,192,2571,128,0,2857:0:0:0:1:
448,192,2571,128,0,2999:0:0:0:1:
320,192,2999,1,0,0:0:0:1:
320,192,3285,1,0,0:0:0:1:
320,192,3571,1,0,0:0:0:1:
320,192,3857,1,0,0:0:0:1:
320,192,4142,1,0,0:0:0:1:
320,192,4428,128,0,4714:0:0:0:1:
448,192,4428,128,0,4714:0:0:0:1:
448,192,4857,128,0,5285:0:0:0:1:
64,192,4857,128,0,5142:0:0:0:1:
64,192,5285,1,0,0:0:0:1:
64,192,5571,1,0,0:0:0:1:
64,192,5857,1,0,0:0:0:1:
64,192,6142,1,0,0:0:0:1:
64,192,6428,1,0,0:0:0:1:
64,192,6714,128,0,6999:0:0:0:1:
192,192,7142,128,0,7571:0:0:0:1:
320,192,7142,128,0,7428:0:0:0:1:
320,192,7571,1,0,0:0:0:1:
320,192,7857,1,0,0:0:0:1:
320,192,8142,1,0,0:0:0:1:
320,192,8428,1,0,0:0:0:1:
320,192,8714,1,0,0:0:0:1:
192,192,8999,128,0,9285:0:0:0:1:
320,192,8999,128,0,9285:0:0:0:1:
192,192,9428,128,0,9857:0:0:0:1:
448,192,9428,128,0,9714:0:0:0:1:
448,192,9857,1,0,0:0:0:1:
448,192,10142,1,0,0:0:0:1:
448,192,10428,1,0,0:0:0:1:
192,192,10571,128,0,11571:0:0:0:1:
320,192,10571,128,0,11571:0:0:0:1:
448,192,11714,1,0,0:0:0:1:
64,192,11714,128,0,11999:0:0:0:1:
192,192,11857,1,0,0:0:0:1:
320,192,11999,1,0,0:0:0:1:
448,192,12142,1,0,0:0:0:1:
64,192,12142,1,0,0:0:0:1:
192,192,12214,1,0,0:0:0:1:
320,192,12285,1,0,0:0:0:1:
192,192,12428,1,0,0:0:0:1:
64,192,12428,1,0,0:0:0:1:
320,192,12571,1,0,0:0:0:1:
448,192,12714,1,0,0:0:0:1:
64,192,12714,1,0,0:0:0:1:
192,192,12785,1,0,0:0:0:1:
320,192,12857,1,0,0:0:0:1:
192,192,12999,1,0,0:0:0:1:
64,192,12999,1,0,0:0:0:1:
320,192,13142,1,0,0:0:0:1:
448,192,13285,1,0,0:0:0:1:
64,192,13285,1,0,0:0:0:1:
192,192,13357,1,0,0:0:0:1:
320,192,13428,1,0,0:0:0:1:
192,192,13571,1,0,0:0:0:1:
64,192,13571,128,0,13857:0:0:0:1:
320,192,13714,1,0,0:0:0:1:
192,192,13857,1,0,0:0:0:1:
320,192,13928,1,0,0:0:0:1:
448,192,13999,1,0,0:0:0:1:
192,192,13999,128,0,14285:0:0:0:1:
64,192,14142,1,0,0:0:0:1:
320,192,14285,1,0,0:0:0:1:
192,192,14428,1,0,0:0:0:1:
448,192,14428,1,0,0:0:0:1:
64,192,14499,1,0,0:0:0:1:
320,192,14571,1,0,0:0:0:1:
192,192,14714,1,0,0:0:0:1:
64,192,14714,1,0,0:0:0:1:
320,192,14857,1,0,0:0:0:1:
192,192,14999,1,0,0:0:0:1:
448,192,14999,1,0,0:0:0:1:
64,192,15071,1,0,0:0:0:1:
320,192,15142,1,0,0:0:0:1:
192,192,15285,1,0,0:0:0:1:
64,192,15285,1,0,0:0:0:1:
192,192,15428,1,0,0:0:0:1:
448,192,15428,1,0,0:0:0:1:
320,192,15571,1,0,0:0:0:1:
192,192,15642,1,0,0:0:0:1:
448,192,15714,1,0,0:0:0:1:
64,192,15714,128,0,15999:0:0:0:1:
320,192,15857,1,0,0:0:0:1:
192,192,15857,128,0,16142:0:0:0:1:
448,192,15999,1,0,0:0:0:1:
320,192,16142,1,0,0:0:0:1:
64,192,16142,128,0,16285:0:0:0:1:
448,192,16214,1,0,0:0:0:1:
192,192,16285,128,0,16571:0:0:0:1:
448,192,16428,1,0,0:0:0:1:
320,192,16571,1,0,0:0:0:1:
64,192,16571,1,0,0:0:0:1:
192,192,16714,1,0,0:0:0:1:
64,192,16785,1,0,0:0:0:1:
320,192,16857,1,0,0:0:0:1:
192,192,16999,1,0,0:0:0:1:
64,192,16999,1,0,0:0:0:1:
320,192,17142,1,0,0:0:0:1:
192,192,17285,1,0,0:0:0:1:
320,192,17285,1,0,0:0:0:1:
64,192,17357,1,0,0:0:0:1:
448,192,17428,1,0,0:0:0:1:
192,192,17571,1,0,0:0:0:1:
64,192,17571,1,0,0:0:0:1:
320,192,17714,1,0,0:0:0:1:
192,192,17857,1,0,0:0:0:1:
320,192,17857,128,0,18071:0:0:0:1:
64,192,17928,1,0,0:0:0:1:
448,192,17999,1,0,0:0:0:1:
64,192,18142,1,0,0:0:0:1:
192,192,18142,128,0,18428:0:0:0:1:
320,192,18285,1,0,0:0:0:1:
448,192,18285,1,0,0:0:0:1:
320,192,18428,1,0,0:0:0:1:
64,192,18499,1,0,0:0:0:1:
192,192,18571,1,0,0:0:0:1:
448,192,18571,128,0,18857:0:0:0:1:
64,192,18714,1,0,0:0:0:1:
320,192,18857,1,0,0:0:0:1:
192,192,18999,1,0,0:0:0:1:
448,192,18999,1,0,0:0:0:1:
64,192,19071,1,0,0:0:0:1:
320,192,19142,1,0,0:0:0:1:
448,192,19285,1,0,0:0:0:1:
64,192,19285,1,0,0:0:0:1:
192,192,19428,1,0,0:0:0:1:
320,192,19571,1,0,0:0:0:1:
448,192,19571,1,0,0:0:0:1:
64,192,19642,1,0,0:0:0:1:
192,192,19714,1,0,0:0:0:1:
320,192,19857,1,0,0:0:0:1:
64,192,19857,1,0,0:0:0:1:
448,192,19928,1,0,0:0:0:1:
192,192,19999,1,0,0:0:0:1:
64,192,19999,1,0,0:0:0:1:
320,192,20142,1,0,0:0:0:1:
448,192,20142,1,0,0:0:0:1:
192,192,20214,1,0,0:0:0:1:
448,192,20285,1,0,0:0:0:1:
64,192,20285,1,0,0:0:0:1:
192,192,20428,1,0,0:0:0:1:
320,192,20499,1,0,0:0:0:1:
64,192,20571,1,0,0:0:0:1:
320,192,20714,1,0,0:0:0:1:
448,192,20714,1,0,0:0:0:1:
192,192,20785,1,0,0:0:0:1:
320,192,20857,1,0,0:0:0:1:
64,192,20857,128,0,21999:0:0:0:1:
192,192,20999,1,0,0:0:0:1:
448,192,21142,1,0,0:0:0:1:
320,192,21285,1,0,0:0:0:1:
192,192,21357,1,0,0:0:0:1:
448,192,21428,1,0,0:0:0:1:
320,192,21428,128,0,21857:0:0:0:1:
192,192,21571,1,0,0:0:0:1:
448,192,21714,1,0,0:0:0:1:
192,192,21857,1,0,0:0:0:1:
448,192,21928,1,0,0:0:0:1:
320,192,21999,1,0,0:0:0:1:
192,192,21999,128,0,22428:0:0:0:1:
64,192,22142,1,0,0:0:0:1:
448,192,22285,1,0,0:0:0:1:
320,192,22428,1,0,0:0:0:1:
64,192,22499,1,0,0:0:0:1:
448,192,22571,1,0,0:0:0:1:
320,192,22571,128,0,22999:0:0:0:1:
192,192,22714,1,0,0:0:0:1:
64,192,22857,1,0,0:0:0:1:
192,192,22999,1,0,0:0:0:1:
320,192,23071,1,0,0:0:0:1:
192,192,23142,1,0,0:0:0:1:
448,192,23142,128,0,24285:0:0:0:1:
64,192,23142,128,0,23571:0:0:0:1:
320,192,23285,1,0,0:0:0:1:
192,192,23428,1,0,0:0:0:1:
320,192,23571,1,0,0:0:0:1:
64,192,23642,1,0,0:0:0:1:
192,192,23714,1,0,0:0:0:1:
320,192,23714,128,0,24142:0:0:0:1:
192,192,23857,1,0,0:0:0:1:
64,192,23999,1,0,0:0:0:1:
192,192,24142,1,0,0:0:0:1:
64,192,24214,1,0,0:0:0:1:
320,192,24285,1,0,0:0:0:1:
192,192,24285,128,0,24714:0:0:0:1:
64,192,24428,1,0,0:0:0:1:
448,192,24571,1,0,0:0:0:1:
64,192,24714,1,0,0:0:0:1:
320,192,24785,1,0,0:0:0:1:
448,192,24857,1,0,0:0:0:1:
64,192,24857,128,0,25285:0:0:0:1:
192,192,24999,1,0,0:0:0:1:
448,192,25142,1,0,0:0:0:1:
320,192,25285,1,0,0:0:0:1:
192,192,25357,1,0,0:0:0:1:
448,192,25428,1,0,0:0:0:1:
320,192,25571,1,0,0:0:0:1:
64,192,25571,1,0,0:0:0:1:
448,192,25642,1,0,0:0:0:1:
64,192,25642,1,0,0:0:0:1:
192,192,25714,1,0,0:0:0:1:
320,192,25857,1,0,0:0:0:1:
448,192,25857,1,0,0:0:0:1:
192,192,25928,1,0,0:0:0:1:
64,192,25928,1,0,0:0:0:1:
448,192,25999,1,0,0:0:0:1:
64,192,25999,1,0,0:0:0:1:
320,192,26142,1,0,0:0:0:1:
192,192,26214,1,0,0:0:0:1:
448,192,26214,1,0,0:0:0:1:
320,192,26285,1,0,0:0:0:1:
64,192,26285,1,0,0:0:0:1:
192,192,26428,1,0,0:0:0:1:
320,192,26499,1,0,0:0:0:1:
448,192,26499,1,0,0:0:0:1:
64,192,26571,1,0,0:0:0:1:
192,192,26714,1,0,0:0:0:1:
448,192,26714,1,0,0:0:0:1:
192,192,26785,1,0,0:0:0:1:
320,192,26785,1,0,0:0:0:1:
448,192,26857,1,0,0:0:0:1:
320,192,26999,1,0,0:0:0:1:
64,192,26999,1,0,0:0:0:1:
192,192,27071,1,0,0:0:0:1:
320,192,27071,1,0,0:0:0:1:
64,192,27142,1,0,0:0:0:1:
448,192,27285,1,0,0:0:0:1:
64,192,27285,1,0,0:0:0:1:
192,192,27357,1,0,0:0:0:1:
320,192,27357,1,0,0:0:0:1:
320,192,27428,1,0,0:0:0:1:
64,192,27428,1,0,0:0:0:1:
192,192,27571,1,0,0:0:0:1:
320,192,27642,1,0,0:0:0:1:
448,192,27642,1,0,0:0:0:1:
64,192,27714,1,0,0:0:0:1:
192,192,27785,1,0,0:0:0:1:
448,192,27857,1,0,0:0:0:1:
320,192,27928,1,0,0:0:0:1:
448,192,27999,1,0,0:0:0:1:
320,192,28071,1,0,0:0:0:1:
448,192,28142,1,0,0:0:0:1:
320,192,28214,1,0,0:0:0:1:
64,192,28285,1,0,0:0:0:1:
192,192,28357,1,0,0:0:0:1:
448,192,28428,1,0,0:0:0:1:
320,192,28499,1,0,0:0:0:1:
448,192,28571,1,0,0:0:0:1:
320,192,28642,1,0,0:0:0:1:
448,192,28714,1,0,0:0:0:1:
320,192,28785,1,0,0:0:0:1:
64,192,28857,1,0,0:0:0:1:
448,192,28928,1,0,0:0:0:1:
192,192,28999,1,0,0:0:0:1:
320,192,29071,1,0,0:0:0:1:
64,192,29142,1,0,0:0:0:1:
448,192,29214,1,0,0:0:0:1:
192,192,29285,1,0,0:0:0:1:
320,192,29357,1,0,0:0:0:1:
192,192,29428,1,0,0:0:0:1:
64,192,29428,1,0,0:0:0:1:
320,192,29499,1,0,0:0:0:1:
448,192,29499,1,0,0:0:0:1:
192,192,29571,1,0,0:0:0:1:
64,192,29571,1,0,0:0:0:1:
320,192,29642,1,0,0:0:0:1:
448,192,29642,1,0,0:0:0:1:
192,192,29714,1,0,0:0:0:1:
64,192,29714,1,0,0:0:0:1:
320,192,29785,1,0,0:0:0:1:
448,192,29785,1,0,0:0:0:1:
192,192,29857,1,0,0:0:0:1:
64,192,29857,1,0,0:0:0:1:
320,192,29928,1,0,0:0:0:1:
448,192,29928,1,0,0:0:0:1:
192,192,29999,128,0,30714:0:0:0:1:
64,192,29999,128,0,30285:0:0:0:1:
320,192,30285,1,0,0:0:0:1:
448,192,30428,128,0,30571:0:0:0:1:
320,192,30714,128,0,30856:0:0:0:1:
64,192,30856,1,0,0:0:0:1:
448,192,30856,128,0,31714:0:0:0:1:
192,192,30999,128,0,31142:0:0:0:1:
64,192,31285,128,0,31428:0:0:0:1:
320,192,31428,1,0,0:0:0:1:
192,192,31571,128,0,31714:0:0:0:1:
320,192,31714,128,0,31999:0:0:0:1:
64,192,31856,128,0,32141:0:0:0:1:
192,192,31999,1,0,0:0:0:1:
448,192,31999,128,0,32284:0:0:0:1:
192,192,32284,128,0,32856:0:0:0:1:
64,192,32284,128,0,32570:0:0:0:1:
448,192,32570,1,0,0:0:0:1:
320,192,32713,128,0,33284:0:0:0:1:
64,192,32713,128,0,32856:0:0:0:1:
448,192,32999,128,0,33141:0:0:0:1:
192,192,33141,1,0,0:0:0:1:
64,192,33141,128,0,33999:0:0:0:1:
448,192,33284,128,0,33427:0:0:0:1:
192,192,33427,128,0,33499:0:0:0:1:
320,192,33570,128,0,33713:0:0:0:1:
448,192,33713,1,0,0:0:0:1:
192,192,33856,128,0,33927:0:0:0:1:
448,192,33856,128,0,33999:0:0:0:1:
320,192,33999,128,0,34284:0:0:0:1:
192,192,34142,128,0,34427:0:0:0:1:
64,192,34142,128,0,34213:0:0:0:1:
448,192,34284,128,0,34570:0:0:0:1:
320,192,34427,128,0,34499:0:0:0:1:
192,192,34570,128,0,34999:0:0:0:1:
64,192,34570,128,0,34856:0:0:0:1:
320,192,34856,1,0,0:0:0:1:
448,192,34999,128,0,35427:0:0:0:1:
64,192,34999,128,0,35142:0:0:0:1:
320,192,35285,128,0,35427:0:0:0:1:
64,192,35427,1,0,0:0:0:1:
192,192,35427,128,0,36285:0:0:0:1:
64,192,35570,128,0,35713:0:0:0:1:
320,192,35856,128,0,35999:0:0:0:1:
64,192,35999,1,0,0:0:0:1:
448,192,36142,128,0,36285:0:0:0:1:
64,192,36285,128,0,36570:0:0:0:1:
448,192,36427,128,0,36713:0:0:0:1:
192,192,36570,1,0,0:0:0:1:
320,192,36570,128,0,36856:0:0:0:1:
192,192,36856,128,0,37285:0:0:0:1:
64,192,36856,128,0,37142:0:0:0:1:
448,192,37142,1,0,0:0:0:1:
320,192,37285,128,0,37713:0:0:0:1:
448,192,37285,128,0,37428:0:0:0:1:
64,192,37570,128,0,37713:0:0:0:1:
192,192,37713,128,0,38285:0:0:0:1:
320,192,37856,128,0,37999:0:0:0:1:
448,192,37999,1,0,0:0:0:1:
320,192,38142,1,0,0:0:0:1:
64,192,38142,128,0,38285:0:0:0:1:
448,192,38213,1,0,0:0:0:1:
320,192,38285,1,0,0:0:0:1:
448,192,38428,1,0,0:0:0:1:
320,192,38428,128,0,38571:0:0:0:1:
64,192,38499,1,0,0:0:0:1:
192,192,38571,1,0,0:0:0:1:
64,192,38571,128,0,38999:0:0:0:1:
448,192,38713,1,0,0:0:0:1:
192,192,38713,128,0,38999:0:0:0:1:
320,192,38785,1,0,0:0:0:1:
448,192,38856,1,0,0:0:0:1:
320,192,38999,1,0,0:0:0:1:
448,192,39071,1,0,0:0:0:1:
64,192,39142,1,0,0:0:0:1:
320,192,39142,128,0,39856:0:0:0:1:
448,192,39142,128,0,39428:0:0:0:1:
192,192,39428,1,0,0:0:0:1:
448,192,39571,1,0,0:0:0:1:
64,192,39571,128,0,39713:0:0:0:1:
192,192,39856,128,0,39999:0:0:0:1:
448,192,39999,1,0,0:0:0:1:
64,192,39999,128,0,40856:0:0:0:1:
192,192,40142,1,0,0:0:0:1:
320,192,40142,128,0,40285:0:0:0:1:
448,192,40428,128,0,40571:0:0:0:1:
192,192,40571,1,0,0:0:0:1:
448,192,40714,1,0,0:0:0:1:
320,192,40714,128,0,40856:0:0:0:1:
192,192,40856,128,0,41142:0:0:0:1:
448,192,40999,128,0,41285:0:0:0:1:
320,192,41142,1,0,0:0:0:1:
64,192,41142,128,0,41428:0:0:0:1:
192,192,41285,1,0,0:0:0:1:
320,192,41428,128,0,41999:0:0:0:1:
448,192,41428,128,0,41714:0:0:0:1:
64,192,41714,1,0,0:0:0:1:
64,192,41857,1,0,0:0:0:1:
192,192,41857,128,0,42428:0:0:0:1:
448,192,41857,128,0,41999:0:0:0:1:
64,192,42142,128,0,42285:0:0:0:1:
320,192,42285,1,0,0:0:0:1:
448,192,42285,128,0,43142:0:0:0:1:
64,192,42428,128,0,42571:0:0:0:1:
192,192,42714,128,0,42857:0:0:0:1:
320,192,42857,1,0,0:0:0:1:
320,192,42999,1,0,0:0:0:1:
64,192,42999,128,0,43142:0:0:0:1:
192,192,43142,128,0,43428:0:0:0:1:
320,192,43285,128,0,43571:0:0:0:1:
448,192,43428,1,0,0:0:0:1:
64,192,43428,128,0,43714:0:0:0:1:
192,192,43571,1,0,0:0:0:1:
320,192,43714,128,0,44142:0:0:0:1:
448,192,43714,128,0,44000:0:0:0:1:
192,192,44000,1,0,0:0:0:1:
192,192,44142,1,0,0:0:0:1:
448,192,44142,128,0,44285:0:0:0:1:
64,192,44142,128,0,44571:0:0:0:1:
192,192,44428,128,0,44571:0:0:0:1:
448,192,44571,1,0,0:0:0:1:
320,192,44571,128,0,45428:0:0:0:1:
64,192,44714,1,0,0:0:0:1:
448,192,44714,128,0,44857:0:0:0:1:
192,192,45000,128,0,45143:0:0:0:1:
448,192,45143,1,0,0:0:0:1:
192,192,45285,1,0,0:0:0:1:
64,192,45285,128,0,45428:0:0:0:1:
448,192,45428,128,0,45714:0:0:0:1:
64,192,45571,128,0,45857:0:0:0:1:
320,192,45714,1,0,0:0:0:1:
192,192,45714,128,0,46000:0:0:0:1:
448,192,45857,1,0,0:0:0:1:
320,192,46000,128,0,46428:0:0:0:1:
448,192,46000,128,0,46286:0:0:0:1:
64,192,46286,1,0,0:0:0:1:
192,192,46428,128,0,46857:0:0:0:1:
64,192,46428,128,0,46571:0:0:0:1:
448,192,46714,128,0,46857:0:0:0:1:
320,192,46857,128,0,47428:0:0:0:1:
192,192,47000,128,0,47143:0:0:0:1:
64,192,47143,128,0,47714:0:0:0:1:
448,192,47286,128,0,47428:0:0:0:1:
192,192,47571,128,0,47714:0:0:0:1:
448,192,47714,128,0,48143:0:0:0:1:
320,192,47857,128,0,48143:0:0:0:1:
192,192,48000,1,0,0:0:0:1:
192,192,48143,1,0,0:0:0:1:
320,192,48286,1,0,0:0:0:1:
64,192,48286,1,0,0:0:0:1:
192,192,48357,1,0,0:0:0:1:
448,192,48429,1,0,0:0:0:1:
320,192,48500,1,0,0:0:0:1:
64,192,48571,1,0,0:0:0:1:
192,192,48643,1,0,0:0:0:1:
320,192,48714,1,0,0:0:0:1:
192,192,48786,1,0,0:0:0:1:
448,192,48857,1,0,0:0:0:1:
64,192,48857,1,0,0:0:0:1:
320,192,48929,1,0,0:0:0:1:
448,192,49000,1,0,0:0:0:1:
192,192,49071,1,0,0:0:0:1:
64,192,49143,1,0,0:0:0:1:
320,192,49214,1,0,0:0:0:1:
448,192,49286,1,0,0:0:0:1:
192,192,49357,1,0,0:0:0:1:
320,192,49429,1,0,0:0:0:1:
64,192,49429,1,0,0:0:0:1:
192,192,49500,1,0,0:0:0:1:
448,192,49572,1,0,0:0:0:1:
320,192,49643,1,0,0:0:0:1:
64,192,49714,1,0,0:0:0:1:
192,192,49786,1,0,0:0:0:1:
320,192,49857,1,0,0:0:0:1:
192,192,49929,1,0,0:0:0:1:
448,192,50000,1,0,0:0:0:1:
64,192,50000,1,0,0:0:0:1:
320,192,50072,1,0,0:0:0:1:
64,192,50143,1,0,0:0:0:1:
192,192,50214,1,0,0:0:0:1:
448,192,50286,1,0,0:0:0:1:
320,192,50357,1,0,0:0:0:1:
192,192,50429,1,0,0:0:0:1:
320,192,50500,1,0,0:0:0:1:
192,192,50572,1,0,0:0:0:1:
448,192,50572,1,0,0:0:0:1:
64,192,50643,1,0,0:0:0:1:
320,192,50714,1,0,0:0:0:1:
192,192,50786,1,0,0:0:0:1:
448,192,50857,1,0,0:0:0:1:
64,192,50929,1,0,0:0:0:1:
192,192,51000,1,0,0:0:0:1:
320,192,51072,1,0,0:0:0:1:
192,192,51143,1,0,0:0:0:1:
64,192,51143,1,0,0:0:0:1:
448,192,51215,1,0,0:0:0:1:
320,192,51286,1,0,0:0:0:1:
64,192,51357,1,0,0:0:0:1:
192,192,51429,1,0,0:0:0:1:
320,192,51500,1,0,0:0:0:1:
448,192,51572,1,0,0:0:0:1:
192,192,51643,1,0,0:0:0:1:
320,192,51715,1,0,0:0:0:1:
64,192,51715,1,0,0:0:0:1:
192,192,51786,1,0,0:0:0:1:
448,192,51857,1,0,0:0:0:1:
192,192,51929,1,0,0:0:0:1:
64,192,52000,1,0,0:0:0:1:
320,192,52072,1,0,0:0:0:1:
448,192,52143,1,0,0:0:0:1:
320,192,52215,1,0,0:0:0:1:
192,192,52286,1,0,0:0:0:1:
64,192,52286,1,0,0:0:0:1:
448,192,52357,1,0,0:0:0:1:
320,192,52429,1,0,0:0:0:1:
64,192,52500,1,0,0:0:0:1:
192,192,52572,1,0,0:0:0:1:
448,192,52643,1,0,0:0:0:1:
320,192,52715,1,0,0:0:0:1:
192,192,52786,1,0,0:0:0:1:
448,192,52858,1,0,0:0:0:1:
64,192,52858,1,0,0:0:0:1:
320,192,52929,1,0,0:0:0:1:
448,192,53000,1,0,0:0:0:1:
192,192,53072,1,0,0:0:0:1:
64,192,53143,1,0,0:0:0:1:
192,192,53215,1,0,0:0:0:1:
320,192,53286,1,0,0:0:0:1:
64,192,53358,1,0,0:0:0:1:
448,192,53429,1,0,0:0:0:1:
320,192,53500,1,0,0:0:0:1:
192,192,53572,1,0,0:0:0:1:
64,192,53643,1,0,0:0:0:1:
320,192,53715,1,0,0:0:0:1:
192,192,53786,1,0,0:0:0:1:
64,192,53858,1,0,0:0:0:1:
320,192,53929,1,0,0:0:0:1:
448,192,54000,1,0,0:0:0:1:
192,192,54072,1,0,0:0:0:1:
320,192,54143,1,0,0:0:0:1:
64,192,54215,1,0,0:0:0:1:
448,192,54286,1,0,0:0:0:1:
320,192,54358,1,0,0:0:0:1:
192,192,54429,1,0,0:0:0:1:
64,192,54429,1,0,0:0:0:1:
448,192,54501,1,0,0:0:0:1:
192,192,54572,1,0,0:0:0:1:
320,192,54572,1,0,0:0:0:1:
64,192,54643,1,0,0:0:0:1:
320,192,54715,1,0,0:0:0:1:
448,192,54715,1,0,0:0:0:1:
192,192,54786,1,0,0:0:0:1:
448,192,54858,1,0,0:0:0:1:
64,192,54858,1,0,0:0:0:1:
192,192,54929,1,0,0:0:0:1:
320,192,55001,1,0,0:0:0:1:
64,192,55001,1,0,0:0:0:1:
448,192,55072,1,0,0:0:0:1:
320,192,55143,1,0,0:0:0:1:
192,192,55215,1,0,0:0:0:1:
64,192,55286,1,0,0:0:0:1:
448,192,55358,1,0,0:0:0:1:
192,192,55429,1,0,0:0:0:1:
320,192,55501,1,0,0:0:0:1:
192,192,55572,1,0,0:0:0:1:
64,192,55643,1,0,0:0:0:1:
448,192,55715,1,0,0:0:0:1:
320,192,55786,1,0,0:0:0:1:
192,192,55858,1,0,0:0:0:1:
320,192,55929,1,0,0:0:0:1:
64,192,56001,1,0,0:0:0:1:
192,192,56072,1,0,0:0:0:1:
448,192,56144,1,0,0:0:0:1:
320,192,56215,1,0,0:0:0:1:
64,192,56286,1,0,0:0:0:1:
320,192,56358,1,0,0:0:0:1:
192,192,56429,1,0,0:0:0:1:
448,192,56501,1,0,0:0:0:1:
64,192,56572,1,0,0:0:0:1:
320,192,56644,1,0,0:0:0:1:
192,192,56715,1,0,0:0:0:1:
320,192,56786,1,0,0:0:0:1:
192,192,56858,1,0,0:0:0:1:
64,192,56858,1,0,0:0:0:1:
320,192,56929,1,0,0:0:0:1:
448,192,56929,1,0,0:0:0:1:
192,192,57001,1,0,0:0:0:1:
64,192,57001,1,0,0:0:0:1:
320,192,57072,1,0,0:0:0:1:
448,192,57072,1,0,0:0:0:1:
192,192,57144,1,0,0:0:0:1:
64,192,57144,1,0,0:0:0:1:
320,192,57215,1,0,0:0:0:1:
448,192,57215,1,0,0:0:0:1:
192,192,57287,1,0,0:0:0:1:
64,192,57287,1,0,0:0:0:1:
320,192,57358,1,0,0:0:0:1:
448,192,57358,1,0,0:0:0:1:
192,192,57715,1,0,0:0:0:1:
320,192,57858,1,0,0:0:0:1:
192,192,58072,1,0,0:0:0:1:
320,192,58215,1,0,0:0:0:1:
192,192,58572,1,0,0:0:0:1:
192,192,58787,1,0,0:0:0:1:
192,192,59001,1,0,0:0:0:1:
192,192,59215,1,0,0:0:0:1:
192,192,59430,1,0,0:0:0:1:
448,192,59501,1,0,0:0:0:1:
64,192,59572,1,0,0:0:0:1:
320,192,59644,1,0,0:0:0:1:
192,192,59715,1,0,0:0:0:1:
320,192,59787,1,0,0:0:0:1:
64,192,59858,1,0,0:0:0:1:
448,192,59930,1,0,0:0:0:1:
192,192,60001,1,0,0:0:0:1:
320,192,60072,1,0,0:0:0:1:
64,192,60144,1,0,0:0:0:1:
448,192,60215,1,0,0:0:0:1:
192,192,60287,1,0,0:0:0:1:
320,192,60358,1,0,0:0:0:1:
64,192,60430,1,0,0:0:0:1:
448,192,60501,1,0,0:0:0:1:
192,192,60573,1,0,0:0:0:1:
320,192,60644,1,0,0:0:0:1:
64,192,60715,1,0,0:0:0:1:
448,192,60787,1,0,0:0:0:1:
192,192,60858,1,0,0:0:0:1:
64,192,60930,1,0,0:0:0:1:
320,192,60930,1,0,0:0:0:1:
448,192,61001,1,0,0:0:0:1:
192,192,61001,1,0,0:0:0:1:
64,192,61073,1,0,0:0:0:1:
320,192,61073,1,0,0:0:0:1:
448,192,61144,1,0,0:0:0:1:
192,192,61144,1,0,0:0:0:1:
64,192,61215,1,0,0:0:0:1:
320,192,61215,1,0,0:0:0:1:
448,192,61287,1,0,0:0:0:1:
192,192,61287,1,0,0:0:0:1:
64,192,61358,1,0,0:0:0:1:
320,192,61358,1,0,0:0:0:1:
448,192,61430,1,0,0:0:0:1:
192,192,61430,1,0,0:0:0:1:
64,192,61501,1,0,0:0:0:1:
320,192,61501,1,0,0:0:0:1:
448,192,61573,1,0,0:0:0:1:
192,192,61573,1,0,0:0:0:1:
64,192,61644,1,0,0:0:0:1:
320,192,61644,1,0,0:0:0:1:
448,192,61715,1,0,0:0:0:1:
192,192,61715,1,0,0:0:0:1:
64,192,61787,1,0,0:0:0:1:
320,192,61787,1,0,0:0:0:1:
448,192,61858,1,0,0:0:0:1:
192,192,61858,1,0,0:0:0:1:
64,192,61930,1,0,0:0:0:1:
320,192,61930,1,0,0:0:0:1:
448,192,62001,1,0,0:0:0:1:
192,192,62001,1,0,0:0:0:1:
64,192,62001,1,0,0:0:0:1:
320,192,62144,1,0,0:0:0:1:
448,192,62287,1,0,0:0:0:1:
64,192,62287,128,0,62573:0:0:0:1:
192,192,62430,1,0,0:0:0:1:
320,192,62573,1,0,0:0:0:1:
448,192,62716,1,0,0:0:0:1:
192,192,62858,1,0,0:0:0:1:
64,192,62858,128,0,63144:0:0:0:1:
320,192,63001,1,0,0:0:0:1:
448,192,63144,1,0,0:0:0:1:
192,192,63287,1,0,0:0:0:1:
320,192,63430,1,0,0:0:0:1:
64,192,63430,128,0,63716:0:0:0:1:
448,192,63573,1,0,0:0:0:1:
192,192,63716,1,0,0:0:0:1:
320,192,63859,1,0,0:0:0:1:
448,192,64001,1,0,0:0:0:1:
64,192,64001,128,0,64144:0:0:0:1:
320,192,64144,1,0,0:0:0:1:
64,192,64287,1,0,0:0:0:1:
448,192,64287,128,0,64430:0:0:0:1:
192,192,64430,1,0,0:0:0:1:
448,192,64573,1,0,0:0:0:1:
320,192,64573,128,0,64859:0:0:0:1:
192,192,64716,1,0,0:0:0:1:
64,192,64859,1,0,0:0:0:1:
320,192,65001,1,0,0:0:0:1:
192,192,65144,1,0,0:0:0:1:
448,192,65144,128,0,65430:0:0:0:1:
320,192,65287,1,0,0:0:0:1:
64,192,65430,1,0,0:0:0:1:
320,192,65430,128,0,65502:0:0:0:1:
192,192,65573,1,0,0:0:0:1:
448,192,65716,1,0,0:0:0:1:
64,192,65716,128,0,66002:0:0:0:1:
320,192,65859,1,0,0:0:0:1:
448,192,65859,128,0,65930:0:0:0:1:
192,192,66002,1,0,0:0:0:1:
448,192,66144,1,0,0:0:0:1:
64,192,66144,128,0,66216:0:0:0:1:
64,192,66287,1,0,0:0:0:1:
192,192,66287,128,0,66573:0:0:0:1:
320,192,66430,1,0,0:0:0:1:
448,192,66430,128,0,66502:0:0:0:1:
320,192,66573,1,0,0:0:0:1:
64,192,66573,1,0,0:0:0:1:
192,192,66716,1,0,0:0:0:1:
64,192,66859,1,0,0:0:0:1:
448,192,66859,128,0,67145:0:0:0:1:
320,192,67002,1,0,0:0:0:1:
192,192,67145,1,0,0:0:0:1:
64,192,67287,1,0,0:0:0:1:
320,192,67430,1,0,0:0:0:1:
448,192,67430,128,0,67716:0:0:0:1:
192,192,67573,1,0,0:0:0:1:
64,192,67716,1,0,0:0:0:1:
320,192,67859,1,0,0:0:0:1:
192,192,68002,1,0,0:0:0:1:
448,192,68002,128,0,68287:0:0:0:1:
64,192,68145,1,0,0:0:0:1:
320,192,68287,1,0,0:0:0:1:
192,192,68430,1,0,0:0:0:1:
64,192,68573,1,0,0:0:0:1:
448,192,68573,128,0,68716:0:0:0:1:
192,192,68716,1,0,0:0:0:1:
448,192,68859,1,0,0:0:0:1:
64,192,68859,128,0,69002:0:0:0:1:
320,192,69002,1,0,0:0:0:1:
64,192,69145,1,0,0:0:0:1:
192,192,69145,128,0,69430:0:0:0:1:
320,192,69288,1,0,0:0:0:1:
448,192,69430,1,0,0:0:0:1:
192,192,69573,1,0,0:0:0:1:
320,192,69716,1,0,0:0:0:1:
64,192,69716,128,0,70002:0:0:0:1:
448,192,69859,1,0,0:0:0:1:
192,192,70002,1,0,0:0:0:1:
448,192,70002,1,0,0:0:0:1:
320,192,70145,1,0,0:0:0:1:
64,192,70145,1,0,0:0:0:1:
448,192,70216,1,0,0:0:0:1:
192,192,70288,1,0,0:0:0:1:
320,192,70288,1,0,0:0:0:1:
448,192,70431,1,0,0:0:0:1:
64,192,70431,1,0,0:0:0:1:
192,192,70502,1,0,0:0:0:1:
448,192,70573,1,0,0:0:0:1:
64,192,70573,1,0,0:0:0:1:
320,192,70716,1,0,0:0:0:1:
192,192,70716,1,0,0:0:0:1:
448,192,70788,1,0,0:0:0:1:
320,192,70859,1,0,0:0:0:1:
64,192,70859,1,0,0:0:0:1:
448,192,71002,1,0,0:0:0:1:
192,192,71002,1,0,0:0:0:1:
320,192,71073,1,0,0:0:0:1:
448,192,71145,1,0,0:0:0:1:
64,192,71145,1,0,0:0:0:1:
320,192,71216,1,0,0:0:0:1:
192,192,71288,1,0,0:0:0:1:
64,192,71359,1,0,0:0:0:1:
192,192,71431,1,0,0:0:0:1:
448,192,71502,1,0,0:0:0:1:
320,192,71574,1,0,0:0:0:1:
64,192,71645,1,0,0:0:0:1:
192,192,71716,1,0,0:0:0:1:
448,192,71716,1,0,0:0:0:1:
64,192,71788,1,0,0:0:0:1:
320,192,71859,1,0,0:0:0:1:
192,192,71931,1,0,0:0:0:1:
448,192,72002,1,0,0:0:0:1:
320,192,72074,1,0,0:0:0:1:
192,192,72145,1,0,0:0:0:1:
64,192,72216,1,0,0:0:0:1:
320,192,72288,1,0,0:0:0:1:
448,192,72288,1,0,0:0:0:1:
64,192,72359,1,0,0:0:0:1:
192,192,72431,1,0,0:0:0:1:
320,192,72502,1,0,0:0:0:1:
448,192,72574,1,0,0:0:0:1:
64,192,72645,1,0,0:0:0:1:
320,192,72716,1,0,0:0:0:1:
192,192,72788,1,0,0:0:0:1:
448,192,72859,1,0,0:0:0:1:
64,192,72859,1,0,0:0:0:1:
320,192,72931,1,0,0:0:0:1:
192,192,73002,1,0,0:0:0:1:
64,192,73074,1,0,0:0:0:1:
192,192,73145,1,0,0:0:0:1:
320,192,73217,1,0,0:0:0:1:
448,192,73288,1,0,0:0:0:1:
192,192,73359,1,0,0:0:0:1:
320,192,73431,1,0,0:0:0:1:
64,192,73431,1,0,0:0:0:1:
192,192,73502,1,0,0:0:0:1:
320,192,73574,1,0,0:0:0:1:
448,192,73645,1,0,0:0:0:1:
192,192,73717,1,0,0:0:0:1:
64,192,73788,1,0,0:0:0:1:
320,192,73859,1,0,0:0:0:1:
448,192,73931,1,0,0:0:0:1:
192,192,74002,1,0,0:0:0:1:
64,192,74002,1,0,0:0:0:1:
320,192,74074,1,0,0:0:0:1:
192,192,74145,1,0,0:0:0:1:
448,192,74217,1,0,0:0:0:1:
64,192,74288,1,0,0:0:0:1:
320,192,74359,1,0,0:0:0:1:
192,192,74431,1,0,0:0:0:1:
64,192,74502,1,0,0:0:0:1:
320,192,74574,1,0,0:0:0:1:
448,192,74574,1,0,0:0:0:1:
192,192,74645,1,0,0:0:0:1:
64,192,74717,1,0,0:0:0:1:
320,192,74788,1,0,0:0:0:1:
192,192,74860,1,0,0:0:0:1:
320,192,74931,1,0,0:0:0:1:
448,192,75002,1,0,0:0:0:1:
192,192,75074,1,0,0:0:0:1:
320,192,75145,1,0,0:0:0:1:
64,192,75145,1,0,0:0:0:1:
192,192,75217,1,0,0:0:0:1:
320,192,75288,1,0,0:0:0:1:
448,192,75360,1,0,0:0:0:1:
192,192,75431,1,0,0:0:0:1:
64,192,75502,1,0,0:0:0:1:
320,192,75574,1,0,0:0:0:1:
192,192,75645,1,0,0:0:0:1:
448,192,75717,1,0,0:0:0:1:
64,192,75717,128,0,76717:0:0:0:1:
320,192,75860,1,0,0:0:0:1:
192,192,76002,1,0,0:0:0:1:
448,192,76145,1,0,0:0:0:1:
320,192,76288,1,0,0:0:0:1:
192,192,76431,1,0,0:0:0:1:
448,192,76574,1,0,0:0:0:1:
320,192,76717,1,0,0:0:0:1:
192,192,76860,1,0,0:0:0:1:
448,192,76860,128,0,77288:0:0:0:1:
64,192,77003,1,0,0:0:0:1:
320,192,77145,1,0,0:0:0:1:
192,192,77288,1,0,0:0:0:1:
448,192,77431,1,0,0:0:0:1:
64,192,77431,1,0,0:0:0:1:
320,192,77574,1,0,0:0:0:1:
64,192,77717,1,0,0:0:0:1:
192,192,77860,1,0,0:0:0:1:
320,192,78003,1,0,0:0:0:1:
448,192,78003,1,0,0:0:0:1:
192,192,78146,1,0,0:0:0:1:
320,192,78146,1,0,0:0:0:1:
192,192,78288,1,0,0:0:0:1:
64,192,78288,1,0,0:0:0:1:
192,192,78431,1,0,0:0:0:1:
320,192,78431,1,0,0:0:0:1:
320,192,78574,1,0,0:0:0:1:
64,192,78574,1,0,0:0:0:1:
192,192,78717,1,0,0:0:0:1:
448,192,78717,1,0,0:0:0:1:
320,192,78860,1,0,0:0:0:1:
448,192,78860,1,0,0:0:0:1:
448,192,79003,1,0,0:0:0:1:
64,192,79003,1,0,0:0:0:1:
192,192,79146,1,0,0:0:0:1:
320,192,79217,1,0,0:0:0:1:
448,192,79288,1,0,0:0:0:1:
320,192,79360,1,0,0:0:0:1:
64,192,79431,1,0,0:0:0:1:
320,192,79503,1,0,0:0:0:1:
192,192,79574,1,0,0:0:0:1:
320,192,79646,1,0,0:0:0:1:
448,192,79717,1,0,0:0:0:1:
64,192,79789,1,0,0:0:0:1:
320,192,79860,1,0,0:0:0:1:
64,192,79931,1,0,0:0:0:1:
192,192,80003,1,0,0:0:0:1:
64,192,80074,1,0,0:0:0:1:
320,192,80146,1,0,0:0:0:1:
64,192,80217,1,0,0:0:0:1:
192,192,80289,1,0,0:0:0:1:
448,192,80289,128,0,80717:0:0:0:1:
64,192,80431,1,0,0:0:0:1:
320,192,80574,1,0,0:0:0:1:
64,192,80717,1,0,0:0:0:1:
192,192,80717,128,0,81146:0:0:0:1:
320,192,80860,1,0,0:0:0:1:
64,192,81003,1,0,0:0:0:1:
448,192,81146,1,0,0:0:0:1:
320,192,81146,128,0,82003:0:0:0:1:
64,192,81289,1,0,0:0:0:1:
192,192,81432,1,0,0:0:0:1:
64,192,81574,1,0,0:0:0:1:
448,192,81717,1,0,0:0:0:1:
192,192,81860,1,0,0:0:0:1:
64,192,82003,1,0,0:0:0:1:
192,192,82003,128,0,82575:0:0:0:1:
448,192,82146,1,0,0:0:0:1:
320,192,82289,1,0,0:0:0:1:
448,192,82432,1,0,0:0:0:1:
320,192,82575,1,0,0:0:0:1:
64,192,82575,128,0,83003:0:0:0:1:
192,192,82717,1,0,0:0:0:1:
448,192,82860,1,0,0:0:0:1:
192,192,83003,1,0,0:0:0:1:
320,192,83003,128,0,83432:0:0:0:1:
64,192,83146,1,0,0:0:0:1:
448,192,83289,1,0,0:0:0:1:
64,192,83432,1,0,0:0:0:1:
192,192,83432,128,0,84289:0:0:0:1:
320,192,83575,1,0,0:0:0:1:
64,192,83717,1,0,0:0:0:1:
448,192,83860,1,0,0:0:0:1:
320,192,84003,1,0,0:0:0:1:
64,192,84146,1,0,0:0:0:1:
448,192,84289,1,0,0:0:0:1:
320,192,84289,128,0,84575:0:0:0:1:
192,192,84432,1,0,0:0:0:1:
64,192,84575,1,0,0:0:0:1:
448,192,84575,128,0,84718:0:0:0:1:
320,192,84718,1,0,0:0:0:1:
64,192,84860,1,0,0:0:0:1:
448,192,84860,128,0,85289:0:0:0:1:
192,192,85003,1,0,0:0:0:1:
320,192,85146,1,0,0:0:0:1:
64,192,85289,1,0,0:0:0:1:
320,192,85289,128,0,85718:0:0:0:1:
192,192,85432,1,0,0:0:0:1:
448,192,85575,1,0,0:0:0:1:
64,192,85718,1,0,0:0:0:1:
192,192,85718,128,0,86575:0:0:0:1:
448,192,85861,1,0,0:0:0:1:
320,192,86003,1,0,0:0:0:1:
64,192,86146,1,0,0:0:0:1:
448,192,86289,1,0,0:0:0:1:
320,192,86432,1,0,0:0:0:1:
448,192,86575,1,0,0:0:0:1:
64,192,86575,128,0,86861:0:0:0:1:
192,192,86718,1,0,0:0:0:1:
448,192,86861,1,0,0:0:0:1:
320,192,86861,128,0,87146:0:0:0:1:
64,192,87003,1,0,0:0:0:1:
192,192,87146,1,0,0:0:0:1:
448,192,87146,128,0,87575:0:0:0:1:
320,192,87289,1,0,0:0:0:1:
192,192,87432,1,0,0:0:0:1:
320,192,87575,1,0,0:0:0:1:
64,192,87575,128,0,88004:0:0:0:1:
448,192,87718,1,0,0:0:0:1:
320,192,87861,1,0,0:0:0:1:
448,192,88004,1,0,0:0:0:1:
192,192,88004,128,0,88861:0:0:0:1:
64,192,88146,1,0,0:0:0:1:
320,192,88289,1,0,0:0:0:1:
448,192,88432,1,0,0:0:0:1:
64,192,88575,1,0,0:0:0:1:
320,192,88718,1,0,0:0:0:1:
448,192,88861,1,0,0:0:0:1:
320,192,88861,128,0,89432:0:0:0:1:
64,192,89004,1,0,0:0:0:1:
192,192,89147,1,0,0:0:0:1:
64,192,89289,1,0,0:0:0:1:
192,192,89432,1,0,0:0:0:1:
448,192,89432,1,0,0:0:0:1:
64,192,89432,128,0,89861:0:0:0:1:
320,192,89575,1,0,0:0:0:1:
448,192,89718,1,0,0:0:0:1:
320,192,89861,1,0,0:0:0:1:
448,192,89861,1,0,0:0:0:1:
192,192,89861,128,0,90289:0:0:0:1:
64,192,90004,1,0,0:0:0:1:
320,192,90147,1,0,0:0:0:1:
320,192,90289,1,0,0:0:0:1:
448,192,90289,1,0,0:0:0:1:
64,192,90289,128,0,91147:0:0:0:1:
192,192,90432,1,0,0:0:0:1:
448,192,90575,1,0,0:0:0:1:
192,192,90718,1,0,0:0:0:1:
320,192,90718,1,0,0:0:0:1:
448,192,90861,1,0,0:0:0:1:
320,192,91004,1,0,0:0:0:1:
192,192,91147,1,0,0:0:0:1:
448,192,91147,1,0,0:0:0:1:
320,192,91147,128,0,91718:0:0:0:1:
64,192,91290,1,0,0:0:0:1:
192,192,91432,1,0,0:0:0:1:
448,192,91575,1,0,0:0:0:1:
64,192,91575,1,0,0:0:0:1:
448,192,91718,1,0,0:0:0:1:
192,192,91718,128,0,92147:0:0:0:1:
320,192,91861,1,0,0:0:0:1:
320,192,92004,1,0,0:0:0:1:
64,192,92004,1,0,0:0:0:1:
64,192,92147,1,0,0:0:0:1:
448,192,92147,128,0,92575:0:0:0:1:
320,192,92290,1,0,0:0:0:1:
192,192,92433,1,0,0:0:0:1:
64,192,92433,1,0,0:0:0:1:
320,192,92575,1,0,0:0:0:1:
192,192,92575,128,0,93147:0:0:0:1:
320,192,92718,1,0,0:0:0:1:
320,192,92861,1,0,0:0:0:1:
64,192,92861,1,0,0:0:0:1:
448,192,93004,1,0,0:0:0:1:
64,192,93147,1,0,0:0:0:1:
320,192,93147,128,0,93433:0:0:0:1:
448,192,93290,1,0,0:0:0:1:
64,192,93290,1,0,0:0:0:1:
192,192,93433,1,0,0:0:0:1:
448,192,93433,128,0,93718:0:0:0:1:
320,192,93575,1,0,0:0:0:1:
192,192,93718,1,0,0:0:0:1:
320,192,93718,1,0,0:0:0:1:
64,192,93718,128,0,94004:0:0:0:1:
448,192,93861,1,0,0:0:0:1:
192,192,94004,1,0,0:0:0:1:
448,192,94004,128,0,94433:0:0:0:1:
320,192,94147,1,0,0:0:0:1:
64,192,94147,1,0,0:0:0:1:
192,192,94290,1,0,0:0:0:1:
192,192,94433,1,0,0:0:0:1:
320,192,94433,128,0,94861:0:0:0:1:
448,192,94576,1,0,0:0:0:1:
64,192,94576,1,0,0:0:0:1:
64,192,94718,1,0,0:0:0:1:
448,192,94861,1,0,0:0:0:1:
192,192,94861,128,0,95719:0:0:0:1:
320,192,95004,1,0,0:0:0:1:
448,192,95004,1,0,0:0:0:1:
64,192,95147,1,0,0:0:0:1:
320,192,95290,1,0,0:0:0:1:
320,192,95433,1,0,0:0:0:1:
64,192,95433,1,0,0:0:0:1:
448,192,95576,1,0,0:0:0:1:
320,192,95719,1,0,0:0:0:1:
64,192,95719,128,0,96004:0:0:0:1:
192,192,95861,1,0,0:0:0:1:
448,192,95861,1,0,0:0:0:1:
448,192,96004,1,0,0:0:0:1:
320,192,96004,128,0,96290:0:0:0:1:
64,192,96147,1,0,0:0:0:1:
448,192,96290,1,0,0:0:0:1:
64,192,96290,1,0,0:0:0:1:
192,192,96290,128,0,96719:0:0:0:1:
320,192,96433,1,0,0:0:0:1:
448,192,96576,1,0,0:0:0:1:
320,192,96719,1,0,0:0:0:1:
448,192,96719,1,0,0:0:0:1:
64,192,96719,128,0,97147:0:0:0:1:
448,192,96862,1,0,0:0:0:1:
192,192,97004,1,0,0:0:0:1:
320,192,97147,1,0,0:0:0:1:
448,192,97147,1,0,0:0:0:1:
192,192,97147,128,0,98004:0:0:0:1:
320,192,97290,1,0,0:0:0:1:
64,192,97290,1,0,0:0:0:1:
448,192,97433,1,0,0:0:0:1:
320,192,97576,1,0,0:0:0:1:
448,192,97576,1,0,0:0:0:1:
448,192,97719,1,0,0:0:0:1:
64,192,97719,1,0,0:0:0:1:
320,192,97862,1,0,0:0:0:1:
320,192,98004,1,0,0:0:0:1:
64,192,98004,1,0,0:0:0:1:
448,192,98004,128,0,98433:0:0:0:1:
64,192,98147,1,0,0:0:0:1:
192,192,98290,1,0,0:0:0:1:
320,192,98290,1,0,0:0:0:1:
192,192,98433,1,0,0:0:0:1:
64,192,98433,1,0,0:0:0:1:
320,192,98576,128,0,98862:0:0:0:1:
64,192,98576,128,0,99005:0:0:0:1:
192,192,98862,1,0,0:0:0:1:
320,192,99005,128,0,99433:0:0:0:1:
448,192,99005,128,0,99290:0:0:0:1:
448,192,99433,1,0,0:0:0:1:
192,192,99433,128,0,100290:0:0:0:1:
64,192,99433,128,0,99719:0:0:0:1:
448,192,99862,128,0,100148:0:0:0:1:
320,192,100005,1,0,0:0:0:1:
320,192,100290,128,0,100862:0:0:0:1:
64,192,100290,128,0,100576:0:0:0:1:
448,192,100576,1,0,0:0:0:1:
192,192,100719,128,0,101005:0:0:0:1:
448,192,100862,128,0,101290:0:0:0:1:
64,192,101148,1,0,0:0:0:1:
320,192,101148,128,0,101433:0:0:0:1:
192,192,101290,128,0,101719:0:0:0:1:
64,192,101576,128,0,101862:0:0:0:1:
448,192,101719,1,0,0:0:0:1:
320,192,101719,128,0,102576:0:0:0:1:
448,192,102005,128,0,102291:0:0:0:1:
192,192,102291,1,0,0:0:0:1:
64,192,102433,128,0,102719:0:0:0:1:
192,192,102576,128,0,102862:0:0:0:1:
448,192,102862,1,0,0:0:0:1:
320,192,102862,128,0,103148:0:0:0:1:
64,192,102862,128,0,103005:0:0:0:1:
64,192,103148,128,0,103576:0:0:0:1:
448,192,103291,128,0,103576:0:0:0:1:
320,192,103434,1,0,0:0:0:1:
192,192,103576,128,0,104005:0:0:0:1:
64,192,103719,128,0,104005:0:0:0:1:
448,192,104005,1,0,0:0:0:1:
320,192,104005,128,0,104862:0:0:0:1:
192,192,104148,128,0,104434:0:0:0:1:
448,192,104576,1,0,0:0:0:1:
64,192,104576,128,0,104862:0:0:0:1:
448,192,104862,128,0,105148:0:0:0:1:
320,192,105005,128,0,105291:0:0:0:1:
64,192,105148,1,0,0:0:0:1:
192,192,105148,128,0,105434:0:0:0:1:
448,192,105434,128,0,105719:0:0:0:1:
64,192,105434,128,0,105862:0:0:0:1:
320,192,105719,1,0,0:0:0:1:
192,192,105862,128,0,106148:0:0:0:1:
448,192,105862,128,0,106291:0:0:0:1:
192,192,106291,1,0,0:0:0:1:
320,192,106291,128,0,107148:0:0:0:1:
64,192,106291,128,0,106577:0:0:0:1:
192,192,106720,128,0,107005:0:0:0:1:
448,192,106862,1,0,0:0:0:1:
192,192,107148,128,0,107720:0:0:0:1:
448,192,107148,128,0,107434:0:0:0:1:
64,192,107434,1,0,0:0:0:1:
320,192,107434,128,0,107577:0:0:0:1:
320,192,107720,1,0,0:0:0:1:
448,192,107720,128,0,108148:0:0:0:1:
64,192,107720,128,0,107863:0:0:0:1:
192,192,107863,1,0,0:0:0:1:
320,192,108005,1,0,0:0:0:1:
64,192,108005,128,0,108291:0:0:0:1:
192,192,108148,128,0,108291:0:0:0:1:
320,192,108148,128,0,108577:0:0:0:1:
448,192,108291,1,0,0:0:0:1:
64,192,108434,1,0,0:0:0:1:
192,192,108434,128,0,108720:0:0:0:1:
448,192,108577,128,0,109434:0:0:0:1:
64,192,108577,128,0,108720:0:0:0:1:
320,192,108720,1,0,0:0:0:1:
192,192,108863,128,0,109148:0:0:0:1:
320,192,109005,1,0,0:0:0:1:
64,192,109005,128,0,109148:0:0:0:1:
192,192,109291,1,0,0:0:0:1:
320,192,109291,128,0,109577:0:0:0:1:
192,192,109434,128,0,110006:0:0:0:1:
64,192,109434,128,0,109577:0:0:0:1:
448,192,109577,1,0,0:0:0:1:
320,192,109720,1,0,0:0:0:1:
64,192,109720,128,0,110006:0:0:0:1:
448,192,109863,128,0,110006:0:0:0:1:
320,192,110006,128,0,110434:0:0:0:1:
64,192,110148,1,0,0:0:0:1:
448,192,110148,128,0,110434:0:0:0:1:
64,192,110291,1,0,0:0:0:1:
192,192,110291,128,0,110434:0:0:0:1:
64,192,110434,128,0,110863:0:0:0:1:
320,192,110577,1,0,0:0:0:1:
448,192,110577,128,0,110863:0:0:0:1:
320,192,110720,1,0,0:0:0:1:
192,192,110720,128,0,110863:0:0:0:1:
320,192,110863,128,0,111434:0:0:0:1:
64,192,111006,1,0,0:0:0:1:
192,192,111006,128,0,111291:0:0:0:1:
448,192,111149,128,0,111291:0:0:0:1:
64,192,111291,1,0,0:0:0:1:
192,192,111434,128,0,111720:0:0:0:1:
448,192,111434,128,0,111720:0:0:0:1:
64,192,111577,1,0,0:0:0:1:
320,192,111577,128,0,111720:0:0:0:1:
64,192,111720,128,0,112006:0:0:0:1:
448,192,111863,1,0,0:0:0:1:
192,192,111863,128,0,112149:0:0:0:1:
320,192,112006,128,0,112149:0:0:0:1:
448,192,112006,128,0,112291:0:0:0:1:
320,192,112291,128,0,112577:0:0:0:1:
64,192,112291,128,0,112720:0:0:0:1:
192,192,112434,1,0,0:0:0:1:
448,192,112434,128,0,112577:0:0:0:1:
192,192,112720,128,0,113149:0:0:0:1:
448,192,112720,128,0,113006:0:0:0:1:
64,192,112863,1,0,0:0:0:1:
320,192,112863,128,0,113006:0:0:0:1:
320,192,113149,128,0,114006:0:0:0:1:
64,192,113149,128,0,113434:0:0:0:1:
192,192,113292,1,0,0:0:0:1:
448,192,113292,128,0,113434:0:0:0:1:
448,192,113577,1,0,0:0:0:1:
192,192,113577,128,0,113863:0:0:0:1:
448,192,113720,1,0,0:0:0:1:
64,192,113720,128,0,113863:0:0:0:1:
448,192,114006,128,0,114292:0:0:0:1:
64,192,114006,128,0,114292:0:0:0:1:
192,192,114149,1,0,0:0:0:1:
320,192,114149,128,0,114292:0:0:0:1:
192,192,114292,128,0,114577:0:0:0:1:
64,192,114435,1,0,0:0:0:1:
448,192,114435,128,0,114720:0:0:0:1:
320,192,114577,128,0,115006:0:0:0:1:
64,192,114577,128,0,114720:0:0:0:1:
448,192,114863,1,0,0:0:0:1:
192,192,114863,128,0,115149:0:0:0:1:
448,192,115006,128,0,115435:0:0:0:1:
64,192,115006,128,0,115149:0:0:0:1:
320,192,115292,1,0,0:0:0:1:
64,192,115292,128,0,115577:0:0:0:1:
192,192,115435,128,0,115577:0:0:0:1:
320,192,115435,128,0,116292:0:0:0:1:
64,192,115720,1,0,0:0:0:1:
448,192,115720,128,0,116006:0:0:0:1:
64,192,115863,1,0,0:0:0:1:
192,192,115863,128,0,116006:0:0:0:1:
64,192,116149,1,0,0:0:0:1:
192,192,116149,128,0,116292:0:0:0:1:
448,192,116292,128,0,116435:0:0:0:1:
64,192,116292,128,0,116720:0:0:0:1:
320,192,116435,1,0,0:0:0:1:
192,192,116578,1,0,0:0:0:1:
448,192,116578,1,0,0:0:0:1:
192,192,116720,1,0,0:0:0:1:
320,192,116720,1,0,0:0:0:1:
192,192,116863,128,0,120149:0:0:0:1:
320,192,116863,128,0,120149:0:0:0:1:
448,192,116863,128,0,120149:0:0:0:1:
64,192,116863,128,0,120149:0:0:0:1:
