osu file format v9

[General]
AudioFilename: Kamui.mp3
AudioLeadIn: 0
PreviewTime: 59713
Countdown: 0
SampleSet: Normal
StackLeniency: 0.7
Mode: 0
LetterboxInBreaks: 0

[Editor]
Bookmarks: 4069,13212,31497,49783,63497,81783,100069
DistanceSpacing: 1.2
BeatDivisor: 4
GridSize: 4

[Metadata]
Title:Kamui
Artist:TJ.Hangneil
Creator:7odoa
Version:HD
Source:Ez2Dj 7th TraX Class R Codename : Violet
Tags:sasakure.UK Backfire Nakagawa-Kanon dksslqj

[Difficulty]
HPDrainRate:6
CircleSize:4
OverallDifficulty:6
ApproachRate:8
SliderMultiplier:1.7
SliderTickRate:2

[Events]
//Background and Video events
Video,-1474,"KAMUI.AVI"
0,0,"BG.jpg"
//Break Periods
2,57555,58963
//Storyboard Layer 0 (Background)
//Storyboard Layer 1 (Fail)
//Storyboard Layer 2 (Pass)
//Storyboard Layer 3 (Foreground)
//Storyboard Sound Samples
//Background Colour Transformations
3,100,163,162,255

[TimingPoints]
284.626818192777,285.714285714286,4,2,0,60,1,0
2498,-133.333333333333,4,2,0,60,0,0
10498,-100,4,1,1,50,0,0
27641,-100,4,2,0,75,0,0
29927,-100,4,1,1,50,0,0
45927,-100,4,2,0,75,0,0
48213,-100,4,1,1,50,0,0
56784,-100,4,1,0,50,0,0
57570,-100,4,1,1,50,0,0
71070,-100,4,2,0,75,0,0
75641,-100,4,1,1,50,0,0
80284,-100,4,1,1,50,0,1
89355,-100,4,2,0,75,0,1
95070,-100,4,1,1,50,0,1
107641,-100,4,2,0,75,0,1
116248,-100,4,1,1,50,0,1
116820,-100,4,2,0,75,0,1
116856,-100,4,2,0,75,0,0
116927,-100,4,2,0,5,0,0

[Colours]
Combo1 : 255,128,0
Combo2 : 0,255,255
Combo3 : 255,0,255

[HitObjects]
196,76,2570,2,0,B|256:32|316:76,1,127.499996200204,2|0
256,132,2998,1,2
116,192,3284,1,2
116,344,3570,1,2
256,284,3855,1,2
396,344,4141,1,2
396,192,4427,1,2
28,44,4855,6,0,B|12:120|80:156,1,127.499996200204,2|0
104,76,5284,1,2
204,192,5570,1,2
180,344,5855,1,2
332,344,6141,1,2
308,192,6427,1,2
408,76,6713,1,2
484,340,7141,6,0,B|500:264|432:228,1,127.499996200204,2|0
412,304,7570,1,2
508,188,7855,1,2
368,120,8141,1,2
256,224,8427,1,2
144,120,8713,1,2
4,188,8998,1,2
300,328,9427,6,0,B|284:252|352:216,1,127.499996200204,2|0
372,292,9855,1,2
256,192,10141,1,2
140,92,10427,1,2
256,192,10570,12,4,11713
472,212,11998,5,8
372,32,12284,1,0
388,132,12427,1,0
292,96,12570,2,0,B|204:56|132:136,1,170,8|0
60,64,12998,1,0
32,164,13141,2,0,B|104:224|72:324,1,170,8|0
168,356,13570,2,0,B|224:272,2,85,0|8|0
296,368,13998,6,0,B|364:316|364:316|460:316,1,170,4|8
307,138,14570,1,0
360,54,14713,1,0
257,54,14855,2,0,B|189:106|189:106|93:106,1,170,8|0
36,28,15284,1,0
24,130,15427,2,0,B|24:212|24:212|72:228|72:284,1,170,8|0
132,360,15855,1,0
184,272,15998,1,8
248,352,16141,1,0
292,260,16284,6,0,B|331:209|389:253|438:186,1,170,4|8
312,24,16855,1,0
256,108,16998,1,0
200,24,17141,1,8
340,172,17427,1,0
256,228,17570,1,0
172,172,17713,1,8
340,288,17998,2,0,B|332:332|332:332|288:368,1,85
212,304,18284,1,8
116,344,18427,1,0
56,260,18570,6,0,B|120:192|216:192,1,170,4|8
256,100,18998,1,0
305,192,19141,2,0,B|392:192|456:260,1,170,0|8
492,164,19569,1,0
416,92,19713,6,0,B|447:41,2,42.5,0|0|0
304,152,19998,2,0,B|335:101,2,42.5,10|0|0
208,68,20284,2,0,B|230:32,2,42.5,0|0|0
96,128,20569,2,0,B|118:92,2,42.5,10|0|0
32,208,20855,6,0,B|164:312,1,170,4|8
256,260,21284,1,0
346,313,21427,2,0,B|480:208,1,170,0|8
504,108,21855,1,0
416,56,21998,6,0,B|392:100|404:132|404:132|320:196,1,170,0|10
256,116,22427,1,0
180,187,22570,2,0,B|108:132|108:132|120:100|96:56,1,170,0|10
8,108,22998,1,0
48,204,23141,6,0,B|20:288|88:360,1,170,0|8
464,204,23713,2,0,B|492:288|424:360,1,170,0|8
164,240,24284,5,0
136,140,24427,1,0
168,44,24570,1,10
348,144,24855,1,0
376,244,24998,1,0
344,340,25141,1,10
256,192,25427,12,4,27713
100,112,27998,5,0
256,244,28284,1,2
412,112,28570,1,0
480,316,28855,6,0,B|460:356,2,42.5
364,348,29141,2,0,B|331:378,2,42.5,2|0|0
244,336,29427,2,0,B|202:353,2,42.5,0|0|0
148,264,29713,2,0,B|103:266,2,42.5,2|0|0
84,164,29998,6,0,B|11:147|11:70|84:50,1,170,4|8
177,94,30427,2,0,B|256:148|335:94,1,170
436,72,30856,2,0,B|472:112|472:112|468:176|468:176|520:220,1,170,8|0
424,268,31284,5,0
336,212,31427,1,10
336,316,31570,1,0
248,268,31713,2,0,B|248:364,1,85,0|0
156,308,31998,2,0,B|156:212,1,85,10|0
60,192,32284,6,0,B|108:120|208:120,1,170,0|8
176,24,32713,2,0,B|261:11|326:88,1,170
355,184,33141,2,0,B|269:196|204:119,1,170,8|2
108,88,33570,1,0
36,160,33713,1,8
136,184,33855,1,2
64,256,33998,2,0,B|48:296,2,42.5,0|0|2
164,284,34284,2,0,B|176:328|224:348,1,85,8|2
264,252,34570,6,0,B|348:224|380:116,1,170,4|8
336,31,34998,2,0,B|256:80|175:31,1,170
136,132,35427,1,8
32,128,35570,2,0,B|-15:208|31:289,1,170
132,268,35998,1,10
156,368,36141,1,0
248,324,36284,2,0,B|264:368|312:380,1,85,0|0
408,344,36570,2,0,B|392:300|344:288,1,85,10|0
256,244,36855,6,0,B|193:259|148:207|148:207|133:159,1,170,0|8
32,148,37284,2,0,B|46:100|46:100|92:48|156:60,1,170,0|0
228,132,37713,1,8
312,72,37855,1,0
368,156,37998,6,0,B|456:176,1,85,2|0
496,268,38284,2,0,B|408:248,1,85,8|2
336,316,38570,2,0,B|324:372,2,42.5,0|0|10
296,224,38855,2,0,B|208:204,1,85,0|10
116,172,39141,6,0,B|76:124|80:52|132:16,1,170,4|8
196,96,39570,1,0
284,44,39713,2,0,B|304:88|292:136,1,85
220,196,39998,2,0,B|170:228|165:304|210:351,1,170,8|0
284,280,40427,1,0
336,368,40570,5,10
408,296,40713,1,0
504,328,40855,2,0,B|514:288|494:244,1,85,0|0
400,200,41141,2,0,B|359:204|326:239,1,85,10|0
240,292,41427,6,0,B|192:316|144:292|144:292|104:360,1,170,0|8
96,224,41855,2,0,B|144:200|192:224|192:224|232:156,1,170
252,64,42284,1,8
252,64,42427,1,0
336,120,42570,5,0
436,140,42713,1,0
464,236,42855,1,10
364,212,42998,1,0
392,308,43141,2,0,B|432:324,2,42.5,0|0|10
304,360,43427,2,0,B|284:320|292:277,1,85,0|10
256,184,43713,6,0,B|288:84|192:28,1,170,4|8
112,120,44141,2,0,B|80:220|176:276,1,170
256,316,44570,1,8
348,364,44713,1,0
340,264,44855,6,0,B|380:264|380:264|424:308,2,85,0|0|8
412,192,45284,2,0,B|500:192,2,85,0|2|0
340,120,45713,2,0,B|380:120|380:120|411:88,1,85,8|0
256,40,45998,5,6
16,192,46284,1,0
256,344,46570,1,2
496,192,46856,1,0
256,192,47141,12,4,48284
368,76,48570,5,0
452,16,48713,1,0
460,116,48855,2,0,B|516:188|460:296,1,170,2|0
416,364,49284,2,0,B|344:364|344:364|300:336|300:264,1,170
211,280,49713,6,0,B|212:328|176:360,1,85
112,280,49998,1,2
56,196,50141,1,0
112,112,50284,1,0
216,112,50427,2,0,B|268:196|364:156,1,170
496,320,50998,5,0
428,244,51141,1,2
396,340,51284,2,0,B|344:296|344:296|304:332|232:312,1,170
272,216,51713,5,0
184,168,51855,1,0
116,244,51998,2,0,B|81:211|77:170,1,85
124,80,52284,2,0,B|96:32,2,42.5,2|0|0
220,44,52570,2,0,B|192:-4,2,42.5,2|0|0
320,68,52856,6,0,B|388:68|380:152|460:152,1,170,4|0
376,276,53284,2,0,B|308:276|316:192|236:192,1,170,2|0
140,148,53713,1,0
108,52,53855,1,0
72,272,54141,5,0
152,336,54284,2,0,B|128:376|60:380,1,85
176,240,54570,2,0,B|200:200|268:196,1,85,2|0
260,304,54855,1,0
344,248,54998,2,0,B|380:328|488:340,1,170
192,32,55570,5,0
92,60,55713,1,2
168,128,55855,1,0
20,304,56141,5,0
92,376,56284,1,0
120,276,56427,1,0
196,344,56570,2,0,B|230:312|219:244,1,85
296,196,56856,2,8,B|280:152,3,42.5,8|8|8|8
312,116,57141,2,8,B|296:72,3,42.5,8|8|8|8
256,192,59713,12,4,61998
188,332,62284,6,0,B|188:247|188:247|123:191,1,170,8|0
56,264,62713,1,0
40,164,62856,2,0,B|68:104|132:104|132:104|188:104,1,170,8|0
256,180,63284,5,0
326,104,63427,2,0,B|380:104|380:104|444:104|472:164,1,170,8|0
456,264,63856,1,0
388,192,63998,2,0,B|384:236|349:264,1,85,8|0
264,324,64284,6,0,B|168:316|128:224,1,170,0|8
256,192,64713,1,0
248,60,64855,2,0,B|344:68|384:160,1,170,0|8
256,192,65284,1,0
164,96,65427,6,0,B|132:140|72:136,1,85,2|0
24,260,65713,2,0,B|56:216|116:220,1,85,8|2
108,320,65998,1,0
192,376,66141,1,2
256,296,66284,1,8
320,376,66427,1,2
404,320,66570,6,0,B|468:340|468:340|516:308|500:248,1,170,4|8
416,192,66998,1,0
500,133,67141,2,0,B|516:76|468:44|468:44|404:64,1,170,0|8
316,120,67570,1,0
324,20,67713,5,0
300,220,67998,1,8
208,176,68141,1,0
168,84,68284,2,0,B|123:99|107:143,1,85,0|0
132,244,68570,2,0,B|162:279|209:277,1,85,8|0
308,304,68855,6,0,B|408:328|480:252,1,170,0|8
484,164,69284,1,0
392,208,69427,2,0,B|292:232|220:156,1,170,0|8
204,72,69855,1,0
136,148,69998,6,0,B|108:236,1,85,2|0
176,344,70284,2,0,B|200:264,1,85,8|2
92,368,70570,1,0
24,292,70713,1,2
0,192,70855,1,8
24,92,70998,1,2
92,16,71141,6,0,B|116:100,2,85,4|0|0
204,88,71570,2,0,B|228:172,2,85,0|2|0
320,156,71998,2,0,B|344:240,2,85,0|0|2
440,216,72427,2,0,B|464:300,2,85,0|0|0
368,328,72855,1,2
272,360,72998,1,0
168,360,73141,1,0
76,316,73284,1,0
4,244,73427,6,0,B|40:200|16:152,2,85,4|0|0
104,180,73855,2,0,B|108:123|61:97,2,85,0|2|0
148,68,74284,2,0,B|118:19|65:25,2,85,0|0|2
204,152,74713,1,0
176,248,74855,2,0,B|176:292|216:328,1,85
308,292,75141,1,2
376,368,75284,1,0
472,336,75427,1,0
480,132,75713,6,0,B|480:84|516:48,2,85,4|0|8
394,187,76141,2,0,B|394:102,2,85
308,132,76570,2,0,B|308:84|272:48,1,85,8|0
208,124,76855,6,2,B|167:70|97:140|56:76,1,170,2|8
0,162,77284,1,0
92,204,77427,2,0,B|48:224|36:268,1,85
56,360,77713,2,0,B|100:340|112:296,1,85,8|0
180,236,77998,6,2,B|208:272|200:316,1,85,2|0
252,200,78284,2,0,B|224:164|232:120,1,85,8|2
332,136,78570,1,0
292,44,78713,1,0
392,56,78855,2,2,B|427:84|429:129,1,85,10|0
388,224,79141,6,2,B|416:260|460:264,1,85,2|0
508,384,79427,2,2,B|480:348|436:348,1,85,10|0
306,347,79713,2,2,B|250:347,3,42.5,2|0|0|0
229,347,79998,2,2,B|173:347,3,42.5,10|0|0|0
152,347,80284,6,0,B|59:296|75:196,1,170,4|8
84,108,80713,2,0,B|180:112|222:29,1,170,0|0
316,64,81141,1,8
488,236,81427,6,0,B|412:184,1,85
417,316,81713,2,0,B|487:363,1,85,10|0
316,348,81998,1,0
256,264,82141,1,0
153,264,82284,1,10
93,180,82427,1,0
195,180,82570,6,0,B|296:180|296:180|352:116,1,170,0|8
412,24,82998,2,0,B|311:24|311:24|255:88,1,170,0|0
176,24,83427,1,8
364,104,83713,5,2
444,168,83855,1,0
376,244,83998,1,8
404,340,84141,1,2
308,368,84284,2,0,B|298:322,2,42.5,0|0|2
204,368,84570,2,0,B|213:322,2,42.5,8|0|2
108,340,84855,6,0,B|44:168,1,170,4|8
100,64,85284,2,0,B|164:236,1,170
208,104,85713,1,8
192,304,85998,1,0
256,384,86141,1,0
320,304,86284,1,10
256,224,86427,1,0
300,132,86570,2,0,B|341:145|352:196,1,85,0|0
212,132,86856,2,0,B|170:145|160:196,1,85,10|0
152,80,87141,6,0,B|80:128|80:228,1,170,0|8
28,344,87570,2,0,B|92:372|152:336|152:336|200:348,1,170
319,346,87998,2,0,B|360:336|360:336|420:372|484:344,1,170,8|2
424,260,88427,1,0
336,208,88570,1,8
404,132,88713,1,2
310,92,88855,2,0,B|338:48,2,42.5,0|0|2
202,92,89141,2,0,B|174:48,2,42.5,8|0|2
100,100,89427,6,0,B|136:160|136:160|140:216|72:244,1,170,6|0
164,348,89855,2,0,B|224:312|224:312|280:308|308:376,1,170,2|0
412,284,90284,2,0,B|376:224|376:224|372:168|440:140,1,170,2|0
348,36,90712,2,0,B|288:72|288:72|232:76|204:8,1,170,2|0
100,100,91141,1,2
304,216,91427,1,0
384,280,91570,1,2
304,344,91713,5,4
224,280,91855,1,0
148,348,91998,2,0,B|80:280|140:192,1,170,2|0
60,92,92427,2,0,B|128:24|216:84,1,170,2|0
324,16,92855,2,0,B|392:84|332:172,1,170,2|0
376,264,93284,1,2
420,172,93427,2,0,B|472:172,2,42.5,0|0|2
464,264,93713,2,0,B|512:264,2,42.5,0|0|2
428,360,93998,5,4
332,320,94141,2,0,B|284:332|268:380|268:380|168:380,1,170,2|0
274,236,94570,2,0,B|226:248|210:296|210:296|132:296,1,170,2|0
220,156,94998,1,2
128,200,95141,6,2,B|100:96|196:56,2,170,6|8|0
164,296,95855,1,0
256,336,95998,1,8
348,296,96141,1,0
384,200,96284,6,2,B|336:188|292:212,1,85,2|0
256,116,96570,1,8
164,160,96713,2,2,B|136:56|232:16,1,170,2|0
256,116,97141,1,8
348,72,97284,2,2,B|376:176|280:216,1,170,2|0
188,244,97713,2,2,B|164:276|172:324,1,85,10|0
272,304,97998,2,2,B|300:344,2,42.5,2|0|0
372,276,98284,2,2,B|408:296,2,42.5,10|0|0
500,160,98570,6,0,B|424:224|340:164,1,170,4|8
224,92,98998,2,0,B|300:28|384:88,1,170
264,188,99427,1,8
48,24,99713,2,0,B|92:104,1,85
52,220,99998,2,0,B|8:140,1,85,10|0
140,220,100284,1,0
80,304,100427,1,0
172,348,100570,1,10
236,268,100713,1,0
312,336,100856,6,0,B|364:260|292:180,1,170,0|8
388,40,101284,2,0,B|336:116|408:196,1,170
488,260,101713,1,8
206,248,101998,2,0,B|206:152,1,85,2|0
306,136,102284,2,0,B|306:232,1,85,8|2
400,268,102570,2,0,B|440:228,2,42.5,0|0|2
400,372,102855,1,8
304,332,102998,1,2
304,332,103070,1,0
304,332,103141,6,0,B|266:379|186:367|166:307,1,170,4|8
32,300,103570,2,0,B|10:243|60:180|122:192,1,170,0|0
252,212,103998,1,8
504,208,104284,2,0,B|516:255|488:301,1,85
405,240,104570,1,10
367,333,104713,2,0,B|342:374|289:388,1,85,0|0
274,285,104999,1,0
181,326,105141,2,0,B|133:338|87:310,1,85,10|0
152,228,105427,6,0,B|180:128|80:76,1,170,0|8
232,128,105855,2,0,B|304:202|399:141,1,170,0|0
280,248,106284,2,0,B|179:273|184:386,1,170,8|2
284,352,106713,1,0
368,296,106855,1,8
448,232,106998,1,2
368,168,107141,2,0,B|400:128,2,42.5,0|0|2
268,196,107427,2,0,B|255:148|283:102,1,85,8|2
192,56,107713,6,0,B|148:128|148:128|60:128,1,170,6|0
62,256,108141,2,0,B|148:256|148:256|192:328,1,170,2|0
320,328,108570,2,0,B|364:256|364:256|449:256,1,170,2|0
449,128,108998,2,0,B|364:128|364:128|320:55,1,170,2|0
191,55,109427,2,0,B|148:128|148:128|63:128,1,170,2|0
20,220,109855,1,2
36,320,109998,5,4
136,340,110141,1,0
124,236,110284,2,0,B|153:182|235:182|264:236,1,170,2|0
368,312,110713,2,0,B|338:365|256:365|227:312,1,170,2|0
332,236,111142,2,0,B|361:182|443:182|472:236,1,170,2|0
488,108,111570,1,2
392,68,111713,2,0,B|392:24,2,42.5,0|0|2
296,100,111998,1,0
200,136,112141,1,2
148,48,112284,5,4
88,132,112427,2,0,B|104:180|104:180|80:236|8:240,1,170,2|0
40,336,112855,2,0,B|128:324|180:248,1,170,2|0
192,352,113284,1,2
268,284,113427,2,0,B|320:292|340:356,1,85,0|0
468,360,113713,2,0,B|416:352|396:288,1,85,2|0
500,272,113998,1,0
412,220,114141,1,2
500,168,114284,2,0,B|472:124|416:116,1,85,0|0
360,20,114570,6,0,B|324:96,1,85,6|0
184,172,114855,2,0,B|221:96,1,85,0|2
80,208,115141,2,0,B|116:284,1,85
254,360,115426,2,0,B|217:283,1,85,2|0
352,304,115713,6,0,B|392:291,3,42.5,2|0|0|0
383,240,115998,2,0,B|423:227,3,42.5,2|0|0|0
415,177,116284,2,0,B|455:164,3,42.5,8|8|8|8
447,114,116569,2,0,B|487:101,3,42.5,8|8|8|8
478,50,116855,1,4
256,192,116998,12,0,119141
