osu file format v14

[General]
AudioFilename: TJ PA5CON - Let's Go.mp3
AudioLeadIn: 0
PreviewTime: 13273
Countdown: 0
SampleSet: Soft
StackLeniency: 0.3
Mode: 0
LetterboxInBreaks: 0
WidescreenStoryboard: 0

[Editor]
DistanceSpacing: 0.5
BeatDivisor: 12
GridSize: 32
TimelineZoom: 2.650001

[Metadata]
Title:Let's Go
TitleUnicode:Let's Go
Artist:TJ PA5CON
ArtistUnicode:TJ PA5CON
Creator:DeRandom Otaku
Version:Hard
Source:
Tags:Dubstep astral records pascon akitoshi corinn deppyforce
BeatmapID:1473520
BeatmapSetID:690803

[Difficulty]
HPDrainRate:5
CircleSize:4
OverallDifficulty:6
ApproachRate:8
SliderMultiplier:2.4
SliderTickRate:1

[Events]
//Background and Video events
0,0,"BG.jpg",0,0
//Break Periods
//Storyboard Layer 0 (Background)
//Storyboard Layer 1 (Fail)
//Storyboard Layer 2 (Pass)
//Storyboard Layer 3 (Foreground)
//Storyboard Sound Samples

[TimingPoints]
32,827.586206896552,4,2,0,60,1,0
13273,-111.111111111111,4,2,0,60,0,0
26514,-100,4,2,0,60,0,0
39756,-68.9655172413793,4,2,0,75,0,1
49687,-68.9655172413793,4,2,0,75,0,0
52997,-68.9655172413793,4,2,0,75,0,1
62928,-68.9655172413793,4,2,0,75,0,0

[Colours]
Combo1 : 137,69,69
Combo2 : 0,255,255
Combo3 : 0,128,192
Combo4 : 255,128,0

[HitObjects]
70,59,12652,6,0,L|68:29,2,30,0|0|8,1:0|1:0|0:2,0:0:0:0:
79,99,12963,1,8,0:0:0:0:
79,99,13066,1,2,0:0:0:0:
127,165,13273,6,0,P|196:165|249:244,1,161.999995056153,4|0,1:0|0:0,0:0:0:0:
266,313,14100,1,8,0:0:0:0:
336,167,14514,2,0,P|338:140|330:98,1,53.9999983520508,0|0,0:0|0:0,0:0:0:0:
260,78,14928,2,0,L|428:83,1,161.999995056153,0|0,1:0|0:0,0:0:0:0:
462,87,15652,1,0,1:0:0:0:
462,87,15756,2,0,P|442:138|459:192,1,107.999996704102,8|0,0:0|0:0,0:0:0:0:
495,258,16376,1,0,0:0:0:0:
434,334,16583,6,0,P|400:304|280:304,1,161.999995056153,0|0,1:0|0:0,0:0:0:0:
214,333,17411,1,8,0:0:0:0:
256,176,17825,1,0,0:0:0:0:
114,254,18238,2,0,P|81:185|120:103,1,161.999995056153,0|0,1:0|0:0,0:0:0:0:
139,79,18963,1,0,1:0:0:0:
139,79,19066,2,0,B|192:93|192:93|253:77,1,107.999996704102,8|0,0:0|1:0,0:0:0:0:
319,50,19687,1,0,0:0:0:0:
403,98,19894,6,0,P|373:170|408:255,1,161.999995056153,0|0,1:0|0:0,0:0:0:0:
470,285,20721,2,0,L|304:279,1,161.999995056153,8|0,0:0|0:0,0:0:0:0:
245,227,21549,2,0,L|83:232,1,161.999995056153,0|0,1:0|0:0,0:0:0:0:
42,232,22273,1,0,1:0:0:0:
42,232,22376,2,0,P|32:180|47:116,1,107.999996704102,8|0,0:0|0:0,0:0:0:0:
63,47,22997,1,0,0:0:0:0:
131,116,23204,6,0,B|169:89|177:51|177:51|213:75|258:61,1,161.999995056153,0|0,1:0|0:0,0:0:0:0:
333,43,24032,2,0,L|343:166,1,107.999996704102,8|0,0:0|0:0,0:0:0:0:
454,266,24859,2,0,L|467:104,1,161.999995056153,0|0,1:0|0:0,0:0:0:0:
475,23,25687,1,8,0:0:0:0:
369,65,25894,1,0,1:0:0:0:
467,104,26100,1,8,0:0:0:0:
358,146,26307,1,0,1:0:0:0:
453,265,26514,6,0,P|408:278|351:266,2,90,4|0|0,1:0|0:0|0:0,0:0:0:0:
484,186,27342,2,0,L|480:137,1,30,0|0,1:0|0:0,0:0:0:0:
369,65,27756,1,0,1:0:0:0:
321,134,27963,1,0,0:0:0:0:
321,134,28066,1,0,0:0:0:0:
321,134,28169,2,0,L|215:130,2,90,0|0|0,1:0|0:0|0:0,0:0:0:0:
398,166,28997,2,0,L|399:217,1,30,0|0,1:0|0:0,0:0:0:0:
398,322,29411,1,0,1:0:0:0:
328,274,29618,1,0,0:0:0:0:
328,274,29721,1,0,0:0:0:0:
328,274,29825,6,0,P|314:309|327:372,2,90,0|0|0,1:0|0:0|0:0,0:0:0:0:
330,189,30652,2,0,L|284:190,1,30,0|0,1:0|0:0,0:0:0:0:
203,270,31066,1,0,1:0:0:0:
153,202,31273,1,0,0:0:0:0:
153,202,31376,1,0,0:0:0:0:
153,202,31480,2,0,L|156:113,2,90,0|0|0,1:0|0:0|0:0,0:0:0:0:
82,247,32307,2,0,L|85:297,2,30,0|0|0,1:0|0:0|0:0,0:0:0:0:
22,187,32721,1,0,1:0:0:0:
81,127,32928,1,0,0:0:0:0:
81,127,33032,1,0,0:0:0:0:
81,127,33135,6,0,L|78:77,7,30,0|0|0|0|0|0|0|0,1:0|0:0|1:0|0:0|1:0|0:0|1:0|0:0,0:0:0:0:
156,112,33963,2,0,L|157:82,7,30,0|0|0|0|0|0|0|0,1:0|0:0|1:0|0:0|1:0|0:0|1:0|0:0,0:0:0:0:
234,130,34790,2,0,L|231:80,7,30,0|0|0|0|0|0|0|0,1:0|0:0|1:0|0:0|1:0|0:0|1:0|0:0,0:0:0:0:
309,115,35618,5,0,1:0:0:0:
328,116,35721,1,0,0:0:0:0:
348,117,35825,1,0,1:0:0:0:
368,118,35928,1,0,0:0:0:0:
388,119,36032,2,0,L|431:123,3,30,0|0|0|0,1:0|0:0|1:0|0:0,0:0:0:0:
256,192,36445,12,2,38100,1:2:0:0:
189,198,39135,6,0,L|191:246,2,30,0|0|8,1:0|1:0|0:0,0:0:0:0:
187,153,39445,1,8,0:0:0:0:
187,153,39549,1,2,0:0:0:0:
246,65,39756,6,0,L|388:70,1,116.000003540039,4|0,1:0|0:0,0:0:0:0:
442,77,40169,2,0,P|447:42|437:1,2,58.0000017700196,0|0|0,0:0|0:0|0:0,0:0:0:0:
394,143,40583,2,0,L|403:272,1,116.000003540039,8|0,0:0|0:0,0:0:0:0:
410,340,40997,2,0,P|444:335|484:343,2,58.0000017700196,0|0|0,0:0|0:0|0:0,0:0:0:0:
334,308,41411,5,0,1:0:0:0:
257,339,41549,2,0,P|228:334|200:337,1,58.0000017700196
118,347,41825,2,0,P|89:349|60:344,2,58.0000017700196,0|0|0,0:0|0:0|0:0,0:0:0:0:
92,269,42238,2,0,L|89:193,1,58.0000017700196,8|0,0:0|0:0,0:0:0:0:
84,129,42514,1,0,0:0:0:0:
155,167,42652,2,0,P|187:171|218:165,1,58.0000017700196,0|0,0:0|0:0,0:0:0:0:
293,155,42928,1,0,0:0:0:0:
239,92,43066,6,0,P|285:73|362:108,1,116.000003540039,0|0,1:0|0:0,0:0:0:0:
425,73,43480,2,0,L|422:158,1,58.0000017700196,0|0,0:0|0:0,0:0:0:0:
369,192,43756,1,0,0:0:0:0:
448,208,43894,2,0,B|462:268|462:268|451:323,1,116.000003540039,8|0,0:0|0:0,0:0:0:0:
381,363,44307,1,0,0:0:0:0:
319,310,44445,2,0,L|251:318,1,58.0000017700196,0|0,0:0|0:0,0:0:0:0:
179,324,44721,5,0,1:0:0:0:
214,250,44859,2,0,B|217:223|217:223|204:178,1,58.0000017700196,0|0,0:0|0:0,0:0:0:0:
190,113,45135,2,0,P|163:129|121:134,2,58.0000017700196,0|0|0,0:0|0:0|0:0,0:0:0:0:
263,78,45549,2,0,L|254:5,2,58.0000017700196,8|0|0,0:0|0:0|0:0,0:0:0:0:
333,119,45963,1,0,3:0:0:0:
325,199,46100,1,0,3:0:0:0:
317,279,46238,1,0,3:0:0:0:
341,356,46376,6,0,P|395:330|462:331,1,116.000003540039,4|0,1:0|0:0,0:0:0:0:
494,259,46790,2,0,P|498:234|492:192,1,58.0000017700196,0|0,0:0|0:0,0:0:0:0:
481,120,47066,1,0,0:0:0:0:
419,173,47204,2,0,L|357:169,2,58.0000017700196,8|0|0,0:0|0:0|0:0,0:0:0:0:
346,244,47618,2,0,L|284:248,2,58.0000017700196,0|0|0,0:0|0:0|0:0,0:0:0:0:
273,173,48032,5,0,1:0:0:0:
204,216,48169,2,0,P|197:247|207:295,1,58.0000017700196,0|0,0:0|0:0,0:0:0:0:
202,354,48445,2,0,B|229:349|229:349|261:354,2,58.0000017700196,0|0|0,0:0|0:0|0:0,0:0:0:0:
122,372,48859,2,0,B|114:340|128:301|128:301|103:295|78:302,1,116.000003540039,8|0,0:0|0:0,0:0:0:0:
7,272,49273,2,0,P|24:223|11:149,1,116.000003540039,0|0,0:0|0:0,0:0:0:0:
75,102,49687,6,0,B|114:90|114:90|199:100,1,116.000003540039,0|0,1:0|0:0,0:0:0:0:
251,151,50100,2,0,P|263:127|269:82,2,58.0000017700196,0|0|0,0:0|0:0|0:0,0:0:0:0:
185,199,50514,2,0,P|241:189|292:221,1,116.000003540039,8|0,0:0|0:0,0:0:0:0:
227,270,50928,2,0,L|232:327,2,58.0000017700196,0|0|0,0:0|0:0|0:0,0:0:0:0:
154,308,51342,6,0,B|109:311|109:311|89:320|89:320|38:323,1,116.000003540039,2|0,1:2|0:0,0:0:0:0:
64,244,51756,2,0,P|66:215|62:186,1,58.0000017700196,0|0,0:0|0:0,0:0:0:0:
45,106,52032,1,0,0:0:0:0:
119,136,52169,6,0,L|162:134,2,43.5000013275147,8|8|0,0:0|0:0|1:0,0:0:0:0:
162,21,52583,2,0,L|118:19,2,43.5000013275147,8|8|0,0:0|0:0|1:0,0:0:0:0:
311,80,52997,6,0,P|289:134|312:194,1,116.000003540039,4|0,1:0|0:0,0:0:0:0:
386,170,53411,2,0,L|379:248,1,58.0000017700196,0|0,0:0|0:0,0:0:0:0:
370,308,53687,1,0,0:0:0:0:
305,357,53825,2,0,B|265:342|265:342|174:357,1,116.000003540039,8|0,0:0|0:0,0:0:0:0:
122,312,54238,2,0,L|64:319,2,58.0000017700196,0|0|0,0:0|0:0|0:0,0:0:0:0:
173,248,54652,5,0,1:0:0:0:
110,195,54790,2,0,P|110:166|117:130,1,58.0000017700196,0|0,0:0|0:0,0:0:0:0:
153,65,55066,2,0,P|124:60|95:60,2,58.0000017700196,0|0|0,0:0|0:0|0:0,0:0:0:0:
209,126,55480,2,0,P|226:103|237:64,1,58.0000017700196,8|0,0:0|0:0,0:0:0:0:
293,17,55756,1,0,0:0:0:0:
350,74,55894,2,0,P|359:101|376:124,2,58.0000017700196,0|0|0,0:0|0:0|0:0,0:0:0:0:
433,63,56307,6,0,P|460:131|435:184,1,116.000003540039,0|0,1:0|0:0,0:0:0:0:
455,250,56721,2,0,L|388:242,1,58.0000017700196,0|0,0:0|0:0,0:0:0:0:
329,197,56997,1,0,0:0:0:0:
271,254,57135,2,0,P|247:194|265:146,1,116.000003540039,8|0,0:0|0:0,0:0:0:0:
275,67,57549,2,0,L|332:65,2,58.0000017700196,0|0|0,0:0|0:0|0:0,0:0:0:0:
193,74,57963,5,0,1:0:0:0:
130,125,58100,2,0,P|137:154|137:185,1,58.0000017700196,0|0,0:0|0:0,0:0:0:0:
56,192,58376,2,0,P|49:163|49:132,2,58.0000017700196,0|0|0,0:0|0:0|0:0,0:0:0:0:
103,258,58790,2,0,L|95:324,2,58.0000017700196,8|0|0,0:0|0:0|0:0,0:0:0:0:
137,182,59204,1,0,3:0:0:0:
217,190,59341,1,0,3:0:0:0:
297,198,59479,1,0,3:0:0:0:
353,258,59618,6,0,P|378:209|360:143,1,116.000003540039,4|0,1:0|0:0,0:0:0:0:
335,75,60032,2,0,P|313:90|291:120,1,58.0000017700196,0|0,0:0|0:0,0:0:0:0:
297,198,60307,1,0,0:0:0:0:
353,258,60445,2,0,L|425:251,2,58.0000017700196,8|0|0,0:0|0:0|0:0,0:0:0:0:
353,339,60859,2,0,L|425:346,2,58.0000017700196,0|0|0,0:0|0:0|0:0,0:0:0:0:
353,258,61273,5,0,1:0:0:0:
281,298,61411,2,0,L|214:302,1,58.0000017700196,0|0,0:0|0:0,0:0:0:0:
165,243,61687,2,0,L|107:239,2,58.0000017700196
222,185,62100,2,0,B|237:129|237:129|218:68,1,116.000003540039,8|0,0:0|0:0,0:0:0:0:
160,17,62514,2,0,P|216:34|271:16,1,116.000003540039,0|0,0:0|0:0,0:0:0:0:
314,85,62928,6,0,L|442:78,1,116.000003540039,0|0,1:0|0:0,0:0:0:0:
489,134,63342,2,0,P|495:165|491:191,1,58.0000017700196,0|0,0:0|0:0,0:0:0:0:
430,245,63618,1,0,0:0:0:0:
413,164,63756,2,0,L|297:170,1,116.000003540039,8|0,0:0|0:0,0:0:0:0:
216,179,64169,2,0,P|214:209|220:240,2,58.0000017700196,0|0|0,0:0|0:0|0:0,0:0:0:0:
219,96,64583,6,0,P|271:119|297:170,1,116.000003540039,2|0,1:2|0:0,0:0:0:0:
358,223,64997,2,0,L|350:294,2,58.0000017700196,0|0|0,0:0|0:0|0:0,0:0:0:0:
413,164,65411,6,0,L|406:106,2,43.5000013275147,8|8|0,0:0|0:0|1:0,0:0:0:0:
457,278,65825,2,0,L|450:335,2,43.5000013275147,8|8|0,0:0|0:0|1:0,0:0:0:0:
481,64,66238,1,4,1:0:0:0:
