osu file format v14

[General]
AudioFilename: TJ PA5CON - Let's Go.mp3
AudioLeadIn: 0
PreviewTime: 13273
Countdown: 0
SampleSet: Soft
StackLeniency: 0.3
Mode: 0
LetterboxInBreaks: 0
WidescreenStoryboard: 0

[Editor]
DistanceSpacing: 0.5
BeatDivisor: 12
GridSize: 32
TimelineZoom: 1.350001

[Metadata]
Title:Let's Go
TitleUnicode:Let's Go
Artist:TJ PA5CON
ArtistUnicode:TJ PA5CON
Creator:DeRandom Otaku
Version:Deppy's Normal
Source:
Tags:Dubstep astral records pascon akitoshi corinn deppyforce
BeatmapID:1484136
BeatmapSetID:690803

[Difficulty]
HPDrainRate:3.3
CircleSize:3.7
OverallDifficulty:3.5
ApproachRate:4
SliderMultiplier:1.8
SliderTickRate:1

[Events]
//Background and Video events
0,0,"BG.jpg",0,0
//Break Periods
//Storyboard Layer 0 (Background)
//Storyboard Layer 1 (Fail)
//Storyboard Layer 2 (Pass)
//Storyboard Layer 3 (Foreground)
//Storyboard Sound Samples

[TimingPoints]
32,827.586206896552,4,2,0,60,1,0
39756,-93.4579439252336,4,2,0,75,0,1
49687,-93.4579439252336,4,2,0,75,0,0
52997,-93.4579439252336,4,2,0,75,0,1
62928,-93.4579439252336,4,2,0,75,0,0

[Colours]
Combo1 : 137,69,69
Combo2 : 0,255,255
Combo3 : 0,128,192
Combo4 : 255,128,0

[HitObjects]
117,292,13273,6,0,L|25:298,2,90,4|0|8,1:0|0:0|0:0,0:0:0:0:
197,364,14514,1,0,0:0:0:0:
197,364,14721,1,0,0:0:0:0:
197,364,14928,2,0,P|225:281|180:206,1,180,0|8,1:0|0:0,0:0:0:0:
256,130,16169,1,0,0:0:0:0:
348,183,16583,6,0,P|413:164|479:172,1,135,0|0,1:0|0:0,0:0:0:0:
510,217,17411,2,0,B|513:262|513:262|502:305,1,90,8|0,0:0|0:0,0:0:0:0:
417,373,18238,2,0,L|327:370,1,90,0|0,1:0|0:0,0:0:0:0:
256,288,19065,1,8,0:0:0:0:
331,210,19479,1,0,1:0:0:0:
256,130,19894,38,0,B|219:155|170:138|170:138|121:120|83:141,2,180,0|8|0,1:0|0:0|1:0,0:0:0:0:
331,210,21963,1,0,0:0:0:0:
432,172,22376,2,0,P|458:137|466:93,1,90,8|0,0:0|0:0,0:0:0:0:
428,54,22997,1,0,0:0:0:0:
390,14,23204,6,0,L|299:21,1,90,0|0,1:0|0:0,0:0:0:0:
234,106,24032,2,0,L|143:99,1,90,8|0,0:0|0:0,0:0:0:0:
53,40,24859,1,0,1:0:0:0:
7,373,26514,38,0,P|73:370|118:322,1,135,4|0,1:0|0:0,0:0:0:0:
137,271,27342,1,0,1:0:0:0:
244,282,27756,2,0,L|247:326,1,45,0|0,1:0|0:0,0:0:0:0:
256,379,28169,2,0,P|295:358|339:351,1,90,0|0,1:0|1:0,0:0:0:0:
445,373,28997,2,0,P|423:333|416:289,1,90,0|0,1:0|1:0,0:0:0:0:
477,200,29825,6,0,B|490:155|490:155|473:68,1,135,0|0,1:0|0:0,0:0:0:0:
458,16,30652,2,0,L|368:23,1,90,0|0,1:0|1:0,0:0:0:0:
272,73,31480,2,0,P|258:115|261:160,1,90,0|0,1:0|1:0,0:0:0:0:
340,233,32307,2,0,P|342:277|329:320,1,90,0|0,1:0|1:0,0:0:0:0:
224,347,33135,1,0,1:0:0:0:
256,192,33342,12,0,38100,1:0:0:0:
15,327,39342,5,8,0:0:0:0:
15,211,39756,2,0,B|65:202|65:202|155:229,1,144.449995591736,4|0,1:0|0:0,0:0:0:0:
207,252,40583,2,0,L|199:156,1,96.2999970611573,8|0,0:0|0:0,0:0:0:0:
271,66,41411,2,0,L|366:76,1,96.2999970611573,0|0,1:0|0:0,0:0:0:0:
422,58,42032,1,0,0:0:0:0:
475,37,42238,2,0,L|521:25,2,48.1499985305787,8|0|0,0:0|0:0|0:0,0:0:0:0:
454,151,43066,5,0,1:0:0:0:
484,262,43480,1,0,0:0:0:0:
484,262,43687,1,0,0:0:0:0:
484,262,43894,2,0,B|434:257|434:257|406:296|406:296|411:305|411:305|396:338|396:338|348:341,1,192.599994122315,8|0,0:0|1:0,0:0:0:0:
270,253,45135,2,0,L|175:264,1,96.2999970611573,0|8,0:0|0:0,0:0:0:0:
71,317,45963,1,0,3:0:0:0:
71,317,46169,1,0,3:0:0:0:
71,317,46376,38,0,B|75:273|75:273|66:260|66:260|80:176,1,144.449995591736,4|0,1:0|0:0,0:0:0:0:
94,120,47205,1,8,0:0:0:0:
205,148,47618,1,0,0:0:0:0:
303,86,48032,2,0,L|301:37,2,48.1499985305787,0|0|0,1:0|0:0|0:0,0:0:0:0:
349,192,48859,2,0,L|345:288,1,96.2999970611573,8|0,0:0|0:0,0:0:0:0:
377,336,49480,1,0,0:0:0:0:
410,383,49687,5,0,1:0:0:0:
484,294,50100,2,0,B|504:236|504:236|456:185|456:185|463:123,1,192.599994122315,0|0,0:0|0:0,0:0:0:0:
397,30,51342,2,0,L|300:37,1,96.2999970611573,2|0,1:2|0:0,0:0:0:0:
199,93,52169,1,8,0:0:0:0:
199,93,52376,1,0,1:0:0:0:
199,93,52583,1,8,0:0:0:0:
86,64,52997,38,0,B|74:163|74:163|89:204,1,144.449995591736,4|0,1:0|0:0,0:0:0:0:
82,262,53825,2,0,L|176:244,1,96.2999970611573,8|0,0:0|0:0,0:0:0:0:
275,183,54652,2,0,L|287:282,1,96.2999970611573,0|0,1:0|0:0,0:0:0:0:
324,323,55273,1,0,0:0:0:0:
369,359,55480,2,0,L|415:373,2,48.1499985305787,8|0|0,0:0|0:0|0:0,0:0:0:0:
399,247,56307,5,0,1:0:0:0:
485,170,56721,1,0,0:0:0:0:
485,170,56928,1,0,0:0:0:0:
485,170,57135,2,0,B|475:75|475:75|379:86,1,192.599994122315,8|0,0:0|1:0,0:0:0:0:
278,144,58376,2,0,L|181:137,1,96.2999970611573,0|8,0:0|0:0,0:0:0:0:
89,66,59204,1,0,3:0:0:0:
89,66,59411,1,0,3:0:0:0:
89,66,59618,38,0,B|65:133|65:133|79:204,1,144.449995591736,4|0,1:0|0:0,0:0:0:0:
95,260,60445,1,8,0:0:0:0:
41,363,60860,1,0,0:0:0:0:
156,356,61273,2,0,L|201:372,2,48.1499985305787,0|0|0,1:0|0:0|0:0,0:0:0:0:
95,260,62100,2,0,L|190:245,1,96.2999970611573,8|0,0:0|0:0,0:0:0:0:
244,266,62721,1,0,0:0:0:0:
297,286,62928,5,0,1:0:0:0:
279,171,63342,2,0,B|302:130|302:130|347:138|347:138|390:113|390:113|436:139,1,192.599994122315
511,219,64583,2,0,L|506:315,1,96.2999970611573,2|0,1:2|0:0,0:0:0:0:
398,357,65411,1,8,0:0:0:0:
398,357,65618,1,0,1:0:0:0:
398,357,65825,2,0,L|401:304,1,48.1499985305787,8|0,0:0|1:0,0:0:0:0:
406,251,66238,5,4,1:0:0:0:
