osu file format v14

[General]
AudioFilename: TJ PA5CON - Let's Go.mp3
AudioLeadIn: 0
PreviewTime: 13273
Countdown: 0
SampleSet: Soft
StackLeniency: 0.3
Mode: 0
LetterboxInBreaks: 0
WidescreenStoryboard: 0

[Editor]
DistanceSpacing: 1.7
BeatDivisor: 6
GridSize: 32
TimelineZoom: 3.05

[Metadata]
Title:Let's Go
TitleUnicode:Let's Go
Artist:TJ PA5CON
ArtistUnicode:TJ PA5CON
Creator:DeRandom Otaku
Version:Advanced
Source:
Tags:Dubstep astral records pascon akitoshi corinn deppyforce
BeatmapID:1473813
BeatmapSetID:690803

[Difficulty]
HPDrainRate:5
CircleSize:3.8
OverallDifficulty:5
ApproachRate:6.5
SliderMultiplier:2
SliderTickRate:1

[Events]
//Background and Video events
0,0,"BG.jpg",0,0
//Break Periods
//Storyboard Layer 0 (Background)
//Storyboard Layer 1 (Fail)
//Storyboard Layer 2 (Pass)
//Storyboard Layer 3 (Foreground)
//Storyboard Sound Samples

[TimingPoints]
32,827.586206896552,4,2,0,60,1,0
13273,-111.111111111111,4,2,0,60,0,0
26514,-100,4,2,0,60,0,0
39756,-74.0740740740741,4,2,0,75,0,1
49687,-74.0740740740741,4,2,0,75,0,0
52997,-74.0740740740741,4,2,0,75,0,1
62928,-74.0740740740741,4,2,0,75,0,0

[Colours]
Combo1 : 137,69,69
Combo2 : 0,255,255
Combo3 : 0,128,192
Combo4 : 255,128,0

[HitObjects]
242,321,13273,6,0,L|135:329,1,89.9999972534181,4|0,1:0|0:0,0:0:0:0:
35,243,14100,1,8,0:0:0:0:
130,135,14514,2,0,L|126:76,1,44.999998626709,0|0,0:0|0:0,0:0:0:0:
81,33,14928,2,0,P|123:33|170:7,1,89.9999972534181,0|0,1:0|0:0,0:0:0:0:
287,87,15756,2,0,L|282:190,1,89.9999972534181,8|0,0:0|0:0,0:0:0:0:
239,234,16376,1,0,0:0:0:0:
239,234,16583,6,0,P|280:229|338:239,1,89.9999972534181,0|0,1:0|0:0,0:0:0:0:
417,349,17411,2,0,P|375:358|319:346,1,89.9999972534181,8|0,0:0|0:0,0:0:0:0:
190,311,18238,2,0,L|88:318,1,89.9999972534181,0|0,1:0|0:0,0:0:0:0:
25,193,19066,2,0,B|33:151|33:151|27:86,1,89.9999972534181,8|0,0:0|1:0,0:0:0:0:
20,32,19687,1,0,1:0:0:0:
87,58,19894,6,0,L|191:58,1,89.9999972534181,0|0,1:0|0:0,0:0:0:0:
321,58,20721,2,0,P|333:103|323:149,1,89.9999972534181,8|0,0:0|0:0,0:0:0:0:
222,246,21549,2,0,P|210:291|220:337,1,89.9999972534181,0|0,1:0|0:0,0:0:0:0:
358,298,22376,2,0,L|448:298,1,89.9999972534181,8|0,0:0|0:0,0:0:0:0:
499,246,22997,1,0,0:0:0:0:
448,195,23204,6,0,B|448:150|448:150|473:105,1,89.9999972534181,0|0,1:0|0:0,0:0:0:0:
354,23,24032,2,0,P|316:41|266:41,1,89.9999972534181,8|0,0:0|0:0,0:0:0:0:
126,19,24859,2,0,L|135:160,1,134.999995880127,0|0,1:0|0:0,0:0:0:0:
147,224,25687,1,8,0:0:0:0:
205,182,25894,1,0,1:0:0:0:
276,182,26100,1,8,0:0:0:0:
335,140,26307,1,0,1:0:0:0:
387,201,26514,6,0,P|409:167|411:111,2,75,4|0|0,1:0|0:0|0:0,0:0:0:0:
332,259,27342,1,0,1:0:0:0:
223,377,27756,2,0,P|224:349|232:318,1,50,0|0,1:0|0:0,0:0:0:0:
252,251,28169,2,0,L|165:248,2,75,0|0|0,1:0|0:0|0:0,0:0:0:0:
332,259,28997,1,0,1:0:0:0:
413,121,29411,2,0,L|349:124,1,50,0|0,1:0|0:0,0:0:0:0:
292,161,29825,6,0,P|285:123|293:83,2,75,0|0|0,1:0|0:0|0:0,0:0:0:0:
318,236,30652,1,0,1:0:0:0:
164,190,31066,2,0,L|114:193,1,50,0|0,1:0|0:0,0:0:0:0:
46,237,31480,2,0,P|34:198|46:150,2,75,0|0|0,1:0|0:0|0:0,0:0:0:0:
106,289,32307,2,0,L|102:342,1,50,0|0,1:0|0:0,0:0:0:0:
174,373,32721,1,0,1:0:0:0:
250,350,32928,1,0,0:0:0:0:
256,192,33135,12,0,38100,1:0:0:0:
112,78,39756,6,0,L|116:217,1,135.000000514984,4|0,1:0|0:0,0:0:0:0:
181,252,40307,2,0,L|179:304,1,45.0000001716614,0|0,0:0|0:0,0:0:0:0:
115,339,40583,2,0,L|256:339,1,135.000000514984,8|0,0:0|0:0,0:0:0:0:
326,345,41135,2,0,P|325:325|327:280,1,45.0000001716614,0|0,0:0|0:0,0:0:0:0:
384,251,41411,2,0,P|321:251|307:147,1,180.000000686646,0|0,1:0|0:0,0:0:0:0:
404,39,42238,2,0,L|455:35,2,45.0000001716614,8|0|0,0:0|0:0|0:0,0:0:0:0:
404,116,42652,2,0,L|455:120,2,45.0000001716614,0|0|0,0:0|0:0|0:0,0:0:0:0:
335,81,43066,6,0,L|198:88,1,135.000000514984,0|0,1:0|0:0,0:0:0:0:
123,95,43618,2,0,B|121:118|121:118|127:154,1,45.0000001716614,0|0,0:0|0:0,0:0:0:0:
190,179,43894,2,0,P|129:179|84:235,1,135.000000514984,8|0,0:0|0:0,0:0:0:0:
159,249,44445,2,0,L|163:293,1,45.0000001716614,0|0,0:0|0:0,0:0:0:0:
201,361,44721,2,0,B|288:337|288:337|383:361,1,180.000000686646,0|0,1:0|0:0,0:0:0:0:
453,226,45549,2,0,L|503:220,2,45.0000001716614,8|0|0,0:0|0:0|0:0,0:0:0:0:
375,226,45963,2,0,L|325:220,2,45.0000001716614,0|0|0,3:0|3:0|3:0,0:0:0:0:
412,159,46376,6,0,L|408:62,1,90.0000003433228,4|0,1:0|0:0,0:0:0:0:
348,20,46790,1,0,0:0:0:0:
348,20,46928,2,0,P|316:29|276:33,1,45.0000001716614,0|0,0:0|0:0,0:0:0:0:
230,52,47204,2,0,L|222:2,2,45.0000001716614,8|0|0,0:0|0:0|0:0,0:0:0:0:
162,88,47618,2,0,L|120:58,2,45.0000001716614,0|0|0,0:0|0:0|0:0,0:0:0:0:
227,128,48032,2,0,B|217:200|217:200|222:232|222:232|214:308,1,180.000000686646,0|0,1:0|0:0,0:0:0:0:
70,359,48859,2,0,P|51:324|51:266,1,90.0000003433228,8|0,0:0|0:0,0:0:0:0:
116,236,49273,2,0,L|111:139,1,90.0000003433228,0|0,0:0|0:0,0:0:0:0:
158,85,49687,6,0,B|200:70|200:70|297:77,1,135.000000514984,0|0,1:0|0:0,0:0:0:0:
356,114,50238,2,0,P|384:119|419:111,1,45.0000001716614
474,95,50514,1,8,0:0:0:0:
484,247,50790,2,0,P|485:275|479:304,1,45.0000001716614
459,365,51066,2,0,P|425:362|406:356,1,45.0000001716614
344,327,51342,2,0,B|280:347|280:347|201:327,1,135.000000514984,2|0,1:2|0:0,0:0:0:0:
141,305,51894,1,0,0:0:0:0:
188,160,52169,6,0,L|186:110,2,33.750000128746,8|8|0,0:0|0:0|1:0,0:0:0:0:
280,228,52583,2,0,L|278:261,2,33.750000128746,8|8|0,0:0|0:0|1:0,0:0:0:0:
363,147,52997,6,0,L|358:288,1,135.000000514984,4|0,1:0|0:0,0:0:0:0:
351,358,53549,2,0,P|318:364|294:364,1,45.0000001716614,0|0,0:0|0:0,0:0:0:0:
235,333,53825,2,0,L|97:336,1,135.000000514984,8|0,0:0|0:0,0:0:0:0:
43,284,54376,2,0,P|40:254|45:222,1,45.0000001716614,0|0,0:0|0:0,0:0:0:0:
41,162,54652,2,0,B|144:136|113:185|230:150,1,180.000000686646,0|0,1:0|0:0,0:0:0:0:
361,97,55480,2,0,L|349:45,2,45.0000001716614,8|0|0,0:0|0:0|0:0,0:0:0:0:
361,174,55894,2,0,L|349:226,2,45.0000001716614,0|0|0,0:0|0:0|0:0,0:0:0:0:
429,136,56307,6,0,L|292:143,1,135.000000514984,0|0,1:0|0:0,0:0:0:0:
218,153,56859,2,0,L|222:212,1,45.0000001716614,0|0,0:0|0:0,0:0:0:0:
233,274,57135,2,0,P|179:295|98:277,1,135.000000514984,8|0,0:0|0:0,0:0:0:0:
30,265,57687,2,0,L|34:221,1,45.0000001716614
109,200,57963,2,0,L|103:18,1,180.000000686646,0|0,1:0|0:0,0:0:0:0:
214,124,58790,2,0,L|212:79,2,45.0000001716614,8|0|0,0:0|0:0|0:0,0:0:0:0:
268,178,59204,2,0,L|266:222,2,45.0000001716614,0|0|0,3:0|3:0|3:0,0:0:0:0:
322,123,59618,6,0,P|364:123|411:126,1,90.0000003433228,4|0,1:0|0:0,0:0:0:0:
488,137,60031,1,0,0:0:0:0:
488,137,60169,2,0,P|485:165|485:194,1,45.0000001716614,0|0,0:0|0:0,0:0:0:0:
449,250,60445,2,0,P|477:258|504:258,2,45.0000001716614,8|0|0,0:0|0:0|0:0,0:0:0:0:
373,237,60859,1,0,0:0:0:0:
373,237,60997,2,0,L|376:297,1,45.0000001716614,0|0,0:0|0:0,0:0:0:0:
369,358,61273,2,0,B|288:346|288:346|246:371|182:361,1,180.000000686646,0|0,1:0|0:0,0:0:0:0:
49,317,62100,2,0,P|39:275|53:227,1,90.0000003433228,8|0,0:0|0:0,0:0:0:0:
105,176,62514,2,0,P|116:133|106:89,1,90.0000003433228,0|0,0:0|0:0,0:0:0:0:
51,36,62928,6,0,B|90:15|90:15|184:20,1,135.000000514984,0|0,1:0|0:0,0:0:0:0:
245,61,63480,2,0,P|247:85|243:128,1,45.0000001716614,0|0,0:0|0:0,0:0:0:0:
232,181,63755,1,8,0:0:0:0:
116,281,64032,2,0,L|113:335,1,45.0000001716614
40,348,64307,2,0,L|37:303,1,45.0000001716614
59,228,64583,2,0,L|220:236,1,135.000000514984,2|0,1:2|0:0,0:0:0:0:
270,242,65135,1,0,0:0:0:0:
195,108,65411,6,0,L|193:58,2,33.750000128746,8|8|0,0:0|0:0|1:0,0:0:0:0:
307,134,65825,2,0,L|340:136,2,33.750000128746,8|8|0,0:0|0:0|1:0,0:0:0:0:
270,242,66238,1,4,1:0:0:0:
